<?xml version="1.0" standalone="no"?>
<!DOCTYPE svg PUBLIC "-//W3C//DTD SVG 1.1//EN" "http://www.w3.org/Graphics/SVG/1.1/DTD/svg11.dtd" >
<svg xmlns="http://www.w3.org/2000/svg" xmlns:xlink="http://www.w3.org/1999/xlink" version="1.1">
<metadata>
Created by FontForge 20201107 at Fri May 11 09:45:17 2018
 By 
Copyright (c) 2018 by Moritz Kleinsorge &#38; Alberto Romanos. All rights reserved.
</metadata>
<defs>
<font id="BwVivant-Skinny" horiz-adv-x="0" >
  <font-face 
    font-family="Bw Vivant Thin Skinny"
    font-weight="100"
    font-stretch="normal"
    units-per-em="2048"
    panose-1="0 0 2 0 0 0 0 0 0 0"
    ascent="1597"
    descent="-451"
    x-height="1087"
    cap-height="1536"
    bbox="-1538 -477 5460 1980"
    underline-thickness="0"
    underline-position="0"
    unicode-range="U+000D-FB02"
  />
<missing-glyph horiz-adv-x="2541" 
d="M1694 -6q-14 -14 -35 -14q-27 0 -34 13t-7 34v663l-694 -696q-14 -14 -35 -14q-27 0 -34 13t-7 34v663l-696 -696q-14 -14 -35 -14q-14 0 -24.5 10t-10.5 26q0 20 10 31l701 698h-664q-47 0 -47 39q0 18 14 33l697 701h-670q-18 0 -29.5 10t-11.5 28v3q0 18 11 28t30 10
h758q20 0 33.5 -7t13.5 -34q0 -18 -17 -34l-698 -697h676q16 0 28.5 -12t12.5 -29v-669l694 692q16 16 35 16q37 0 37 -45v-663l696 692q16 16 33 16q14 0 24.5 -11t10.5 -28q0 -16 -13 -28z" />
    <glyph glyph-name="uniFB01" unicode="fi" horiz-adv-x="1228" 
d="M334 1087h409v-32h-409v-1055h-82v1055h-215v32h215v220q0 139 86 225t225 86q45 0 92 -13.5t82 -37.5l-8 -17q-31 14 -75 23.5t-81 9.5q-109 0 -174 -74.5t-65 -195.5v-226zM1040.5 1513.5q16.5 -16.5 16.5 -43.5t-16.5 -44t-45.5 -17q-27 0 -44 17.5t-17 43.5
q0 27 16.5 43.5t44.5 16.5q29 0 45.5 -16.5zM956 1087h82v-1087h-82v1087z" />
    <glyph glyph-name="uniFB02" unicode="fl" horiz-adv-x="1228" 
d="M334 1087h409v-32h-409v-1055h-82v1055h-215v32h215v220q0 139 86 225t225 86q45 0 92 -13.5t82 -37.5l-8 -17q-31 14 -75 23.5t-81 9.5q-109 0 -174 -74.5t-65 -195.5v-226zM1038 1597v-1597h-82v1597h82z" />
    <glyph glyph-name="f_f.liga" unicode="ff" horiz-adv-x="1470" 
d="M1385.5 1590.5q64.5 -27.5 103.5 -72.5l-14 -15q-33 37 -91.5 58.5t-119.5 21.5q-109 0 -174.5 -73.5t-65.5 -196.5v-226h410v-32h-410v-1055h-82v1055h-608v-1055h-82v1055h-215v32h215v220q0 139 86 225t225 86q53 0 108.5 -18.5t94.5 -51.5l-8 -16q-37 23 -89.5 37
t-95.5 14q-109 0 -174 -74.5t-65 -195.5v-226h608v220q0 139 86 225t225 86q68 0 132.5 -27.5z" />
    <glyph glyph-name="f_f_i.liga" unicode="ffi" horiz-adv-x="1916" 
d="M1024 1087h408v-32h-408v-1055h-82v1055h-608v-1055h-82v1055h-215v32h215v220q0 139 86 225t225 86q53 0 108.5 -18.5t94.5 -51.5l-8 -16q-37 23 -89.5 37t-95.5 14q-109 0 -174 -74.5t-65 -195.5v-226h608v220q0 139 85 225t226 86q45 0 92.5 -13.5t79.5 -37.5l-8 -17
q-29 14 -74 23.5t-81 9.5q-106 0 -172 -74.5t-66 -195.5v-226zM1728.5 1513.5q16.5 -16.5 16.5 -43.5t-16.5 -44t-45.5 -17q-27 0 -44 17.5t-17 43.5q0 27 16.5 43.5t44.5 16.5q29 0 45.5 -16.5zM1645 1087h81v-1087h-81v1087z" />
    <glyph glyph-name="f_f_l.liga" unicode="ffl" horiz-adv-x="1916" 
d="M1024 1087h408v-32h-408v-1055h-82v1055h-608v-1055h-82v1055h-215v32h215v220q0 139 86 225t225 86q53 0 108.5 -18.5t94.5 -51.5l-8 -16q-37 23 -89.5 37t-95.5 14q-109 0 -174 -74.5t-65 -195.5v-226h608v220q0 139 85 225t226 86q45 0 92.5 -13.5t79.5 -37.5l-8 -17
q-29 14 -74 23.5t-81 9.5q-106 0 -172 -74.5t-66 -195.5v-226zM1726 1597v-1597h-81v1597h81z" />
    <glyph glyph-name=".notdef" horiz-adv-x="2541" 
d="M1694 -6q-14 -14 -35 -14q-27 0 -34 13t-7 34v663l-694 -696q-14 -14 -35 -14q-27 0 -34 13t-7 34v663l-696 -696q-14 -14 -35 -14q-14 0 -24.5 10t-10.5 26q0 20 10 31l701 698h-664q-47 0 -47 39q0 18 14 33l697 701h-670q-18 0 -29.5 10t-11.5 28v3q0 18 11 28t30 10
h758q20 0 33.5 -7t13.5 -34q0 -18 -17 -34l-698 -697h676q16 0 28.5 -12t12.5 -29v-669l694 692q16 16 35 16q37 0 37 -45v-663l696 692q16 16 33 16q14 0 24.5 -11t10.5 -28q0 -16 -13 -28z" />
    <glyph glyph-name="glyph1" 
 />
    <glyph glyph-name="uni000D" unicode="&#xd;" horiz-adv-x="583" 
 />
    <glyph glyph-name="space" unicode=" " horiz-adv-x="583" 
 />
    <glyph glyph-name="exclam" unicode="!" horiz-adv-x="505" 
d="M242 352q0 506 -39 1045l-6 92q0 29 15 48t42 19q25 0 40 -19t15 -48l-6 -92q-16 -281 -26.5 -505t-10.5 -540h-24zM309.5 1.5q-20.5 -21.5 -55.5 -21.5t-56.5 21.5t-21.5 57.5q0 35 21.5 56.5t56.5 21.5t55.5 -21.5t20.5 -56.5q0 -36 -20.5 -57.5z" />
    <glyph glyph-name="quotedbl" unicode="&#x22;" horiz-adv-x="630" 
d="M428 1161l-35 402q-2 27 13 41q14 14 36 14q23 0 37 -15t13 -40l-35 -402h-29zM176 1161l-35 402q-2 27 13 41q14 14 36 14q23 0 37 -15t13 -40l-35 -402h-29z" />
    <glyph glyph-name="numbersign" unicode="#" horiz-adv-x="1409" 
d="M1004 840l-86 -406h303l-7 -33h-305l-84 -401h-41l84 401h-434l-84 -401h-41l84 401h-303l6 33h305l86 406h-303l6 32h304l81 385h41l-81 -385h434l82 385h41l-82 -385h303l-6 -32h-303zM963 840h-435l-86 -406h435z" />
    <glyph glyph-name="dollar" unicode="$" horiz-adv-x="1062" 
d="M912.5 182q-54.5 -94 -149.5 -146t-218 -56v-185h-41v185q-131 6 -242.5 65t-181.5 154l20 20q70 -92 181.5 -148.5t232.5 -56.5q160 0 261.5 99.5t101.5 259.5q0 111 -50.5 186.5t-122 121.5t-196.5 107q-121 57 -193.5 104.5t-122 123.5t-49.5 184q0 162 103.5 258
t265.5 98v185h41v-187q100 -8 190.5 -52t153.5 -120l-16 -16q-63 70 -158.5 113t-190.5 43q-133 0 -216 -83t-83 -214q0 -96 46.5 -164t114 -111t184.5 -100q129 -63 205.5 -113.5t130 -133.5t53.5 -206q0 -121 -54.5 -215z" />
    <glyph glyph-name="percent" unicode="%" horiz-adv-x="1753" 
d="M1615 194.5q-38 -98.5 -107.5 -152.5t-159.5 -54q-137 0 -221.5 119.5t-84.5 314.5t84 314.5t222 119.5q90 0 159.5 -54t107.5 -152.5t38 -227.5t-38 -227.5zM1179.5 124q63.5 -114 168.5 -114q102 0 166.5 114t64.5 298t-64.5 298t-166.5 114q-104 0 -168 -113t-64 -299
q0 -184 63.5 -298zM365 0l983 1536h41l-983 -1536h-41zM673 884.5q-38 -98.5 -107.5 -152.5t-159.5 -54q-137 0 -221.5 120t-84.5 314q0 195 84 314.5t222 119.5q90 0 159.5 -54t107.5 -152.5t38 -227.5t-38 -227.5zM237.5 814q63.5 -114 168.5 -114q102 0 166.5 114
t64.5 298t-64.5 298t-166.5 114q-104 0 -168 -113t-64 -299q0 -184 63.5 -298z" />
    <glyph glyph-name="ampersand" unicode="&#x26;" horiz-adv-x="1427" 
d="M1262 0l-218 231q-96 -119 -223 -185t-266 -66q-131 0 -229.5 57t-150.5 154.5t-52 214.5q0 133 75.5 245.5t235.5 237.5q-80 88 -120 163.5t-40 166.5q0 154 100.5 245.5t268.5 91.5q94 0 189.5 -47t154.5 -125l-16 -16q-61 70 -150.5 112t-173.5 42q-129 0 -205.5 -78
t-76.5 -199q0 -88 46 -170t148 -194l512 -555q82 121 128 274.5t48 327.5h29q0 -176 -47 -339t-133 -290l276 -299h-110zM825.5 104.5q106.5 55.5 194.5 155.5l-547 586l-12 12q-131 -106 -192.5 -202.5t-61.5 -215.5q0 -109 49 -197.5t139 -141t207 -52.5t223.5 55.5z" />
    <glyph glyph-name="quotesingle" unicode="'" horiz-adv-x="378" 
d="M176 1161l-35 402q-2 27 12.5 41t36.5 14q23 0 37.5 -15.5t12.5 -39.5l-35 -402h-29z" />
    <glyph glyph-name="parenleft" unicode="(" horiz-adv-x="548" 
d="M223.5 57q-100.5 301 -100.5 588q0 307 100.5 608t263.5 488h31q-158 -186 -254 -488.5t-96 -607.5q0 -281 96 -583t254 -513h-31q-163 207 -263.5 508z" />
    <glyph glyph-name="parenright" unicode=")" horiz-adv-x="548" 
d="M325.5 1253q100.5 -301 100.5 -608q0 -287 -100.5 -588t-264.5 -508h-30q158 211 254 513.5t96 582.5q0 305 -96.5 607t-253.5 489h30q164 -187 264.5 -488z" />
    <glyph glyph-name="asterisk" unicode="*" horiz-adv-x="815" 
d="M436 1430l166 -222l-33 -24l-161 229l-162 -229l-33 24l166 222l-264 83l12 39l264 -90l-4 279h41l-4 -279l264 90l12 -39z" />
    <glyph glyph-name="plus" unicode="+" horiz-adv-x="970" 
d="M844 557h-338v-332h-41v332h-338v33h338v332h41v-332h338v-33z" />
    <glyph glyph-name="comma" unicode="," horiz-adv-x="415" 
d="M265.5 111.5q21.5 -31.5 21.5 -95.5q0 -98 -38 -190t-99 -145l-17 20q55 51 88 133t33 168q-23 -23 -55 -22q-33 0 -53.5 22.5t-20.5 58.5q0 37 22.5 59.5t57.5 22.5q39 0 60.5 -31.5z" />
    <glyph glyph-name="hyphen" unicode="-" horiz-adv-x="956" 
d="M166 557v33h625v-33h-625z" />
    <glyph glyph-name="period" unicode="." horiz-adv-x="468" 
d="M291.5 2.5q-21.5 -22.5 -55.5 -22.5q-35 0 -57.5 22.5t-22.5 58.5q0 37 22.5 59.5t57.5 22.5t56 -22.5t21 -59.5q0 -36 -21.5 -58.5z" />
    <glyph glyph-name="slash" unicode="/" horiz-adv-x="1032" 
d="M59 -451l869 2192h43l-869 -2192h-43z" />
    <glyph glyph-name="zero" unicode="0" horiz-adv-x="1382" 
d="M1165 355q-68 -179 -190 -277q-123 -98 -283 -98q-162 0 -284 98q-123 98 -191 277t-67 413q0 233 67 413q68 179 191 277t284 98q160 0 283 -98t190 -277q68 -179 68 -413t-68 -413zM301 373q55 -172 157 -267q101 -94 234 -94q131 0 233 94q101 94 156 267
q55 172 56 395q0 223 -56 395q-55 172 -156 267q-101 94 -233 94q-133 0 -234 -94t-157 -267q-55 -172 -55 -395t55 -395z" />
    <glyph glyph-name="one" unicode="1" horiz-adv-x="954" 
d="M717 1556v-1556h-88v1483l-557 -328l-15 27l631 374h29z" />
    <glyph glyph-name="two" unicode="2" horiz-adv-x="1177" 
d="M1055 33v-33h-989v16q397 285 632 576q236 291 236 534q0 111 -48 202t-134 142t-195 52q-104 0 -208 -51q-103 -50 -187 -136l-17 17q84 92 194 148t236 56q125 0 230 -55q104 -55 165 -154q60 -99 60 -227q0 -246 -227 -533q-227 -288 -623 -554h875z" />
    <glyph glyph-name="three" unicode="3" horiz-adv-x="1228" 
d="M963 678q123 -113 122 -283q0 -123 -65 -217q-66 -94 -183 -146q-118 -52 -274 -52q-127 0 -257 56t-212 148l19 21q84 -90 200 -140q117 -50 240 -51q129 0 228 48t154 136q54 87 54 199q0 119 -60 209t-170 140t-253 51h-47v32h26q131 0 232 47q100 46 155 131t56 195
q0 143 -97 232q-96 88 -253 88q-98 0 -208 -43t-192 -113l-16 16q84 78 199 126q116 48 223 48q129 0 228 -44t155 -123q55 -80 55 -185q0 -152 -104 -256t-285 -133q207 -24 330 -137z" />
    <glyph glyph-name="four" unicode="4" horiz-adv-x="1306" 
d="M1229 375h-254v-375h-86v375h-828v16l889 1165h25v-1148h254v-33zM889 408v1005l-768 -1005h768z" />
    <glyph glyph-name="five" unicode="5" horiz-adv-x="1191" 
d="M830 896q114 -60 178 -171q63 -111 63 -256t-65 -257q-66 -112 -186 -172t-275 -60q-137 0 -258 57t-181 151l19 19q59 -86 172 -139t238 -54q131 0 230 57q99 56 155 159q55 103 55 239q0 133 -52 237q-52 103 -148 159q-95 56 -220 57q-80 0 -176 -29t-174 -76l-12 21
l90 698h723v-33h-639l-82 -612q143 66 282 65q149 0 263 -60z" />
    <glyph glyph-name="six" unicode="6" horiz-adv-x="1300" 
d="M944 877q106 -57 164 -163q57 -105 57 -243q0 -145 -62 -257t-175 -173t-262 -61q-154 0 -272 86t-182 240q-65 155 -65 358q0 266 82 468t229 313q146 112 339 111q100 0 193 -43t143 -114l-19 -15q-51 61 -137 100q-86 38 -172 38q-162 0 -287 -103
q-125 -102 -196 -289q-72 -186 -78 -430q74 106 196 170q123 63 258 64q140 0 246 -57zM879 70q92 57 142 160t50 239q0 127 -48 225t-136 152q-88 53 -203 53q-129 0 -249 -70t-191 -184q2 -188 55 -332q53 -143 147 -222t220 -79q121 1 213 58z" />
    <glyph glyph-name="seven" unicode="7" horiz-adv-x="1083" 
d="M1026 1536v-16l-653 -1520h-94l645 1503h-875v33h977z" />
    <glyph glyph-name="eight" unicode="8" horiz-adv-x="1312" 
d="M1070 670q103 -113 104 -277q0 -123 -65 -217t-181 -145q-117 -51 -271 -51t-271 51q-118 51 -182 145q-65 94 -65 217q0 166 104 278q103 112 283 144q-147 31 -231 128t-84 239q0 111 55 195q55 85 157 132q101 47 234 47q131 0 233 -47q101 -47 157 -132
q55 -85 55 -195q0 -141 -84 -239q-84 -97 -230 -128q179 -32 282 -145zM403 927q96 -97 254 -98q156 0 252 98q96 97 97 255q0 154 -97 248q-96 94 -252 94q-158 0 -254 -94t-96 -248q0 -158 96 -255zM962 117q116 104 115 276q0 119 -52 211t-147 142t-221 51
q-125 0 -220 -51q-95 -50 -148 -142t-53 -211q0 -113 53 -199q53 -87 148 -135q95 -47 220 -47q189 1 305 105z" />
    <glyph glyph-name="nine" unicode="9" horiz-adv-x="1300" 
d="M896 1468q122 -88 188 -248q67 -161 67 -370q0 -258 -76 -456t-214 -306q-138 -109 -318 -108q-113 0 -216 43t-159 114l16 15q57 -61 156 -100q98 -38 195 -38q156 0 273 105q118 104 183 295q66 190 66 440v25q-74 -109 -197 -172t-258 -64q-139 0 -246 55
q-106 55 -165 156q-58 100 -58 231q0 139 61 247q60 108 168 166q109 58 252 58q160 0 282 -88zM863 746q120 69 192 182q-10 180 -68 314q-57 134 -153 208t-220 74q-115 0 -201 -55q-87 -54 -135 -153t-49 -229q0 -184 107 -296q106 -113 280 -113q127 -1 247 68z" />
    <glyph glyph-name="colon" unicode=":" horiz-adv-x="491" 
d="M302 967q-22 -23 -56 -23q-35 0 -58 23t-22 59q0 37 22 59q23 23 58 23t56 -23q22 -23 22 -59t-22 -59zM302 2q-22 -23 -56 -22q-35 0 -58 22q-23 23 -22 59q0 37 22 60q23 23 58 22q35 0 56 -22q22 -23 22 -60q0 -36 -22 -59z" />
    <glyph glyph-name="semicolon" unicode=";" horiz-adv-x="503" 
d="M308 967q-22 -23 -56 -23q-35 0 -57 23q-23 23 -23 59q0 37 23 59q23 23 57 23q35 0 56 -23q22 -23 22 -59t-22 -59zM312 112q22 -32 22 -96q0 -98 -38 -190t-99 -145l-17 20q55 51 88 133t33 168q-23 -23 -55 -22q-33 0 -53 22q-20 23 -21 59q0 37 23 60t57 22
q38 1 60 -31z" />
    <glyph glyph-name="less" unicode="&#x3c;" horiz-adv-x="970" 
d="M92 590l717 287v-37l-664 -267l664 -245v-37l-717 266v33z" />
    <glyph glyph-name="equal" unicode="=" horiz-adv-x="970" 
d="M127 705v32h717v-32h-717zM127 410v32h717v-32h-717z" />
    <glyph glyph-name="greater" unicode="&#x3e;" horiz-adv-x="970" 
d="M162 291v37l663 245l-663 267v37l717 -287v-33z" />
    <glyph glyph-name="question" unicode="?" horiz-adv-x="1007" 
d="M410 352v15q0 98 28.5 179t70.5 138t112 141q66 74 103.5 126.5t63 120t25.5 149.5q0 135 -94 218t-248 83q-96 0 -201.5 -51.5t-185.5 -135.5l-16 17q82 92 195.5 148t219.5 56q193 0 309.5 -93t116.5 -244q0 -96 -32.5 -172t-79.5 -131.5t-129 -135.5
q-80 -76 -125 -129t-77 -124.5t-32 -159.5v-15h-24zM478.5 1.5q-21.5 -21.5 -56.5 -21.5t-56.5 21.5t-21.5 57.5q0 35 21.5 56.5t56.5 21.5t56.5 -21.5t21.5 -56.5q0 -36 -21.5 -57.5z" />
    <glyph glyph-name="at" unicode="@" horiz-adv-x="2168" 
d="M1578 1445.5q220 -110.5 341 -312t121 -467.5q0 -188 -48 -332t-135.5 -222.5t-201.5 -78.5q-109 0 -180.5 69.5t-94.5 190.5q-51 -117 -152.5 -188.5t-213.5 -71.5q-121 0 -213 63.5t-143.5 179t-51.5 267.5t51.5 266.5t143.5 178t213 63.5q111 0 211 -69t153 -183
l8 231h68v-659q0 -137 55.5 -220t153.5 -83t173 74.5t117 210.5t42 313q0 256 -116 450.5t-326 301t-484 106.5q-268 0 -473 -122t-317.5 -344t-112.5 -515q0 -291 114.5 -513.5t324.5 -345t485 -122.5q135 0 281.5 47t250.5 123l10 -17q-104 -84 -253.5 -135t-291.5 -51
q-287 0 -506 127t-339.5 356.5t-120.5 530.5t117.5 531.5t332.5 356t498 125.5q289 0 509 -110.5zM1222.5 141.5q92.5 73.5 149.5 192.5v416q-57 121 -149.5 193.5t-190.5 72.5q-100 0 -177 -59.5t-120 -167t-43 -246.5t43 -248t120 -168t177 -59q98 0 190.5 73.5z" />
    <glyph glyph-name="A" unicode="A" horiz-adv-x="1421" 
d="M1071 465h-774l-186 -465h-43l624 1556h27l633 -1556h-92zM1057 498l-375 923l-371 -923h746z" />
    <glyph glyph-name="B" unicode="B" horiz-adv-x="1222" 
d="M990.5 682q107.5 -104 107.5 -258q0 -127 -66.5 -223.5t-187.5 -148.5t-279 -52h-329v1536h329q129 0 228.5 -45t153.5 -127t54 -188q0 -137 -81.5 -232.5t-221.5 -128.5q185 -29 292.5 -133zM808 1412q-97 91 -253 91h-233v-674h233q158 0 254 95.5t96 251.5
q0 145 -97 236zM789.5 81q101.5 48 156.5 137t55 206q0 111 -55 196t-156.5 131t-234.5 46h-233v-764h233q133 0 234.5 48z" />
    <glyph glyph-name="C" unicode="C" horiz-adv-x="1474" 
d="M1163.5 40q-151.5 -60 -307.5 -60q-213 0 -376 98t-253 277.5t-90 412.5t90 412.5t253 277.5t376 98q147 0 292.5 -56t233.5 -150l-16 -19q-84 86 -222 138.5t-278 52.5q-188 0 -331.5 -94.5t-222.5 -265.5t-79 -394t79 -394t222.5 -265.5t331.5 -94.5q143 0 288.5 57.5
t234.5 149.5l16 -22q-90 -99 -241.5 -159z" />
    <glyph glyph-name="D" unicode="D" horiz-adv-x="1646" 
d="M1127.5 1439.5q183.5 -96.5 283.5 -270.5t100 -401t-100 -401t-283.5 -270.5t-422.5 -96.5h-469v1536h469q239 0 422.5 -96.5zM1071 125q164 92 254 259t90 384t-90 384t-254 259t-377 92h-372v-1470h372q213 0 377 92z" />
    <glyph glyph-name="E" unicode="E" horiz-adv-x="1067" 
d="M956 33v-33h-720v1536h706v-33h-620v-674h526v-32h-526v-764h634z" />
    <glyph glyph-name="F" unicode="F" horiz-adv-x="1032" 
d="M322 1503v-696h534v-33h-534v-774h-86v1536h729v-33h-643z" />
    <glyph glyph-name="G" unicode="G" horiz-adv-x="1601" 
d="M1450 815v-616q-100 -98 -264 -158.5t-330 -60.5q-213 0 -376 98t-253 277.5t-90 412.5t90 412.5t253 277.5t376 98q156 0 306.5 -58t242.5 -157l-14 -16q-88 88 -232.5 142.5t-292.5 54.5q-188 0 -331.5 -94.5t-222.5 -265.5t-79 -394t79 -394t222.5 -265.5t331.5 -94.5
q129 0 262.5 40t233.5 108v653h88z" />
    <glyph glyph-name="H" unicode="H" horiz-adv-x="1505" 
d="M1270 1536v-1536h-86v797h-862v-797h-86v1536h86v-707h862v707h86z" />
    <glyph glyph-name="I" unicode="I" horiz-adv-x="557" 
d="M236 0v1536h86v-1536h-86z" />
    <glyph glyph-name="J" unicode="J" horiz-adv-x="774" 
d="M471 58.5q-78 -78.5 -205 -78.5q-61 0 -118.5 21.5t-96.5 59.5l17 21q31 -31 79 -49.5t99 -18.5q98 0 157.5 69t59.5 181v1272h86v-1268q0 -131 -78 -209.5z" />
    <glyph glyph-name="K" unicode="K" horiz-adv-x="1251" 
d="M236 1536h86v-1536h-86v1536zM1233 0h-113l-743 809l723 727h55l-690 -694z" />
    <glyph glyph-name="L" unicode="L" horiz-adv-x="1015" 
d="M969 33v-33h-733v1536h86v-1503h647z" />
    <glyph glyph-name="M" unicode="M" horiz-adv-x="1918" 
d="M1661 0l-117 1364l-590 -1384h-30l-594 1374l-117 -1354h-41l135 1556h27l629 -1452l622 1452h27l137 -1556h-88z" />
    <glyph glyph-name="N" unicode="N" horiz-adv-x="1505" 
d="M236 0v1556h26l967 -1415v1395h41v-1556h-27l-967 1413v-1393h-40z" />
    <glyph glyph-name="O" unicode="O" horiz-adv-x="1794" 
d="M1561.5 355.5q-95.5 -179.5 -267.5 -277.5t-397 -98t-398 98t-268.5 277.5t-95.5 412.5t95.5 412.5t268.5 277.5t398 98t397 -98t267.5 -277.5t95.5 -412.5t-95.5 -412.5zM314 373q83 -172 234.5 -266.5t348.5 -94.5t347.5 94.5t233.5 266.5t83 395t-83 395t-233.5 266.5
t-347.5 94.5t-348.5 -94.5t-234.5 -266.5t-83 -395t83 -395z" />
    <glyph glyph-name="P" unicode="P" horiz-adv-x="1171" 
d="M837.5 1484q116.5 -52 180 -148.5t63.5 -221.5t-63.5 -220t-180 -147.5t-268.5 -52.5h-247v-694h-86v1536h333q152 0 268.5 -52zM781.5 775q97.5 48 150.5 136t53 203t-53 204t-150.5 137t-224.5 48h-235v-776h235q127 0 224.5 48z" />
    <glyph glyph-name="Q" unicode="Q" horiz-adv-x="1794" 
d="M1561.5 355.5q-95.5 -179.5 -267.5 -277.5l322 -311l-29 -29l-330 319q-160 -78 -360 -77q-225 0 -398 98t-268.5 277.5t-95.5 412.5t95.5 412.5t268.5 277.5t398 98t397 -98t267.5 -277.5t95.5 -412.5t-95.5 -412.5zM1221 92l-340 332l28 29l348 -338q143 94 223.5 263
t80.5 390q0 223 -83 395t-233.5 266.5t-347.5 94.5t-348.5 -94.5t-234.5 -266.5t-83 -395t83 -395t234.5 -266.5t348.5 -94.5q181 0 324 80z" />
    <glyph glyph-name="R" unicode="R" horiz-adv-x="1234" 
d="M1186 0h-113l-747 737h-4v-737h-86v1536h352q147 0 258.5 -49t173 -139.5t61.5 -208.5q0 -119 -61.5 -210t-173 -141.5t-258.5 -50.5h-154zM578 770q182 0 294.5 101.5t112.5 267.5q0 164 -112.5 264t-294.5 100h-256v-733h256z" />
    <glyph glyph-name="S" unicode="S" horiz-adv-x="1097" 
d="M928.5 177q-56.5 -95 -156.5 -146t-227 -51q-137 0 -255 59t-192 160l21 20q70 -92 181.5 -148.5t231.5 -56.5q160 0 261.5 99.5t101.5 259.5q0 111 -50 186.5t-122 121.5t-197 107q-121 57 -193.5 104.5t-121.5 123.5t-49 184q0 109 49 189.5t133 123.5t191 43
q111 0 210 -46t170 -128l-16 -16q-63 70 -158.5 113t-189.5 43q-133 0 -216 -83t-83 -214q0 -96 46 -164t113.5 -111t184.5 -100q129 -63 206 -113.5t130 -133.5t53 -206q0 -125 -56.5 -220z" />
    <glyph glyph-name="T" unicode="T" horiz-adv-x="1247" 
d="M1214 1503h-546v-1503h-86v1503h-549v33h1181v-33z" />
    <glyph glyph-name="U" unicode="U" horiz-adv-x="1492" 
d="M1210.5 253q-65.5 -130 -186.5 -201.5t-279 -71.5t-277.5 71.5t-185 202.5t-65.5 303v979h86v-983q0 -160 55.5 -281.5t156.5 -189.5t235 -68q145 0 254.5 66.5t170 189.5t60.5 283v983h41v-983q0 -170 -65.5 -300z" />
    <glyph glyph-name="V" unicode="V" horiz-adv-x="1406" 
d="M1337 1536l-616 -1556h-25l-626 1556h92l569 -1421l563 1421h43z" />
    <glyph glyph-name="W" unicode="W" horiz-adv-x="1865" 
d="M1774 1536l-422 -1556h-31l-385 1398l-375 -1398h-33l-438 1556h92l387 -1393l373 1413h35l383 -1413l371 1393h43z" />
    <glyph glyph-name="X" unicode="X" horiz-adv-x="1302" 
d="M1149 0l-522 737l-523 -737h-49l547 772l-541 764h105l500 -707l526 707h49l-553 -739l563 -797h-102z" />
    <glyph glyph-name="Y" unicode="Y" horiz-adv-x="1402" 
d="M756 690v-690h-86v690l-588 846h104l551 -803l525 803h47z" />
    <glyph glyph-name="Z" unicode="Z" horiz-adv-x="1150" 
d="M49 0v16l924 1487h-858v33h966v-18l-925 -1485h925v-33h-1032z" />
    <glyph glyph-name="bracketleft" unicode="[" horiz-adv-x="688" 
d="M264 1708v-2126h395v-33h-436v2192h436v-33h-395z" />
    <glyph glyph-name="backslash" unicode="\" horiz-adv-x="1032" 
d="M59 1741h43l869 -2192h-43z" />
    <glyph glyph-name="bracketright" unicode="]" horiz-adv-x="688" 
d="M465 1741v-2192h-436v33h395v2126h-395v33h436z" />
    <glyph glyph-name="asciicircum" unicode="^" horiz-adv-x="970" 
d="M57 870l414 666h29l413 -666h-43l-385 619l-385 -619h-43z" />
    <glyph glyph-name="underscore" unicode="_" horiz-adv-x="976" 
d="M20 -242v33h936v-33h-936z" />
    <glyph glyph-name="grave" unicode="`" horiz-adv-x="1228" 
d="M590 1217l-379 217l16 28l377 -219z" />
    <glyph glyph-name="a" unicode="a" horiz-adv-x="1132" 
d="M844.5 1010.5q107.5 -97.5 107.5 -267.5v-743h-63l-12 279q-72 -135 -193 -217t-252 -82q-156 0 -249 86t-93 227q0 137 119 219t313 82h348v151q0 156 -87 242t-244 86q-98 0 -193.5 -37t-167.5 -102l-14 14q72 76 174 118t211 42q188 0 295.5 -97.5zM685 103
q116 87 185 229v229h-342q-158 0 -254 -73.5t-96 -194.5q0 -125 75 -201t196 -76q120 0 236 87z" />
    <glyph glyph-name="b" unicode="b" horiz-adv-x="1243" 
d="M912.5 1037.5q103.5 -70.5 159.5 -198.5t56 -296t-56 -295t-159.5 -197.5t-238.5 -70.5q-137 0 -248 81.5t-158 217.5l-14 -279h-64v1597h82v-776q51 129 160 208t242 79q135 0 238.5 -70.5zM857 80.5q87 66.5 135 186.5t48 276q0 158 -48 277.5t-135 186t-200 66.5
q-125 0 -231.5 -90t-153.5 -235v-408q47 -145 153.5 -235.5t231.5 -90.5q113 0 200 66.5z" />
    <glyph glyph-name="c" unicode="c" horiz-adv-x="1024" 
d="M798 20.5q-93 -40.5 -188 -40.5q-147 0 -258.5 70.5t-173 198.5t-61.5 296t61.5 295t173 197.5t258.5 70.5q92 0 179.5 -36t138.5 -95l-13 -16q-53 51 -134 81.5t-160 30.5q-123 0 -218.5 -65.5t-147.5 -185.5t-52 -277q0 -158 52 -278t147.5 -186.5t220.5 -66.5
q80 0 165.5 36t147.5 95l16 -16q-61 -68 -154 -108.5z" />
    <glyph glyph-name="d" unicode="d" horiz-adv-x="1243" 
d="M1053 1597v-1597h-64l-12 283q-47 -137 -157.5 -220t-248.5 -83q-135 0 -238.5 70.5t-159.5 197.5t-56 295t56 296t159.5 198.5t238.5 70.5q133 0 242 -79t158 -210v778h82zM817.5 104.5q106.5 90.5 153.5 235.5v408q-47 145 -153.5 235t-231.5 90q-113 0 -200 -66.5
t-135 -186.5t-48 -277q0 -156 48 -276t135 -186.5t200 -66.5q125 0 231.5 90.5z" />
    <glyph glyph-name="e" unicode="e" horiz-adv-x="1165" 
d="M203 567v-24q0 -156 52 -276t148.5 -186.5t221.5 -66.5q96 0 198.5 36t169.5 95l13 -16q-70 -68 -177.5 -108.5t-214.5 -40.5q-147 0 -259.5 70.5t-175 197.5t-62.5 295t62.5 296t175 198.5t259.5 70.5q135 0 238.5 -66.5t161 -188.5t57.5 -280v-6h-868zM329.5 946
q-110.5 -129 -124.5 -346h778q0 141 -46 248.5t-129 167t-194 59.5q-174 0 -284.5 -129z" />
    <glyph glyph-name="f" unicode="f" horiz-adv-x="780" 
d="M697.5 1590.5q64.5 -27.5 103.5 -72.5l-15 -15q-33 37 -92 58.5t-121 21.5q-109 0 -174 -73.5t-65 -196.5v-226h409v-32h-409v-1055h-82v1055h-215v32h215v220q0 139 86 225t225 86q70 0 134.5 -27.5z" />
    <glyph glyph-name="g" unicode="g" horiz-adv-x="1243" 
d="M1053 1087v-1081q0 -143 -64.5 -250.5t-182.5 -167t-274 -59.5q-90 0 -187 36t-165 93l17 18q63 -51 155 -82.5t178 -31.5q131 0 230.5 55t155 155.5t55.5 229.5v264q-51 -129 -160 -207.5t-240 -78.5q-135 0 -238.5 70.5t-159.5 197.5t-56 295t56 296t159.5 198.5
t238.5 70.5q137 0 248 -83t158 -220l12 282h64zM817.5 104.5q106.5 90.5 153.5 235.5v408q-47 145 -153.5 235t-231.5 90q-113 0 -200 -66.5t-135 -186.5t-48 -277q0 -156 48 -276t135 -186.5t200 -66.5q125 0 231.5 90.5z" />
    <glyph glyph-name="h" unicode="h" horiz-adv-x="1224" 
d="M958.5 1020q88.5 -88 88.5 -234v-786h-82v788q0 127 -70 205t-184 78q-131 0 -252 -90t-187 -236v-745h-82v1597h82v-790q70 137 194 219t261 82q143 0 231.5 -88z" />
    <glyph glyph-name="i" unicode="i" horiz-adv-x="462" 
d="M275.5 1426.5q-17.5 -17.5 -44.5 -17.5q-29 0 -45 17.5t-16 43.5q0 27 16.5 43.5t44.5 16.5q29 0 45.5 -16.5t16.5 -43.5q0 -26 -17.5 -43.5zM190 0v1087h82v-1087h-82z" />
    <glyph glyph-name="j" unicode="j" horiz-adv-x="471" 
d="M283.5 1426.5q-17.5 -17.5 -43.5 -17.5q-29 0 -45.5 17.5t-16.5 43.5q0 27 16.5 43.5t45.5 16.5t45 -16.5t16 -43.5q0 -26 -17.5 -43.5zM218.5 -309q-62.5 -94 -177.5 -162l-10 20q82 55 125 149.5t43 221.5v1167h82v-1144q0 -158 -62.5 -252z" />
    <glyph glyph-name="k" unicode="k" horiz-adv-x="1019" 
d="M190 1597h82v-1597h-82v1597zM999 0h-104l-569 604l563 483h53l-532 -454z" />
    <glyph glyph-name="l" unicode="l" horiz-adv-x="462" 
d="M190 0v1597h82v-1597h-82z" />
    <glyph glyph-name="m" unicode="m" horiz-adv-x="1957" 
d="M1694 1023q84 -85 84 -226v-797h-82v799q0 123 -67.5 197.5t-176.5 74.5q-125 0 -240.5 -85t-185.5 -228v-758h-82v799q0 123 -67.5 197.5t-176.5 74.5q-127 0 -244.5 -87t-183.5 -228v-756h-82v1087h64l14 -278q68 135 190 217t259 82q133 0 217 -79t92 -212
q68 133 188.5 212t255.5 79q140 0 224 -85z" />
    <glyph glyph-name="n" unicode="n" horiz-adv-x="1224" 
d="M958.5 1020q88.5 -88 88.5 -234v-786h-82v788q0 127 -70 205t-184 78q-131 0 -252 -90t-187 -236v-745h-82v1087h64l14 -288q70 139 195 224t264 85q143 0 231.5 -88z" />
    <glyph glyph-name="o" unicode="o" horiz-adv-x="1247" 
d="M1069.5 248q-63.5 -127 -178.5 -197.5t-266 -70.5q-150 0 -265.5 70.5t-179 197.5t-63.5 295t63.5 296t179 198.5t265.5 70.5q152 0 266.5 -70.5t178 -198.5t63.5 -296t-63.5 -295zM256 265q53 -120 148.5 -186.5t220.5 -66.5t220 66.5t147 186.5t52 278t-52 278.5
t-147 187t-220 66.5t-220.5 -66.5t-148.5 -187.5t-53 -278q0 -158 53 -278z" />
    <glyph glyph-name="p" unicode="p" horiz-adv-x="1243" 
d="M912.5 1037.5q103.5 -70.5 159.5 -198.5t56 -296t-56 -295t-159.5 -197.5t-238.5 -70.5t-243.5 78.5t-158.5 209.5v-719h-82v1538h64l14 -278q49 135 160 217t246 82t238.5 -70.5zM857 80.5q87 66.5 135 186.5t48 276q0 158 -48 277.5t-135 186t-200 66.5
q-125 0 -231.5 -90t-153.5 -235v-408q47 -145 153.5 -235.5t231.5 -90.5q113 0 200 66.5z" />
    <glyph glyph-name="q" unicode="q" horiz-adv-x="1243" 
d="M1053 1087v-1538h-82v717q-51 -129 -160 -207.5t-240 -78.5q-135 0 -238.5 70.5t-159.5 197.5t-56 295t56 296t159.5 198.5t238.5 70.5q137 0 248 -83t158 -220l12 282h64zM817.5 104.5q106.5 90.5 153.5 235.5v408q-47 145 -153.5 235t-231.5 90q-113 0 -200 -66.5
t-135 -186.5t-48 -277q0 -156 48 -276t135 -186.5t200 -66.5q125 0 231.5 90.5z" />
    <glyph glyph-name="r" unicode="r" horiz-adv-x="774" 
d="M452.5 996q122.5 91 270.5 91v-32q-147 0 -271 -98.5t-180 -260.5v-696h-82v1087h64l14 -333q62 151 184.5 242z" />
    <glyph glyph-name="s" unicode="s" horiz-adv-x="991" 
d="M787.5 62.5q-111.5 -82.5 -289.5 -82.5q-123 0 -228.5 40.5t-175.5 110.5l15 19q66 -61 168 -98.5t208 -37.5q145 0 238.5 69t93.5 179q0 74 -44 123t-109.5 78t-176.5 63q-119 37 -190.5 69t-120.5 89t-49 145q0 129 103.5 204t254.5 75q106 0 196.5 -38t154.5 -103
l-13 -17q-66 57 -151.5 90t-173.5 33q-125 0 -207 -62.5t-82 -164.5q0 -72 44 -120t106.5 -74.5t175.5 -63.5q119 -37 191.5 -70t122.5 -90t50 -147q0 -136 -111.5 -218.5z" />
    <glyph glyph-name="t" unicode="t" horiz-adv-x="749" 
d="M739 66q-39 -39 -99 -62.5t-122 -23.5q-121 0 -195.5 78.5t-74.5 209.5v787h-205v32h205l61 343h21v-343h385v-32h-385v-791q0 -113 60.5 -181.5t156.5 -68.5q51 0 100 18.5t80 47.5z" />
    <glyph glyph-name="u" unicode="u" horiz-adv-x="1204" 
d="M1014 1087v-1087h-64l-14 279q-68 -135 -189.5 -217t-259.5 -82q-139 0 -224 85t-85 226v796h82v-798q0 -123 67.5 -198t178.5 -75q127 0 244.5 87t181.5 229v755h82z" />
    <glyph glyph-name="v" unicode="v" horiz-adv-x="1081" 
d="M1028 1087l-475 -1107h-21l-475 1107h88l420 -981l422 981h41z" />
    <glyph glyph-name="w" unicode="w" horiz-adv-x="1525" 
d="M1460 1087l-358 -1107h-23l-313 974l-315 -974h-23l-360 1107h90l307 -948l313 969h27l311 -969l307 948h37z" />
    <glyph glyph-name="x" unicode="x" horiz-adv-x="991" 
d="M856 0l-383 522l-373 -522h-47l396 555l-390 532h97l352 -481l366 481h46l-390 -512l422 -575h-96z" />
    <glyph glyph-name="y" unicode="y" horiz-adv-x="1081" 
d="M1028 1087l-657 -1542h-41l194 457l-465 1085h88l422 -983l418 983h41z" />
    <glyph glyph-name="z" unicode="z" horiz-adv-x="948" 
d="M55 0v16l721 1039h-678v32h781v-16l-721 -1038h721v-33h-824z" />
    <glyph glyph-name="braceleft" unicode="{" horiz-adv-x="561" 
d="M354.5 -372q59.5 -79 157.5 -79l-4 -20q-115 0 -184.5 84t-69.5 223v578q0 96 -48 155.5t-126 59.5h-10v33h10q78 0 126 59t48 156v577q0 139 69.5 223t184.5 84l4 -20q-98 0 -157.5 -79t-59.5 -208v-577q0 -90 -39 -150.5t-109 -81.5q70 -20 109 -81.5t39 -149.5v-578
q0 -129 59.5 -208z" />
    <glyph glyph-name="bar" unicode="|" horiz-adv-x="487" 
d="M223 -432v2173h41v-2173h-41z" />
    <glyph glyph-name="braceright" unicode="}" horiz-adv-x="561" 
d="M492 662v-33h-11q-78 0 -126 -59.5t-48 -155.5v-578q0 -139 -69.5 -223t-184.5 -84l-4 20q98 0 157.5 79t59.5 208v578q0 88 39 149.5t109 81.5q-70 20 -109 80.5t-39 151.5v577q0 129 -59.5 208t-157.5 79l4 20q115 0 184.5 -84t69.5 -223v-577q0 -96 48 -155.5
t126 -59.5h11z" />
    <glyph glyph-name="asciitilde" unicode="~" horiz-adv-x="970" 
d="M53 479q0 102 61.5 166t161.5 64q66 0 114 -29t110 -84q61 -53 104 -78.5t103 -25.5q84 0 136 54t52 142h29q0 -102 -61.5 -165.5t-162.5 -63.5q-66 0 -113.5 28.5t-109.5 83.5q-61 53 -104 79t-103 26q-84 0 -136 -54.5t-52 -142.5h-29z" />
    <glyph glyph-name="uni00A0" unicode="&#xa0;" horiz-adv-x="583" 
 />
    <glyph glyph-name="exclamdown" unicode="&#xa1;" horiz-adv-x="479" 
d="M295.5 971.5q-21.5 -21.5 -55.5 -21.5q-35 0 -56.5 21.5t-21.5 56.5q0 37 21.5 58.5t56.5 21.5t56 -21.5t21 -58.5q0 -35 -21.5 -56.5zM279.5 -452.5q-15.5 -18.5 -39.5 -18.5q-27 0 -41.5 18.5t-14.5 49.5l6 96q18 295 27.5 511t9.5 531h25q0 -315 9 -531t28 -511l6 -96
q0 -31 -15.5 -49.5z" />
    <glyph glyph-name="cent" unicode="&#xa2;" horiz-adv-x="1075" 
d="M823 250q-88 -41 -178 -45v-205h-41v205q-141 6 -247.5 77.5t-165 197.5t-58.5 290q0 162 58.5 287t165 196.5t247.5 77.5v205h41v-205q88 -4 170 -40t129 -91l-12 -16q-53 51 -134 82.5t-161 31.5q-123 0 -218 -65.5t-147.5 -185t-52.5 -277.5t52.5 -278.5t147.5 -187
t220 -66.5q82 0 167 36.5t146 96.5l17 -17q-58 -63 -146 -104z" />
    <glyph glyph-name="sterling" unicode="&#xa3;" horiz-adv-x="1167" 
d="M1081 33v-33h-956v16q102 59 163.5 185.5t61.5 273.5q0 135 -47 281h-194v32h184l-12 41q-33 96 -49.5 164t-16.5 146q0 123 53.5 218t149.5 147t223 52q104 0 219 -56t195 -148l-17 -17q-78 84 -184 135.5t-203 51.5q-154 0 -247 -98.5t-93 -260.5q0 -82 16.5 -152.5
t47.5 -164.5l18 -58h465v-32h-455q43 -135 43 -260q0 -143 -64.5 -268.5t-174.5 -194.5h874z" />
    <glyph glyph-name="currency" unicode="&#xa4;" horiz-adv-x="1392" 
d="M1217 223l-230 228q-106 -106 -293 -107q-182 0 -288 102l-228 -227l-28 29l227 227q-90 109 -90 291t92 291l-227 227l28 29l226 -226q106 100 288 101q182 0 291 -105l229 230l29 -29l-229 -229q88 -111 88 -289q0 -176 -86 -287l229 -227zM962.5 480.5
q96.5 103.5 96.5 285.5t-96.5 285.5t-268.5 103.5t-268 -103.5t-96 -285.5t96 -285.5t268 -103.5t268.5 103.5z" />
    <glyph glyph-name="yen" unicode="&#xa5;" horiz-adv-x="1345" 
d="M739 698h301v-32h-307v-230h307v-33h-307v-403h-88v403h-317v33h317v230h-317v32h311l-580 838h105l551 -803l524 803h45z" />
    <glyph glyph-name="brokenbar" unicode="&#xa6;" horiz-adv-x="487" 
d="M223 809v932h41v-932h-41zM223 -451v934h41v-934h-41z" />
    <glyph glyph-name="section" unicode="&#xa7;" horiz-adv-x="1159" 
d="M929 78q36 -76 36 -180q0 -166 -112 -267.5t-294 -101.5q-104 0 -211.5 48t-177.5 126l14 16q68 -70 168.5 -112.5t196.5 -42.5q145 0 235 89t90 232q0 96 -37.5 166t-107.5 127q-70 -18 -149 -18q-137 0 -242 54t-163 152.5t-58 227.5q0 127 56 225.5t159 151.5
q-137 113 -137 299q0 156 111.5 252t293.5 96q104 0 212 -48t177 -126l-14 -17q-68 70 -169 113t-198 43q-145 0 -234 -83t-89 -218q0 -170 143 -272q70 18 152 18q137 0 241.5 -54t162.5 -152.5t58 -227.5q0 -127 -57 -225.5t-160 -153.5q68 -61 104 -137zM313.5 303.5
q100.5 -110.5 266.5 -110.5t266 110.5t100 290.5t-100.5 290.5t-265.5 110.5q-166 0 -266.5 -110.5t-100.5 -290.5t100.5 -290.5z" />
    <glyph glyph-name="dieresis" unicode="&#xa8;" horiz-adv-x="1228" 
d="M300 1379q-15 -15 -42 -15t-43 15t-16 42t16 42t43 16q27 0 42 -16q15 -15 15 -42t-15 -42zM691 1379q-15 -15 -42 -15t-43 15t-16 42t16 42t43 16q27 0 42 -16q15 -15 16 -42q-1 -27 -16 -42z" />
    <glyph glyph-name="copyright" unicode="&#xa9;" horiz-adv-x="1878" 
d="M1640.5 355.5q-100.5 -179.5 -282.5 -277.5t-420 -98t-420 98t-282.5 277.5t-100.5 412.5q0 236 100.5 414t282.5 276t420 98t420 -98t282.5 -276t100.5 -414q0 -233 -100.5 -412.5zM274.5 374q94.5 -171 266.5 -266.5t397 -95.5t397 95.5t266.5 266.5t94.5 394
q0 225 -94.5 397t-266.5 265.5t-397 93.5t-397 -93.5t-266.5 -265.5t-94.5 -397q0 -223 94.5 -394zM1115 342q-79 -35 -154 -35q-121 0 -214.5 58.5t-144.5 164t-51 244.5q0 137 51 242.5t144.5 163t214.5 57.5q76 0 148.5 -29.5t115.5 -79.5l-13 -16q-43 41 -107.5 65.5
t-129.5 24.5q-152 0 -244 -117.5t-92 -310.5q0 -195 92 -312.5t244 -117.5q66 0 134.5 28.5t121.5 76.5l14 -15q-51 -57 -130 -92z" />
    <glyph glyph-name="ordfeminine" unicode="&#xaa;" horiz-adv-x="796" 
d="M564.5 1499q62.5 -55 62.5 -153v-424h-52l-6 151q-41 -74 -108.5 -119t-141.5 -45q-88 0 -141 50.5t-53 132.5q0 78 68.5 124t181.5 46h190v86q0 86 -48 134t-136 48q-55 0 -108.5 -20.5t-94.5 -57.5l-12 10q45 43 104.5 67.5t122.5 24.5q109 0 171.5 -55zM465.5 986
q62.5 46 99.5 122v131h-184q-84 0 -136 -40t-52 -107q0 -68 39.5 -110t105.5 -42q65 0 127.5 46z" />
    <glyph glyph-name="guillemotleft" unicode="&#xab;" horiz-adv-x="851" 
d="M111 567v13l307 387l20 -13l-254 -381l254 -380l-20 -13zM377 567v13l307 387l21 -13l-254 -381l254 -380l-21 -13z" />
    <glyph glyph-name="logicalnot" unicode="&#xac;" horiz-adv-x="970" 
d="M848 426h-41v258h-676v33h717v-291z" />
    <glyph glyph-name="uni00AD" unicode="&#xad;" horiz-adv-x="956" 
d="M166 557v33h625v-33h-625z" />
    <glyph glyph-name="registered" unicode="&#xae;" horiz-adv-x="1126" 
d="M791.5 1588q99.5 -52 153.5 -148.5t54 -220.5q0 -123 -54 -219.5t-153.5 -149.5t-228.5 -53t-228 53t-153.5 149.5t-54.5 219.5q0 125 54.5 221t153.5 148t228 52t228.5 -52zM779 867.5q93 50.5 144.5 141.5t51.5 210t-51.5 210t-144.5 141t-216 50q-121 0 -215 -50
t-145 -141.5t-51 -209.5q0 -117 51 -208t145 -142.5t215 -51.5q123 0 216 50.5zM694.5 1261.5q-26.5 -34.5 -73.5 -51.5l163 -247h-67l-158 235q-8 -2 -27 -2h-69v-233h-64v522h133q84 0 136.5 -40t52.5 -104q0 -45 -26.5 -79.5zM617.5 1249q35.5 35 35.5 92t-35.5 91
t-95.5 34h-59v-252h59q60 0 95.5 35z" />
    <glyph glyph-name="macron" unicode="&#xaf;" horiz-adv-x="1228" 
d="M201 1325v33h540v-33h-540z" />
    <glyph glyph-name="degree" unicode="&#xb0;" horiz-adv-x="706" 
d="M523.5 1207.5q-64.5 -66.5 -169.5 -66.5q-106 0 -170.5 65.5t-64.5 173.5q0 106 64.5 172t170.5 66q104 0 169 -65.5t65 -172.5q0 -106 -64.5 -172.5zM213 1231q53 -57 141 -57q86 0 139.5 57t53.5 149q0 90 -53.5 147.5t-139.5 57.5q-88 0 -141 -57.5t-53 -147.5
q0 -92 53 -149z" />
    <glyph glyph-name="plusminus" unicode="&#xb1;" horiz-adv-x="970" 
d="M844 725v-33h-338v-291h-41v291h-338v33h338v291h41v-291h338zM127 264h717v-33h-717v33z" />
    <glyph glyph-name="acute" unicode="&#xb4;" horiz-adv-x="1228" 
d="M215 1217l-14 26l377 219l16 -28z" />
    <glyph glyph-name="paragraph" unicode="&#xb6;" horiz-adv-x="1056" 
d="M166 1498q96 99 252 99h127v-2048h-41v1323h-86q-156 0 -252 99.5t-96 263.5t96 263zM809 1597v-2048h-41v2048h41z" />
    <glyph glyph-name="periodcentered" unicode="&#xb7;" horiz-adv-x="489" 
d="M302 598q-22 -23 -56 -23q-35 0 -58 23t-22 59q0 37 22 60q23 23 58 22q35 0 56 -22q22 -23 22 -60q0 -36 -22 -59z" />
    <glyph glyph-name="cedilla" unicode="&#xb8;" horiz-adv-x="1228" 
d="M419 -177q65 -42 64 -106q0 -84 -100 -136t-262 -52l4 20q127 0 206 47q79 46 79 121q0 53 -58 87q-57 34 -151 36l57 174l37 -14l-45 -131q104 -4 169 -46z" />
    <glyph glyph-name="ordmasculine" unicode="&#xba;" horiz-adv-x="835" 
d="M632 998q-81 -89 -212 -89q-133 0 -215 88t-82 234q0 145 82 235t215 90q131 0 212 -90t81 -235q0 -144 -81 -233zM253.5 1014q63.5 -82 166.5 -82q102 0 163.5 82t61.5 217q0 137 -61.5 220t-163.5 83t-166 -83t-64 -220q0 -135 63.5 -217z" />
    <glyph glyph-name="guillemotright" unicode="&#xbb;" horiz-adv-x="851" 
d="M414 193l254 380l-254 381l20 13l307 -387v-13l-307 -387zM147 193l254 380l-254 381l21 13l307 -387v-13l-307 -387z" />
    <glyph glyph-name="onequarter" unicode="&#xbc;" horiz-adv-x="1617" 
d="M1538 203h-135v-203h-72v203h-442v12l497 641h17v-631h135v-22zM1331 225v520l-401 -520h401zM233 0l984 1536h40l-983 -1536h-41zM438 1546v-856h-69v797l-293 -168l-10 18l356 209h16z" />
    <glyph glyph-name="onehalf" unicode="&#xbd;" horiz-adv-x="1546" 
d="M1438 23v-23h-555v10q213 160 339 321t126 285q0 96 -57 155q-56 58 -146 58q-53 0 -111 -26q-57 -27 -98 -72l-12 12q45 51 110 82q66 31 125 31q119 0 192 -68t72 -178q0 -129 -124 -286q-124 -158 -332 -301h471zM233 0l984 1536h40l-983 -1536h-41zM438 1546v-856
h-69v797l-293 -168l-10 18l356 209h16z" />
    <glyph glyph-name="threequarters" unicode="&#xbe;" horiz-adv-x="1695" 
d="M1622 203h-135v-203h-72v203h-442v12l497 641h17v-631h135v-22zM1415 225v520l-401 -520h401zM315 0l983 1536h41l-983 -1536h-41zM585 1063q67 -61 66 -154q0 -104 -80 -168q-80 -63 -211 -63q-74 0 -146 32q-73 32 -122 81l12 16q45 -47 110 -74t130 -26q104 0 169 56
t65 148q0 96 -72 156q-72 59 -189 59h-24v23h14q106 0 171 54t65 145q0 78 -53 125q-52 47 -136 47q-51 0 -111 -24t-102 -58l-12 12q45 43 111 70t125 26q113 0 182 -53q70 -53 69 -141q0 -84 -56 -141q-56 -56 -154 -72q112 -15 179 -76z" />
    <glyph glyph-name="questiondown" unicode="&#xbf;" horiz-adv-x="993" 
d="M633.5 971.5q-21.5 -21.5 -55.5 -21.5q-35 0 -56.5 21.5t-21.5 56.5q0 37 21.5 58.5t56.5 21.5t56 -21.5t21 -58.5q0 -35 -21.5 -56.5zM736.5 -414.5q-113.5 -56.5 -220.5 -56.5q-193 0 -309.5 93t-116.5 245q0 96 34 173t82 134t128 133q78 76 123 129t76.5 124
t31.5 159v16h25v-16q0 -98 -29 -178t-70.5 -138.5t-111.5 -140.5q-66 -74 -103.5 -126t-63.5 -120.5t-26 -150.5q0 -135 94.5 -218t247.5 -83q96 0 202 51t185 135l17 -16q-82 -92 -195.5 -148.5z" />
    <glyph glyph-name="Agrave" unicode="&#xc0;" horiz-adv-x="1421" 
d="M934 1647l-516 184l12 33l514 -189zM1071 465h-774l-186 -465h-43l624 1556h27l633 -1556h-92zM1057 498l-375 923l-371 -923h746z" />
    <glyph glyph-name="Aacute" unicode="&#xc1;" horiz-adv-x="1421" 
d="M477 1647l-10 28l516 189l12 -33zM1071 465h-774l-186 -465h-43l624 1556h27l633 -1556h-92zM1057 498l-375 923l-371 -923h746z" />
    <glyph glyph-name="Acircumflex" unicode="&#xc2;" horiz-adv-x="1421" 
d="M410 1622l-15 16l310 220l309 -220l-15 -16l-294 182zM1071 465h-774l-186 -465h-43l624 1556h27l633 -1556h-92zM1057 498l-375 923l-371 -923h746z" />
    <glyph glyph-name="Atilde" unicode="&#xc3;" horiz-adv-x="1421" 
d="M424 1694l-21 10q49 145 172 145q43 0 75 -18.5t73 -52.5q37 -31 63.5 -46.5t59.5 -15.5q88 0 139 125l23 -12q-18 -63 -61.5 -104.5t-110.5 -41.5q-43 0 -75 18.5t-73 53.5q-37 31 -63.5 46.5t-59.5 15.5q-92 0 -141 -123zM1071 465h-774l-186 -465h-43l624 1556h27
l633 -1556h-92zM1057 498l-375 923l-371 -923h746z" />
    <glyph glyph-name="Adieresis" unicode="&#xc4;" horiz-adv-x="1421" 
d="M552 1696.5q-15 -15.5 -42 -15.5t-43 15.5t-16 42.5t16 42t43 15t42 -15.5t15 -41.5q0 -27 -15 -42.5zM943 1696.5q-15 -15.5 -42 -15.5t-43 15.5t-16 42.5t16 42t43 15t42 -15.5t15 -41.5q0 -27 -15 -42.5zM1071 465h-774l-186 -465h-43l624 1556h27l633 -1556h-92z
M1057 498l-375 923l-371 -923h746z" />
    <glyph glyph-name="Aring" unicode="&#xc5;" horiz-adv-x="1421" 
d="M843 1672q-52 -48 -138 -48t-138.5 49t-52.5 129t53.5 129t137.5 49q86 0 138 -49t52 -129q0 -82 -52 -130zM597 1697q42 -40 108 -40q68 0 108.5 40t40.5 105q0 66 -41 106t-108 40q-66 0 -108 -41t-42 -105q0 -65 42 -105zM1071 465h-774l-186 -465h-43l624 1556h27
l633 -1556h-92zM1057 498l-375 923l-371 -923h746z" />
    <glyph glyph-name="AE" unicode="&#xc6;" horiz-adv-x="1871" 
d="M1761 33v-33h-725l-65 492h-662l-264 -492h-45l825 1536h918v-33h-815l90 -672h635v-32h-631l102 -766h637zM967 526l-129 953l-510 -953h639z" />
    <glyph glyph-name="Ccedilla" unicode="&#xc7;" horiz-adv-x="1474" 
d="M1170.5 43q-146.5 -59 -300.5 -63l-39 -111q104 -4 169 -46t65 -106q0 -84 -100.5 -136t-262.5 -52l5 20q127 0 205.5 46.5t78.5 121.5q0 53 -57 87t-152 36l45 140q-205 6 -361.5 106t-242.5 276.5t-86 405.5q0 233 90 412.5t253 277.5t376 98q147 0 292.5 -56
t233.5 -150l-16 -19q-84 86 -222 138.5t-278 52.5q-188 0 -331.5 -94.5t-222.5 -265.5t-79 -394t79 -394t222.5 -265.5t331.5 -94.5q143 0 288.5 57.5t234.5 149.5l16 -22q-88 -97 -234.5 -156z" />
    <glyph glyph-name="Egrave" unicode="&#xc8;" horiz-adv-x="1067" 
d="M821 1647l-516 184l12 33l514 -189zM956 33v-33h-720v1536h706v-33h-620v-674h526v-32h-526v-764h634z" />
    <glyph glyph-name="Eacute" unicode="&#xc9;" horiz-adv-x="1067" 
d="M365 1647l-11 28l516 189l13 -33zM956 33v-33h-720v1536h706v-33h-620v-674h526v-32h-526v-764h634z" />
    <glyph glyph-name="Ecircumflex" unicode="&#xca;" horiz-adv-x="1067" 
d="M297 1622l-14 16l309 220l309 -220l-14 -16l-295 182zM956 33v-33h-720v1536h706v-33h-620v-674h526v-32h-526v-764h634z" />
    <glyph glyph-name="Edieresis" unicode="&#xcb;" horiz-adv-x="1067" 
d="M439.5 1696.5q-15.5 -15.5 -42.5 -15.5t-43 15.5t-16 42.5t16.5 42t42.5 15q27 0 42.5 -15.5t15.5 -41.5q0 -27 -15.5 -42.5zM830.5 1696.5q-15.5 -15.5 -42.5 -15.5t-43 15.5t-16 42.5t16.5 42t42.5 15q27 0 42.5 -15.5t15.5 -41.5q0 -27 -15.5 -42.5zM956 33v-33h-720
v1536h706v-33h-620v-674h526v-32h-526v-764h634z" />
    <glyph glyph-name="Igrave" unicode="&#xcc;" horiz-adv-x="557" 
d="M432 1645l-428 153l12 31l426 -156zM236 0v1536h86v-1536h-86z" />
    <glyph glyph-name="Iacute" unicode="&#xcd;" horiz-adv-x="557" 
d="M125 1645l-10 28l426 156l12 -31zM236 0v1536h86v-1536h-86z" />
    <glyph glyph-name="Icircumflex" unicode="&#xce;" horiz-adv-x="557" 
d="M68 1622l-15 16l226 220l225 -220l-15 -16l-210 180zM236 0v1536h86v-1536h-86z" />
    <glyph glyph-name="Idieresis" unicode="&#xcf;" horiz-adv-x="557" 
d="M203.5 1696.5q-15.5 -15.5 -41.5 -15.5q-27 0 -43.5 15.5t-16.5 42.5t16.5 42t43.5 15t42 -15.5t15 -41.5q0 -27 -15.5 -42.5zM438.5 1696.5q-16.5 -15.5 -43.5 -15.5t-42 15.5t-15 42.5t15.5 42t41.5 15q27 0 43.5 -15.5t16.5 -41.5q0 -27 -16.5 -42.5zM236 0v1536h86
v-1536h-86z" />
    <glyph glyph-name="Eth" unicode="&#xd0;" horiz-adv-x="1658" 
d="M1139.5 1439.5q183.5 -96.5 284 -270.5t100.5 -401t-100.5 -401t-284 -270.5t-420.5 -96.5h-471v799h-176v32h176v705h471q237 0 420.5 -96.5zM1083.5 125q163.5 92 253.5 259t90 384t-90 384t-253.5 259t-376.5 92h-373v-672h434v-32h-434v-766h373q213 0 376.5 92z" />
    <glyph glyph-name="Ntilde" unicode="&#xd1;" horiz-adv-x="1505" 
d="M479 1694l-20 10q49 145 172 145q43 0 74.5 -18.5t72.5 -52.5q37 -31 63.5 -46.5t59.5 -15.5q88 0 139 125l23 -12q-18 -63 -61.5 -104.5t-110.5 -41.5q-43 0 -75 18.5t-73 53.5q-37 31 -63.5 46.5t-58.5 15.5q-93 0 -142 -123zM236 0v1556h26l967 -1415v1395h41v-1556
h-27l-967 1413v-1393h-40z" />
    <glyph glyph-name="Ograve" unicode="&#xd2;" horiz-adv-x="1794" 
d="M1126 1647l-516 184l13 33l514 -189zM1561.5 355.5q-95.5 -179.5 -267.5 -277.5t-397 -98t-398 98t-268.5 277.5t-95.5 412.5t95.5 412.5t268.5 277.5t398 98t397 -98t267.5 -277.5t95.5 -412.5t-95.5 -412.5zM314 373q83 -172 234.5 -266.5t348.5 -94.5t347.5 94.5
t233.5 266.5t83 395t-83 395t-233.5 266.5t-347.5 94.5t-348.5 -94.5t-234.5 -266.5t-83 -395t83 -395z" />
    <glyph glyph-name="Oacute" unicode="&#xd3;" horiz-adv-x="1794" 
d="M668 1647l-11 28l517 189l12 -33zM1561.5 355.5q-95.5 -179.5 -267.5 -277.5t-397 -98t-398 98t-268.5 277.5t-95.5 412.5t95.5 412.5t268.5 277.5t398 98t397 -98t267.5 -277.5t95.5 -412.5t-95.5 -412.5zM314 373q83 -172 234.5 -266.5t348.5 -94.5t347.5 94.5
t233.5 266.5t83 395t-83 395t-233.5 266.5t-347.5 94.5t-348.5 -94.5t-234.5 -266.5t-83 -395t83 -395z" />
    <glyph glyph-name="Ocircumflex" unicode="&#xd4;" horiz-adv-x="1794" 
d="M602 1622l-14 16l309 220l309 -220l-14 -16l-295 182zM1561.5 355.5q-95.5 -179.5 -267.5 -277.5t-397 -98t-398 98t-268.5 277.5t-95.5 412.5t95.5 412.5t268.5 277.5t398 98t397 -98t267.5 -277.5t95.5 -412.5t-95.5 -412.5zM314 373q83 -172 234.5 -266.5t348.5 -94.5
t347.5 94.5t233.5 266.5t83 395t-83 395t-233.5 266.5t-347.5 94.5t-348.5 -94.5t-234.5 -266.5t-83 -395t83 -395z" />
    <glyph glyph-name="Otilde" unicode="&#xd5;" horiz-adv-x="1794" 
d="M614 1694l-20 10q49 145 172 145q43 0 74.5 -18.5t72.5 -52.5q37 -31 64 -46.5t59 -15.5q88 0 140 125l22 -12q-18 -63 -61 -104.5t-111 -41.5q-43 0 -74.5 18.5t-72.5 53.5q-37 31 -64 46.5t-59 15.5q-93 0 -142 -123zM1561.5 355.5q-95.5 -179.5 -267.5 -277.5
t-397 -98t-398 98t-268.5 277.5t-95.5 412.5t95.5 412.5t268.5 277.5t398 98t397 -98t267.5 -277.5t95.5 -412.5t-95.5 -412.5zM314 373q83 -172 234.5 -266.5t348.5 -94.5t347.5 94.5t233.5 266.5t83 395t-83 395t-233.5 266.5t-347.5 94.5t-348.5 -94.5t-234.5 -266.5
t-83 -395t83 -395z" />
    <glyph glyph-name="Odieresis" unicode="&#xd6;" horiz-adv-x="1794" 
d="M744.5 1696.5q-15.5 -15.5 -42.5 -15.5t-43 15.5t-16 42.5t16.5 42t42.5 15q27 0 42.5 -15.5t15.5 -41.5q0 -27 -15.5 -42.5zM1135.5 1696.5q-15.5 -15.5 -41.5 -15.5q-27 0 -43.5 15.5t-16.5 42.5t16.5 42t43.5 15t42 -15.5t15 -41.5q0 -27 -15.5 -42.5zM1561.5 355.5
q-95.5 -179.5 -267.5 -277.5t-397 -98t-398 98t-268.5 277.5t-95.5 412.5t95.5 412.5t268.5 277.5t398 98t397 -98t267.5 -277.5t95.5 -412.5t-95.5 -412.5zM314 373q83 -172 234.5 -266.5t348.5 -94.5t347.5 94.5t233.5 266.5t83 395t-83 395t-233.5 266.5t-347.5 94.5
t-348.5 -94.5t-234.5 -266.5t-83 -395t83 -395z" />
    <glyph glyph-name="multiply" unicode="&#xd7;" horiz-adv-x="970" 
d="M754 279l-267 264l-272 -273l-29 29l273 272l-266 267l28 30l268 -266l256 256l29 -29l-256 -256l264 -266z" />
    <glyph glyph-name="Oslash" unicode="&#xd8;" horiz-adv-x="1794" 
d="M1579 1146q78 -167 78 -378q0 -233 -95.5 -412.5t-267.5 -277.5t-397 -98q-246 0 -428 116l-123 -182l-33 20l123 183q-143 104 -222 271t-79 380q0 233 95.5 412.5t268.5 277.5t398 98q244 0 430 -118l121 178l33 -21l-121 -180q141 -102 219 -269zM293.5 420.5
q62.5 -154.5 175.5 -254.5l827 1227q-166 131 -399 131q-197 0 -348.5 -94.5t-234.5 -266.5t-83 -395q0 -193 62.5 -347.5zM1244.5 106.5q150.5 94.5 233.5 266.5t83 395q0 190 -60.5 345t-173.5 255l-827 -1227q164 -129 397 -129q197 0 347.5 94.5z" />
    <glyph glyph-name="Ugrave" unicode="&#xd9;" horiz-adv-x="1492" 
d="M999 1647l-516 184l13 33l514 -189zM1210.5 253q-65.5 -130 -186.5 -201.5t-279 -71.5t-277.5 71.5t-185 202.5t-65.5 303v979h86v-983q0 -160 55.5 -281.5t156.5 -189.5t235 -68q145 0 254.5 66.5t170 189.5t60.5 283v983h41v-983q0 -170 -65.5 -300z" />
    <glyph glyph-name="Uacute" unicode="&#xda;" horiz-adv-x="1492" 
d="M543 1647l-11 28l517 189l12 -33zM1210.5 253q-65.5 -130 -186.5 -201.5t-279 -71.5t-277.5 71.5t-185 202.5t-65.5 303v979h86v-983q0 -160 55.5 -281.5t156.5 -189.5t235 -68q145 0 254.5 66.5t170 189.5t60.5 283v983h41v-983q0 -170 -65.5 -300z" />
    <glyph glyph-name="Ucircumflex" unicode="&#xdb;" horiz-adv-x="1492" 
d="M475 1622l-14 16l309 220l309 -220l-14 -16l-295 182zM1210.5 253q-65.5 -130 -186.5 -201.5t-279 -71.5t-277.5 71.5t-185 202.5t-65.5 303v979h86v-983q0 -160 55.5 -281.5t156.5 -189.5t235 -68q145 0 254.5 66.5t170 189.5t60.5 283v983h41v-983q0 -170 -65.5 -300z
" />
    <glyph glyph-name="Udieresis" unicode="&#xdc;" horiz-adv-x="1492" 
d="M617.5 1696.5q-15.5 -15.5 -42.5 -15.5t-43 15.5t-16 42.5t16.5 42t42.5 15q27 0 42.5 -15.5t15.5 -41.5q0 -27 -15.5 -42.5zM1008.5 1696.5q-15.5 -15.5 -41.5 -15.5q-27 0 -43.5 15.5t-16.5 42.5t16.5 42t43.5 15t42 -15.5t15 -41.5q0 -27 -15.5 -42.5zM1210.5 253
q-65.5 -130 -186.5 -201.5t-279 -71.5t-277.5 71.5t-185 202.5t-65.5 303v979h86v-983q0 -160 55.5 -281.5t156.5 -189.5t235 -68q145 0 254.5 66.5t170 189.5t60.5 283v983h41v-983q0 -170 -65.5 -300z" />
    <glyph glyph-name="Yacute" unicode="&#xdd;" horiz-adv-x="1402" 
d="M489 1647l-10 28l516 189l13 -33zM756 690v-690h-86v690l-588 846h104l551 -803l525 803h47z" />
    <glyph glyph-name="Thorn" unicode="&#xde;" horiz-adv-x="1200" 
d="M837.5 1180.5q116.5 -52.5 180 -147.5t63.5 -218q0 -125 -63.5 -220t-180 -148.5t-268.5 -53.5h-247v-393h-86v1536h86v-303h247q152 0 268.5 -52.5zM781.5 475q97.5 49 150.5 137t53 203t-53 202t-150.5 135t-224.5 48h-235v-774h235q127 0 224.5 49z" />
    <glyph glyph-name="germandbls" unicode="&#xdf;" horiz-adv-x="1206" 
d="M1043.5 57.5q-91.5 -77.5 -236.5 -77.5q-84 0 -160 26.5t-129 77.5l10 16q43 -39 115 -62.5t145 -23.5q119 0 190 64.5t71 173.5q0 63 -25 110.5t-60.5 80t-97.5 77.5q-63 45 -103 82t-67.5 92.5t-27.5 130.5q0 76 25.5 133.5t76.5 133.5q49 70 72.5 122t23.5 117
q0 113 -76.5 182.5t-205.5 69.5q-139 0 -225.5 -81t-86.5 -212v-1290h-82v1286q0 147 106.5 239.5t276.5 92.5q156 0 247 -77t91 -206q0 -68 -23.5 -121t-68.5 -127q-45 -72 -66.5 -120.5t-21.5 -112.5q0 -66 26.5 -115t64.5 -83.5t104 -82.5q68 -49 109.5 -86.5t70.5 -92
t29 -128.5q0 -131 -91.5 -208.5z" />
    <glyph glyph-name="agrave" unicode="&#xe0;" horiz-adv-x="1132" 
d="M727 1266l-379 217l17 28l376 -219zM844.5 1010.5q107.5 -97.5 107.5 -267.5v-743h-63l-12 279q-72 -135 -193 -217t-252 -82q-156 0 -249 86t-93 227q0 137 119 219t313 82h348v151q0 156 -87 242t-244 86q-98 0 -193.5 -37t-167.5 -102l-14 14q72 76 174 118t211 42
q188 0 295.5 -97.5zM685 103q116 87 185 229v229h-342q-158 0 -254 -73.5t-96 -194.5q0 -125 75 -201t196 -76q120 0 236 87z" />
    <glyph glyph-name="aacute" unicode="&#xe1;" horiz-adv-x="1132" 
d="M424 1266l-14 26l376 219l17 -28zM844.5 1010.5q107.5 -97.5 107.5 -267.5v-743h-63l-12 279q-72 -135 -193 -217t-252 -82q-156 0 -249 86t-93 227q0 137 119 219t313 82h348v151q0 156 -87 242t-244 86q-98 0 -193.5 -37t-167.5 -102l-14 14q72 76 174 118t211 42
q188 0 295.5 -97.5zM685 103q116 87 185 229v229h-342q-158 0 -254 -73.5t-96 -194.5q0 -125 75 -201t196 -76q120 0 236 87z" />
    <glyph glyph-name="acircumflex" unicode="&#xe2;" horiz-adv-x="1132" 
d="M322 1255l-15 17l268 237l271 -237l-15 -17l-256 201zM844.5 1010.5q107.5 -97.5 107.5 -267.5v-743h-63l-12 279q-72 -135 -193 -217t-252 -82q-156 0 -249 86t-93 227q0 137 119 219t313 82h348v151q0 156 -87 242t-244 86q-98 0 -193.5 -37t-167.5 -102l-14 14
q72 76 174 118t211 42q188 0 295.5 -97.5zM685 103q116 87 185 229v229h-342q-158 0 -254 -73.5t-96 -194.5q0 -125 75 -201t196 -76q120 0 236 87z" />
    <glyph glyph-name="atilde" unicode="&#xe3;" horiz-adv-x="1132" 
d="M295 1319l-21 10q49 145 172 146q43 0 75 -18.5t73 -53.5q37 -31 63.5 -46.5t59.5 -15.5q88 0 139 125l23 -12q-18 -63 -61.5 -104t-110.5 -41q-43 0 -75 18.5t-73 52.5q-37 31 -63.5 46.5t-59.5 15.5q-92 0 -141 -123zM844.5 1010.5q107.5 -97.5 107.5 -267.5v-743h-63
l-12 279q-72 -135 -193 -217t-252 -82q-156 0 -249 86t-93 227q0 137 119 219t313 82h348v151q0 156 -87 242t-244 86q-98 0 -193.5 -37t-167.5 -102l-14 14q72 76 174 118t211 42q188 0 295.5 -97.5zM685 103q116 87 185 229v229h-342q-158 0 -254 -73.5t-96 -194.5
q0 -125 75 -201t196 -76q120 0 236 87z" />
    <glyph glyph-name="adieresis" unicode="&#xe4;" horiz-adv-x="1132" 
d="M423 1428.5q-15 -15.5 -42 -15.5t-43 15.5t-16 41.5q0 27 16 42.5t43 15.5t42 -15.5t15 -42.5q0 -26 -15 -41.5zM814 1428.5q-15 -15.5 -42 -15.5t-43 15.5t-16 41.5q0 27 16 42.5t43 15.5t42 -15.5t15 -42.5q0 -26 -15 -41.5zM844.5 1010.5q107.5 -97.5 107.5 -267.5
v-743h-63l-12 279q-72 -135 -193 -217t-252 -82q-156 0 -249 86t-93 227q0 137 119 219t313 82h348v151q0 156 -87 242t-244 86q-98 0 -193.5 -37t-167.5 -102l-14 14q72 76 174 118t211 42q188 0 295.5 -97.5zM685 103q116 87 185 229v229h-342q-158 0 -254 -73.5
t-96 -194.5q0 -125 75 -201t196 -76q120 0 236 87z" />
    <glyph glyph-name="aring" unicode="&#xe5;" horiz-adv-x="1132" 
d="M714 1276q-52 -49 -139 -49q-84 0 -137 49t-53 129q0 82 53.5 131t136.5 49q86 0 138.5 -49t52.5 -131q0 -80 -52 -129zM468 1300.5q42 -40.5 107 -40.5q68 0 109 39.5t41 105.5t-41 106.5t-109 40.5q-66 0 -107.5 -41t-41.5 -106q0 -64 42 -104.5zM844.5 1010.5
q107.5 -97.5 107.5 -267.5v-743h-63l-12 279q-72 -135 -193 -217t-252 -82q-156 0 -249 86t-93 227q0 137 119 219t313 82h348v151q0 156 -87 242t-244 86q-98 0 -193.5 -37t-167.5 -102l-14 14q72 76 174 118t211 42q188 0 295.5 -97.5zM685 103q116 87 185 229v229h-342
q-158 0 -254 -73.5t-96 -194.5q0 -125 75 -201t196 -76q120 0 236 87z" />
    <glyph glyph-name="ae" unicode="&#xe6;" horiz-adv-x="1933" 
d="M973 563v-20q0 -156 53 -276t148.5 -186.5t220.5 -66.5q96 0 197.5 36t168.5 95l13 -16q-70 -68 -176.5 -108.5t-213.5 -40.5q-174 0 -297.5 97t-171.5 267q-78 -166 -209 -265t-274 -99q-154 0 -248 83.5t-94 221.5q0 141 112.5 226t301.5 85h387v147q0 156 -91 243
t-253 87q-100 0 -198.5 -37t-170.5 -102l-14 14q74 76 178 118t215 42q168 0 271.5 -79t123.5 -220q53 141 166 220t264 79q137 0 240.5 -67.5t160 -190.5t56.5 -283v-4h-866zM1179 1015.5q-89 -59.5 -142.5 -168t-61.5 -251.5h776q0 143 -46 251.5t-129 168t-194 59.5
q-114 0 -203 -59.5zM703.5 118.5q123.5 102.5 201.5 272.5q-14 66 -14 152v20h-383q-147 0 -238.5 -76.5t-91.5 -203.5q0 -119 75 -193t196 -74q131 0 254.5 102.5z" />
    <glyph glyph-name="ccedilla" unicode="&#xe7;" horiz-adv-x="1024" 
d="M606 -20l-39 -111q104 -4 169 -46t65 -106q0 -84 -100.5 -136t-262.5 -52l4 20q127 0 206 46.5t79 121.5q0 53 -57.5 87t-151.5 36l47 142q-135 10 -236.5 83.5t-156.5 196.5t-55 283q0 168 61.5 295t173 197.5t258.5 70.5q92 0 179.5 -36t138.5 -95l-13 -16
q-53 51 -134 81.5t-160 30.5q-123 0 -218.5 -65.5t-147.5 -185.5t-52 -277q0 -158 52 -278t147.5 -186.5t220.5 -66.5q80 0 165.5 36t147.5 95l16 -16q-61 -68 -154 -108.5t-188 -40.5h-4z" />
    <glyph glyph-name="egrave" unicode="&#xe8;" horiz-adv-x="1165" 
d="M748 1266l-379 217l16 28l377 -219zM203 567v-24q0 -156 52 -276t148.5 -186.5t221.5 -66.5q96 0 198.5 36t169.5 95l13 -16q-70 -68 -177.5 -108.5t-214.5 -40.5q-147 0 -259.5 70.5t-175 197.5t-62.5 295t62.5 296t175 198.5t259.5 70.5q135 0 238.5 -66.5t161 -188.5
t57.5 -280v-6h-868zM329.5 946q-110.5 -129 -124.5 -346h778q0 141 -46 248.5t-129 167t-194 59.5q-174 0 -284.5 -129z" />
    <glyph glyph-name="eacute" unicode="&#xe9;" horiz-adv-x="1165" 
d="M442 1266l-14 26l377 219l16 -28zM203 567v-24q0 -156 52 -276t148.5 -186.5t221.5 -66.5q96 0 198.5 36t169.5 95l13 -16q-70 -68 -177.5 -108.5t-214.5 -40.5q-147 0 -259.5 70.5t-175 197.5t-62.5 295t62.5 296t175 198.5t259.5 70.5q135 0 238.5 -66.5t161 -188.5
t57.5 -280v-6h-868zM329.5 946q-110.5 -129 -124.5 -346h778q0 141 -46 248.5t-129 167t-194 59.5q-174 0 -284.5 -129z" />
    <glyph glyph-name="ecircumflex" unicode="&#xea;" horiz-adv-x="1165" 
d="M342 1255l-14 17l268 237l270 -237l-14 -17l-256 201zM203 567v-24q0 -156 52 -276t148.5 -186.5t221.5 -66.5q96 0 198.5 36t169.5 95l13 -16q-70 -68 -177.5 -108.5t-214.5 -40.5q-147 0 -259.5 70.5t-175 197.5t-62.5 295t62.5 296t175 198.5t259.5 70.5
q135 0 238.5 -66.5t161 -188.5t57.5 -280v-6h-868zM329.5 946q-110.5 -129 -124.5 -346h778q0 141 -46 248.5t-129 167t-194 59.5q-174 0 -284.5 -129z" />
    <glyph glyph-name="edieresis" unicode="&#xeb;" horiz-adv-x="1165" 
d="M443.5 1428.5q-15.5 -15.5 -42.5 -15.5t-43 15.5t-16 41.5q0 27 16.5 42.5t42.5 15.5q27 0 42.5 -15.5t15.5 -42.5q0 -26 -15.5 -41.5zM834.5 1428.5q-15.5 -15.5 -41.5 -15.5q-27 0 -43.5 15.5t-16.5 41.5q0 27 16.5 42.5t43.5 15.5t42 -15.5t15 -42.5
q0 -26 -15.5 -41.5zM203 567v-24q0 -156 52 -276t148.5 -186.5t221.5 -66.5q96 0 198.5 36t169.5 95l13 -16q-70 -68 -177.5 -108.5t-214.5 -40.5q-147 0 -259.5 70.5t-175 197.5t-62.5 295t62.5 296t175 198.5t259.5 70.5q135 0 238.5 -66.5t161 -188.5t57.5 -280v-6h-868z
M329.5 946q-110.5 -129 -124.5 -346h778q0 141 -46 248.5t-129 167t-194 59.5q-174 0 -284.5 -129z" />
    <glyph glyph-name="igrave" unicode="&#xec;" horiz-adv-x="462" 
d="M367 1270l-312 211l19 26l309 -213zM190 0v1087h82v-1087h-82z" />
    <glyph glyph-name="iacute" unicode="&#xed;" horiz-adv-x="462" 
d="M96 1270l-16 24l309 213l19 -26zM190 0v1087h82v-1087h-82z" />
    <glyph glyph-name="icircumflex" unicode="&#xee;" horiz-adv-x="462" 
d="M12 1255l-14 17l233 237l234 -237l-14 -17l-220 199zM190 0v1087h82v-1087h-82z" />
    <glyph glyph-name="idieresis" unicode="&#xef;" horiz-adv-x="462" 
d="M156.5 1428.5q-15.5 -15.5 -41.5 -15.5q-27 0 -43.5 15.5t-16.5 41.5q0 27 16.5 42.5t43.5 15.5t42 -15.5t15 -42.5q0 -26 -15.5 -41.5zM391.5 1428.5q-16.5 -15.5 -43.5 -15.5t-42 15.5t-15 41.5q0 27 15.5 42.5t41.5 15.5q27 0 43.5 -15.5t16.5 -42.5
q0 -26 -16.5 -41.5zM190 0v1087h82v-1087h-82z" />
    <glyph glyph-name="eth" unicode="&#xf0;" horiz-adv-x="1261" 
d="M1018.5 1138.5q109.5 -223.5 109.5 -515.5q0 -190 -62 -337t-177 -226.5t-266 -79.5q-152 0 -266.5 70.5t-177 197.5t-62.5 295t62.5 295t176 197.5t262.5 70.5q147 0 258 -76t166 -213q-39 215 -136 381t-244 264l-379 -176l-15 33l357 166q-178 109 -398 110l2 23
q248 0 445 -111l235 111l15 -33l-211 -98q196 -125 305.5 -348.5zM843 78.5q95 66.5 147 186.5t52 278t-52 277.5t-147 186t-220 66.5t-220.5 -66.5t-147.5 -186.5t-52 -277q0 -158 52 -278t147.5 -186.5t220.5 -66.5t220 66.5z" />
    <glyph glyph-name="ntilde" unicode="&#xf1;" horiz-adv-x="1224" 
d="M330 1319l-21 10q49 145 172 146q43 0 75 -18.5t73 -53.5q37 -31 63.5 -46.5t59.5 -15.5q88 0 139 125l22 -12q-18 -63 -61 -104t-111 -41q-43 0 -74.5 18.5t-72.5 52.5q-37 31 -63.5 46.5t-59.5 15.5q-92 0 -141 -123zM958.5 1020q88.5 -88 88.5 -234v-786h-82v788
q0 127 -70 205t-184 78q-131 0 -252 -90t-187 -236v-745h-82v1087h64l14 -288q70 139 195 224t264 85q143 0 231.5 -88z" />
    <glyph glyph-name="ograve" unicode="&#xf2;" horiz-adv-x="1247" 
d="M776 1266l-379 217l17 28l377 -219zM1069.5 248q-63.5 -127 -178.5 -197.5t-266 -70.5q-150 0 -265.5 70.5t-179 197.5t-63.5 295t63.5 296t179 198.5t265.5 70.5q152 0 266.5 -70.5t178 -198.5t63.5 -296t-63.5 -295zM256 265q53 -120 148.5 -186.5t220.5 -66.5
t220 66.5t147 186.5t52 278t-52 278.5t-147 187t-220 66.5t-220.5 -66.5t-148.5 -187.5t-53 -278q0 -158 53 -278z" />
    <glyph glyph-name="oacute" unicode="&#xf3;" horiz-adv-x="1247" 
d="M471 1266l-14 26l377 219l16 -28zM1069.5 248q-63.5 -127 -178.5 -197.5t-266 -70.5q-150 0 -265.5 70.5t-179 197.5t-63.5 295t63.5 296t179 198.5t265.5 70.5q152 0 266.5 -70.5t178 -198.5t63.5 -296t-63.5 -295zM256 265q53 -120 148.5 -186.5t220.5 -66.5t220 66.5
t147 186.5t52 278t-52 278.5t-147 187t-220 66.5t-220.5 -66.5t-148.5 -187.5t-53 -278q0 -158 53 -278z" />
    <glyph glyph-name="ocircumflex" unicode="&#xf4;" horiz-adv-x="1247" 
d="M371 1255l-15 17l269 237l270 -237l-14 -17l-256 201zM1069.5 248q-63.5 -127 -178.5 -197.5t-266 -70.5q-150 0 -265.5 70.5t-179 197.5t-63.5 295t63.5 296t179 198.5t265.5 70.5q152 0 266.5 -70.5t178 -198.5t63.5 -296t-63.5 -295zM256 265q53 -120 148.5 -186.5
t220.5 -66.5t220 66.5t147 186.5t52 278t-52 278.5t-147 187t-220 66.5t-220.5 -66.5t-148.5 -187.5t-53 -278q0 -158 53 -278z" />
    <glyph glyph-name="otilde" unicode="&#xf5;" horiz-adv-x="1247" 
d="M342 1319l-20 10q49 145 172 146q43 0 74.5 -18.5t72.5 -53.5q37 -31 63.5 -46.5t59.5 -15.5q88 0 139 125l23 -12q-18 -63 -61.5 -104t-110.5 -41q-43 0 -75 18.5t-73 52.5q-37 31 -63.5 46.5t-59.5 15.5q-92 0 -141 -123zM1069.5 248q-63.5 -127 -178.5 -197.5
t-266 -70.5q-150 0 -265.5 70.5t-179 197.5t-63.5 295t63.5 296t179 198.5t265.5 70.5q152 0 266.5 -70.5t178 -198.5t63.5 -296t-63.5 -295zM256 265q53 -120 148.5 -186.5t220.5 -66.5t220 66.5t147 186.5t52 278t-52 278.5t-147 187t-220 66.5t-220.5 -66.5
t-148.5 -187.5t-53 -278q0 -158 53 -278z" />
    <glyph glyph-name="odieresis" unicode="&#xf6;" horiz-adv-x="1247" 
d="M472 1428.5q-15 -15.5 -42 -15.5t-43 15.5t-16 41.5q0 27 16 42.5t43 15.5t42 -15.5t15 -42.5q0 -26 -15 -41.5zM863.5 1428.5q-15.5 -15.5 -42.5 -15.5t-43 15.5t-16 41.5q0 27 16.5 42.5t42.5 15.5q27 0 42.5 -15.5t15.5 -42.5q0 -26 -15.5 -41.5zM1069.5 248
q-63.5 -127 -178.5 -197.5t-266 -70.5q-150 0 -265.5 70.5t-179 197.5t-63.5 295t63.5 296t179 198.5t265.5 70.5q152 0 266.5 -70.5t178 -198.5t63.5 -296t-63.5 -295zM256 265q53 -120 148.5 -186.5t220.5 -66.5t220 66.5t147 186.5t52 278t-52 278.5t-147 187t-220 66.5
t-220.5 -66.5t-148.5 -187.5t-53 -278q0 -158 53 -278z" />
    <glyph glyph-name="divide" unicode="&#xf7;" horiz-adv-x="970" 
d="M538.5 775.5q-20.5 -21.5 -53.5 -21.5t-53 21.5t-20 53.5q0 33 20.5 54.5t52.5 21.5q33 0 53.5 -21.5t20.5 -54.5q0 -32 -20.5 -53.5zM127 557v33h717v-33h-717zM538.5 263.5q-20.5 -21.5 -53.5 -21.5t-53 21.5t-20 53.5q0 33 20.5 54.5t52.5 21.5q33 0 53.5 -21.5
t20.5 -54.5q0 -32 -20.5 -53.5z" />
    <glyph glyph-name="oslash" unicode="&#xf8;" horiz-adv-x="1247" 
d="M1087.5 798.5q45.5 -114.5 45.5 -255.5q0 -168 -63.5 -295t-178.5 -197.5t-266 -70.5q-178 0 -308 98l-100 -144l-29 21l103 145q-84 74 -129 188.5t-45 254.5q0 168 63.5 296t179 198.5t265.5 70.5q178 0 307 -98l98 141l29 -21l-101 -143q84 -74 129.5 -188.5z
M234.5 321.5q31.5 -100.5 91.5 -171.5l573 815q-115 111 -274 110q-125 0 -220.5 -66.5t-148.5 -187.5t-53 -278q0 -121 31.5 -221.5zM845 78.5q95 66.5 147 186.5t52 278q0 121 -31.5 222t-90.5 171l-572 -813q115 -111 275 -111q125 0 220 66.5z" />
    <glyph glyph-name="ugrave" unicode="&#xf9;" horiz-adv-x="1204" 
d="M743 1266l-378 217l16 28l377 -219zM1014 1087v-1087h-64l-14 279q-68 -135 -189.5 -217t-259.5 -82q-139 0 -224 85t-85 226v796h82v-798q0 -123 67.5 -198t178.5 -75q127 0 244.5 87t181.5 229v755h82z" />
    <glyph glyph-name="uacute" unicode="&#xfa;" horiz-adv-x="1204" 
d="M438 1266l-14 26l377 219l16 -28zM1014 1087v-1087h-64l-14 279q-68 -135 -189.5 -217t-259.5 -82q-139 0 -224 85t-85 226v796h82v-798q0 -123 67.5 -198t178.5 -75q127 0 244.5 87t181.5 229v755h82z" />
    <glyph glyph-name="ucircumflex" unicode="&#xfb;" horiz-adv-x="1204" 
d="M336 1255l-14 17l268 237l270 -237l-14 -17l-256 201zM1014 1087v-1087h-64l-14 279q-68 -135 -189.5 -217t-259.5 -82q-139 0 -224 85t-85 226v796h82v-798q0 -123 67.5 -198t178.5 -75q127 0 244.5 87t181.5 229v755h82z" />
    <glyph glyph-name="udieresis" unicode="&#xfc;" horiz-adv-x="1204" 
d="M437.5 1428.5q-15.5 -15.5 -42.5 -15.5t-43 15.5t-16 41.5q0 27 16.5 42.5t42.5 15.5q27 0 42.5 -15.5t15.5 -42.5q0 -26 -15.5 -41.5zM828.5 1428.5q-15.5 -15.5 -42.5 -15.5t-43 15.5t-16 41.5q0 27 16.5 42.5t42.5 15.5q27 0 42.5 -15.5t15.5 -42.5q0 -26 -15.5 -41.5
zM1014 1087v-1087h-64l-14 279q-68 -135 -189.5 -217t-259.5 -82q-139 0 -224 85t-85 226v796h82v-798q0 -123 67.5 -198t178.5 -75q127 0 244.5 87t181.5 229v755h82z" />
    <glyph glyph-name="yacute" unicode="&#xfd;" horiz-adv-x="1081" 
d="M418 1266l-15 26l377 219l17 -28zM1028 1087l-657 -1542h-41l194 457l-465 1085h88l422 -983l418 983h41z" />
    <glyph glyph-name="thorn" unicode="&#xfe;" horiz-adv-x="1243" 
d="M912.5 1037.5q103.5 -70.5 159.5 -198.5t56 -296t-56 -295t-159.5 -197.5t-238.5 -70.5t-243.5 78.5t-158.5 209.5v-719h-82v2048h82v-776q51 129 160 208t242 79q135 0 238.5 -70.5zM857 80.5q87 66.5 135 186.5t48 276q0 158 -48 277.5t-135 186t-200 66.5
q-125 0 -231.5 -90t-153.5 -235v-408q47 -145 153.5 -235.5t231.5 -90.5q113 0 200 66.5z" />
    <glyph glyph-name="ydieresis" unicode="&#xff;" horiz-adv-x="1081" 
d="M416.5 1428.5q-15.5 -15.5 -41.5 -15.5q-27 0 -43.5 15.5t-16.5 41.5q0 27 16.5 42.5t43.5 15.5t42 -15.5t15 -42.5q0 -26 -15.5 -41.5zM808 1428.5q-15 -15.5 -42 -15.5t-43 15.5t-16 41.5q0 27 16 42.5t43 15.5t42 -15.5t15 -42.5q0 -26 -15 -41.5zM1028 1087
l-657 -1542h-41l194 457l-465 1085h88l422 -983l418 983h41z" />
    <glyph glyph-name="Amacron" unicode="&#x100;" horiz-adv-x="1421" 
d="M436 1681v33h541v-33h-541zM1071 465h-774l-186 -465h-43l624 1556h27l633 -1556h-92zM1057 498l-375 923l-371 -923h746z" />
    <glyph glyph-name="amacron" unicode="&#x101;" horiz-adv-x="1132" 
d="M307 1374v33h541v-33h-541zM844.5 1010.5q107.5 -97.5 107.5 -267.5v-743h-63l-12 279q-72 -135 -193 -217t-252 -82q-156 0 -249 86t-93 227q0 137 119 219t313 82h348v151q0 156 -87 242t-244 86q-98 0 -193.5 -37t-167.5 -102l-14 14q72 76 174 118t211 42
q188 0 295.5 -97.5zM685 103q116 87 185 229v229h-342q-158 0 -254 -73.5t-96 -194.5q0 -125 75 -201t196 -76q120 0 236 87z" />
    <glyph glyph-name="Abreve" unicode="&#x102;" horiz-adv-x="1421" 
d="M876.5 1735.5q-79.5 -54.5 -171.5 -54.5t-172 54.5t-119 142.5l20 10q43 -76 118 -123t153 -47t152.5 47t117.5 123l22 -10q-41 -88 -120.5 -142.5zM1071 465h-774l-186 -465h-43l624 1556h27l633 -1556h-92zM1057 498l-375 923l-371 -923h746z" />
    <glyph glyph-name="abreve" unicode="&#x103;" horiz-adv-x="1132" 
d="M724 1336.5q-69 -54.5 -149 -54.5q-78 0 -147.5 55.5t-101.5 143.5l20 10q35 -78 97.5 -125t131.5 -47q70 0 133.5 47t98.5 125l20 -10q-34 -90 -103 -144.5zM844.5 1010.5q107.5 -97.5 107.5 -267.5v-743h-63l-12 279q-72 -135 -193 -217t-252 -82q-156 0 -249 86
t-93 227q0 137 119 219t313 82h348v151q0 156 -87 242t-244 86q-98 0 -193.5 -37t-167.5 -102l-14 14q72 76 174 118t211 42q188 0 295.5 -97.5zM685 103q116 87 185 229v229h-342q-158 0 -254 -73.5t-96 -194.5q0 -125 75 -201t196 -76q120 0 236 87z" />
    <glyph glyph-name="Aogonek" unicode="&#x104;" horiz-adv-x="1421" 
d="M1364 -434q-29 -18 -68 -27.5t-77 -9.5q-90 0 -143.5 45t-53.5 121q0 86 71.5 169t192.5 136h-26l-189 465h-774l-186 -465h-43l624 1556h27l633 -1556q-115 -51 -185.5 -135t-70.5 -168q0 -59 37.5 -96t99.5 -37q76 0 125 22zM1057 498l-375 923l-371 -923h746z" />
    <glyph glyph-name="aogonek" unicode="&#x105;" horiz-adv-x="1132" 
d="M967 -434q-29 -18 -68 -27.5t-78 -9.5q-90 0 -143 45t-53 121q0 86 71.5 169t192.5 136l-12 279q-72 -135 -193 -217t-252 -82q-156 0 -249 86t-93 227q0 137 119 219t313 82h348v151q0 156 -87 242t-244 86q-98 0 -193.5 -37t-167.5 -102l-14 14q72 76 174 118t211 42
q188 0 295.5 -97.5t107.5 -267.5v-743q-113 -51 -183.5 -135t-70.5 -168q0 -59 38 -96t100 -37q76 0 125 22zM685 103q116 87 185 229v229h-342q-158 0 -254 -73.5t-96 -194.5q0 -125 75 -201t196 -76q120 0 236 87z" />
    <glyph glyph-name="Cacute" unicode="&#x106;" horiz-adv-x="1474" 
d="M629 1647l-11 28l517 189l12 -33zM1163.5 40q-151.5 -60 -307.5 -60q-213 0 -376 98t-253 277.5t-90 412.5t90 412.5t253 277.5t376 98q147 0 292.5 -56t233.5 -150l-16 -19q-84 86 -222 138.5t-278 52.5q-188 0 -331.5 -94.5t-222.5 -265.5t-79 -394t79 -394
t222.5 -265.5t331.5 -94.5q143 0 288.5 57.5t234.5 149.5l16 -22q-90 -99 -241.5 -159z" />
    <glyph glyph-name="cacute" unicode="&#x107;" horiz-adv-x="1024" 
d="M444 1266l-14 26l377 219l16 -28zM798 20.5q-93 -40.5 -188 -40.5q-147 0 -258.5 70.5t-173 198.5t-61.5 296t61.5 295t173 197.5t258.5 70.5q92 0 179.5 -36t138.5 -95l-13 -16q-53 51 -134 81.5t-160 30.5q-123 0 -218.5 -65.5t-147.5 -185.5t-52 -277q0 -158 52 -278
t147.5 -186.5t220.5 -66.5q80 0 165.5 36t147.5 95l16 -16q-61 -68 -154 -108.5z" />
    <glyph glyph-name="Cdotaccent" unicode="&#x10a;" horiz-adv-x="1474" 
d="M898 1697.5q-17 -16.5 -44 -16.5t-44 16.5t-17 43.5q0 29 16 45t45 16q27 0 44 -16.5t17 -44.5q0 -27 -17 -43.5zM1163.5 40q-151.5 -60 -307.5 -60q-213 0 -376 98t-253 277.5t-90 412.5t90 412.5t253 277.5t376 98q147 0 292.5 -56t233.5 -150l-16 -19
q-84 86 -222 138.5t-278 52.5q-188 0 -331.5 -94.5t-222.5 -265.5t-79 -394t79 -394t222.5 -265.5t331.5 -94.5q143 0 288.5 57.5t234.5 149.5l16 -22q-90 -99 -241.5 -159z" />
    <glyph glyph-name="cdotaccent" unicode="&#x10b;" horiz-adv-x="1024" 
d="M640 1426.5q-17 -17.5 -44 -17.5q-29 0 -45 17.5t-16 43.5q0 27 16 43.5t45 16.5t45 -16.5t16 -43.5q0 -26 -17 -43.5zM798 20.5q-93 -40.5 -188 -40.5q-147 0 -258.5 70.5t-173 198.5t-61.5 296t61.5 295t173 197.5t258.5 70.5q92 0 179.5 -36t138.5 -95l-13 -16
q-53 51 -134 81.5t-160 30.5q-123 0 -218.5 -65.5t-147.5 -185.5t-52 -277q0 -158 52 -278t147.5 -186.5t220.5 -66.5q80 0 165.5 36t147.5 95l16 -16q-61 -68 -154 -108.5z" />
    <glyph glyph-name="Ccaron" unicode="&#x10c;" horiz-adv-x="1474" 
d="M1151 1858l14 -17l-309 -219l-309 219l14 17l295 -183zM1163.5 40q-151.5 -60 -307.5 -60q-213 0 -376 98t-253 277.5t-90 412.5t90 412.5t253 277.5t376 98q147 0 292.5 -56t233.5 -150l-16 -19q-84 86 -222 138.5t-278 52.5q-188 0 -331.5 -94.5t-222.5 -265.5
t-79 -394t79 -394t222.5 -265.5t331.5 -94.5q143 0 288.5 57.5t234.5 149.5l16 -22q-90 -99 -241.5 -159z" />
    <glyph glyph-name="ccaron" unicode="&#x10d;" horiz-adv-x="1024" 
d="M854 1509l14 -16l-270 -238l-268 238l14 16l254 -200zM798 20.5q-93 -40.5 -188 -40.5q-147 0 -258.5 70.5t-173 198.5t-61.5 296t61.5 295t173 197.5t258.5 70.5q92 0 179.5 -36t138.5 -95l-13 -16q-53 51 -134 81.5t-160 30.5q-123 0 -218.5 -65.5t-147.5 -185.5
t-52 -277q0 -158 52 -278t147.5 -186.5t220.5 -66.5q80 0 165.5 36t147.5 95l16 -16q-61 -68 -154 -108.5z" />
    <glyph glyph-name="Dcaron" unicode="&#x10e;" horiz-adv-x="1646" 
d="M1020 1858l14 -17l-309 -219l-309 219l14 17l295 -183zM1127.5 1439.5q183.5 -96.5 283.5 -270.5t100 -401t-100 -401t-283.5 -270.5t-422.5 -96.5h-469v1536h469q239 0 422.5 -96.5zM1071 125q164 92 254 259t90 384t-90 384t-254 259t-377 92h-372v-1470h372
q213 0 377 92z" />
    <glyph glyph-name="dcaron" unicode="&#x10f;" horiz-adv-x="1243" 
d="M1303 1597l-97 -413l-28 8l92 414zM971 1597h82v-1597h-64l-12 283q-47 -137 -157.5 -220t-248.5 -83q-135 0 -238.5 70.5t-159.5 197.5t-56 295t56 296t159.5 198.5t238.5 70.5q133 0 242 -79t158 -210v778zM817.5 104.5q106.5 90.5 153.5 235.5v408q-47 145 -153.5 235
t-231.5 90q-113 0 -200 -66.5t-135 -186.5t-48 -277q0 -156 48 -276t135 -186.5t200 -66.5q125 0 231.5 90.5z" />
    <glyph glyph-name="Dcroat" unicode="&#x110;" horiz-adv-x="1658" 
d="M1139.5 1439.5q183.5 -96.5 284 -270.5t100.5 -401t-100.5 -401t-284 -270.5t-420.5 -96.5h-471v799h-176v32h176v705h471q237 0 420.5 -96.5zM1083.5 125q163.5 92 253.5 259t90 384t-90 384t-253.5 259t-376.5 92h-373v-672h434v-32h-434v-766h373q213 0 376.5 92z" />
    <glyph glyph-name="dcroat" unicode="&#x111;" horiz-adv-x="1243" 
d="M1229 1329h-176v-1329h-64l-12 283q-47 -137 -157.5 -220t-248.5 -83q-135 0 -238.5 70.5t-159.5 197.5t-56 295t56 296t159.5 198.5t238.5 70.5q133 0 242 -79t158 -210v510h-439v33h439v235h82v-235h176v-33zM817.5 104.5q106.5 90.5 153.5 235.5v408
q-47 145 -153.5 235t-231.5 90q-113 0 -200 -66.5t-135 -186.5t-48 -277q0 -156 48 -276t135 -186.5t200 -66.5q125 0 231.5 90.5z" />
    <glyph glyph-name="Emacron" unicode="&#x112;" horiz-adv-x="1067" 
d="M324 1681v33h540v-33h-540zM956 33v-33h-720v1536h706v-33h-620v-674h526v-32h-526v-764h634z" />
    <glyph glyph-name="emacron" unicode="&#x113;" horiz-adv-x="1165" 
d="M326 1374v33h540v-33h-540zM203 567v-24q0 -156 52 -276t148.5 -186.5t221.5 -66.5q96 0 198.5 36t169.5 95l13 -16q-70 -68 -177.5 -108.5t-214.5 -40.5q-147 0 -259.5 70.5t-175 197.5t-62.5 295t62.5 296t175 198.5t259.5 70.5q135 0 238.5 -66.5t161 -188.5
t57.5 -280v-6h-868zM329.5 946q-110.5 -129 -124.5 -346h778q0 141 -46 248.5t-129 167t-194 59.5q-174 0 -284.5 -129z" />
    <glyph glyph-name="Edotaccent" unicode="&#x116;" horiz-adv-x="1067" 
d="M635.5 1697.5q-17.5 -16.5 -43.5 -16.5q-27 0 -44.5 16.5t-17.5 43.5q0 29 16.5 45t45.5 16q27 0 44 -16.5t17 -44.5q0 -27 -17.5 -43.5zM956 33v-33h-720v1536h706v-33h-620v-674h526v-32h-526v-764h634z" />
    <glyph glyph-name="edotaccent" unicode="&#x117;" horiz-adv-x="1165" 
d="M638 1426.5q-17 -17.5 -44 -17.5q-29 0 -45.5 17.5t-16.5 43.5q0 27 16.5 43.5t45.5 16.5t45 -16.5t16 -43.5q0 -26 -17 -43.5zM203 567v-24q0 -156 52 -276t148.5 -186.5t221.5 -66.5q96 0 198.5 36t169.5 95l13 -16q-70 -68 -177.5 -108.5t-214.5 -40.5
q-147 0 -259.5 70.5t-175 197.5t-62.5 295t62.5 296t175 198.5t259.5 70.5q135 0 238.5 -66.5t161 -188.5t57.5 -280v-6h-868zM329.5 946q-110.5 -129 -124.5 -346h778q0 141 -46 248.5t-129 167t-194 59.5q-174 0 -284.5 -129z" />
    <glyph glyph-name="Eogonek" unicode="&#x118;" horiz-adv-x="1067" 
d="M971 -434q-29 -18 -68 -27.5t-78 -9.5q-90 0 -143 45t-53 121q0 86 71.5 169t192.5 136h-657v1536h706v-33h-620v-674h526v-32h-526v-764h634v-33q-113 -51 -183.5 -135t-70.5 -168q0 -59 38 -96t100 -37q76 0 125 22z" />
    <glyph glyph-name="eogonek" unicode="&#x119;" horiz-adv-x="1165" 
d="M203 567v-24q0 -156 52 -276t148.5 -186.5t221.5 -66.5q96 0 198.5 36t169.5 95l13 -16q-61 -59 -162 -102q-131 -76 -203 -161t-72 -167q0 -61 38 -98t100 -37q76 0 124 22l7 -20q-29 -18 -68 -27.5t-78 -9.5q-88 0 -142 45t-54 121q0 78 64.5 155.5t182.5 143.5
q-76 -14 -129 -14q-147 0 -259.5 70.5t-175 197.5t-62.5 295t62.5 296t175 198.5t259.5 70.5q135 0 238.5 -66.5t161 -188.5t57.5 -280v-6h-868zM329.5 946q-110.5 -129 -124.5 -346h778q0 141 -46 248.5t-129 167t-194 59.5q-174 0 -284.5 -129z" />
    <glyph glyph-name="Ecaron" unicode="&#x11a;" horiz-adv-x="1067" 
d="M887 1858l14 -17l-309 -219l-309 219l14 17l295 -183zM956 33v-33h-720v1536h706v-33h-620v-674h526v-32h-526v-764h634z" />
    <glyph glyph-name="ecaron" unicode="&#x11b;" horiz-adv-x="1165" 
d="M852 1509l14 -16l-270 -238l-268 238l14 16l254 -200zM203 567v-24q0 -156 52 -276t148.5 -186.5t221.5 -66.5q96 0 198.5 36t169.5 95l13 -16q-70 -68 -177.5 -108.5t-214.5 -40.5q-147 0 -259.5 70.5t-175 197.5t-62.5 295t62.5 296t175 198.5t259.5 70.5
q135 0 238.5 -66.5t161 -188.5t57.5 -280v-6h-868zM329.5 946q-110.5 -129 -124.5 -346h778q0 141 -46 248.5t-129 167t-194 59.5q-174 0 -284.5 -129z" />
    <glyph glyph-name="Gbreve" unicode="&#x11e;" horiz-adv-x="1601" 
d="M1028 1735.5q-80 -54.5 -172 -54.5t-172 54.5t-119 142.5l21 10q43 -76 117.5 -123t152.5 -47t152.5 47t117.5 123l23 -10q-41 -88 -121 -142.5zM1450 815v-616q-100 -98 -264 -158.5t-330 -60.5q-213 0 -376 98t-253 277.5t-90 412.5t90 412.5t253 277.5t376 98
q156 0 306.5 -58t242.5 -157l-14 -16q-88 88 -232.5 142.5t-292.5 54.5q-188 0 -331.5 -94.5t-222.5 -265.5t-79 -394t79 -394t222.5 -265.5t331.5 -94.5q129 0 262.5 40t233.5 108v653h88z" />
    <glyph glyph-name="gbreve" unicode="&#x11f;" horiz-adv-x="1243" 
d="M783.5 1338.5q-68.5 -54.5 -148.5 -54.5q-78 0 -147.5 55.5t-102.5 143.5l21 10q35 -78 97 -125t132 -47t133 47t98 125l21 -10q-35 -90 -103.5 -144.5zM1053 1087v-1081q0 -143 -64.5 -250.5t-182.5 -167t-274 -59.5q-90 0 -187 36t-165 93l17 18q63 -51 155 -82.5
t178 -31.5q131 0 230.5 55t155 155.5t55.5 229.5v264q-51 -129 -160 -207.5t-240 -78.5q-135 0 -238.5 70.5t-159.5 197.5t-56 295t56 296t159.5 198.5t238.5 70.5q137 0 248 -83t158 -220l12 282h64zM817.5 104.5q106.5 90.5 153.5 235.5v408q-47 145 -153.5 235t-231.5 90
q-113 0 -200 -66.5t-135 -186.5t-48 -277q0 -156 48 -276t135 -186.5t200 -66.5q125 0 231.5 90.5z" />
    <glyph glyph-name="Gdotaccent" unicode="&#x120;" horiz-adv-x="1601" 
d="M898 1697.5q-17 -16.5 -44 -16.5t-44 16.5t-17 43.5q0 29 16 45t45 16q27 0 44 -16.5t17 -44.5q0 -27 -17 -43.5zM1450 815v-616q-100 -98 -264 -158.5t-330 -60.5q-213 0 -376 98t-253 277.5t-90 412.5t90 412.5t253 277.5t376 98q156 0 306.5 -58t242.5 -157l-14 -16
q-88 88 -232.5 142.5t-292.5 54.5q-188 0 -331.5 -94.5t-222.5 -265.5t-79 -394t79 -394t222.5 -265.5t331.5 -94.5q129 0 262.5 40t233.5 108v653h88z" />
    <glyph glyph-name="gdotaccent" unicode="&#x121;" horiz-adv-x="1243" 
d="M679 1428.5q-17 -17.5 -44 -17.5q-29 0 -45.5 17.5t-16.5 44.5t16.5 43t45.5 16t45 -16.5t16 -42.5q0 -27 -17 -44.5zM1053 1087v-1081q0 -143 -64.5 -250.5t-182.5 -167t-274 -59.5q-90 0 -187 36t-165 93l17 18q63 -51 155 -82.5t178 -31.5q131 0 230.5 55t155 155.5
t55.5 229.5v264q-51 -129 -160 -207.5t-240 -78.5q-135 0 -238.5 70.5t-159.5 197.5t-56 295t56 296t159.5 198.5t238.5 70.5q137 0 248 -83t158 -220l12 282h64zM817.5 104.5q106.5 90.5 153.5 235.5v408q-47 145 -153.5 235t-231.5 90q-113 0 -200 -66.5t-135 -186.5
t-48 -277q0 -156 48 -276t135 -186.5t200 -66.5q125 0 231.5 90.5z" />
    <glyph glyph-name="uni0122" unicode="&#x122;" horiz-adv-x="1601" 
d="M913.5 -160.5q20.5 -27.5 20.5 -83.5q0 -70 -35 -133t-94 -100l-17 20q51 33 82 88.5t33 110.5q-18 -18 -51 -18q-31 0 -50.5 19t-19.5 50q0 33 20.5 53.5t53.5 20.5q37 0 57.5 -27.5zM1450 815v-616q-100 -98 -264 -158.5t-330 -60.5q-213 0 -376 98t-253 277.5
t-90 412.5t90 412.5t253 277.5t376 98q156 0 306.5 -58t242.5 -157l-14 -16q-88 88 -232.5 142.5t-292.5 54.5q-188 0 -331.5 -94.5t-222.5 -265.5t-79 -394t79 -394t222.5 -265.5t331.5 -94.5q129 0 262.5 40t233.5 108v653h88z" />
    <glyph glyph-name="uni0123" unicode="&#x123;" horiz-adv-x="1243" 
d="M685.5 1362.5q19.5 -21.5 19.5 -53.5q0 -35 -20.5 -56.5t-53.5 -21.5q-37 0 -57.5 30.5t-20.5 90.5q0 94 36 184t93 141l16 -20q-51 -49 -82.5 -130t-31.5 -163q20 20 51 20t50.5 -21.5zM1053 1087v-1081q0 -143 -64.5 -250.5t-182.5 -167t-274 -59.5q-90 0 -187 36
t-165 93l17 18q63 -51 155 -82.5t178 -31.5q131 0 230.5 55t155 155.5t55.5 229.5v264q-51 -129 -160 -207.5t-240 -78.5q-135 0 -238.5 70.5t-159.5 197.5t-56 295t56 296t159.5 198.5t238.5 70.5q137 0 248 -83t158 -220l12 282h64zM817.5 104.5q106.5 90.5 153.5 235.5
v408q-47 145 -153.5 235t-231.5 90q-113 0 -200 -66.5t-135 -186.5t-48 -277q0 -156 48 -276t135 -186.5t200 -66.5q125 0 231.5 90.5z" />
    <glyph glyph-name="Hbar" unicode="&#x126;" horiz-adv-x="1505" 
d="M1409 1190h-137v-1190h-88v797h-862v-797h-86v1190h-136v33h136v313h86v-313h862v313h88v-313h137v-33zM1184 1190h-862v-361h862v361z" />
    <glyph glyph-name="hbar" unicode="&#x127;" horiz-adv-x="1224" 
d="M958.5 1020q88.5 -88 88.5 -234v-786h-82v788q0 127 -70 205t-184 78q-131 0 -252 -90t-187 -236v-745h-82v1329h-202v33h202v235h82v-235h412v-33h-412v-522q70 137 194 219t261 82q143 0 231.5 -88z" />
    <glyph glyph-name="Imacron" unicode="&#x12a;" horiz-adv-x="557" 
d="M111 1681v33h338v-33h-338zM236 0v1536h86v-1536h-86z" />
    <glyph glyph-name="imacron" unicode="&#x12b;" horiz-adv-x="462" 
d="M63 1374v33h338v-33h-338zM190 0v1087h82v-1087h-82z" />
    <glyph glyph-name="Iogonek" unicode="&#x12e;" horiz-adv-x="557" 
d="M334 -434q-27 -18 -67 -27.5t-79 -9.5q-88 0 -142 45t-54 121q0 86 71.5 169t192.5 136h-20v1536h86v-1536q-115 -53 -185.5 -137t-70.5 -166q0 -59 37.5 -96t101.5 -37q78 0 123 22z" />
    <glyph glyph-name="iogonek" unicode="&#x12f;" horiz-adv-x="462" 
d="M185.5 1426.5q-17.5 17.5 -17.5 43.5q0 27 16.5 43.5t44.5 16.5q29 0 45.5 -16.5t16.5 -43.5t-16.5 -44t-45.5 -17q-26 0 -43.5 17.5zM279 -414l6 -20q-27 -18 -67 -27.5t-79 -9.5q-88 0 -141 45t-53 121q0 86 70.5 169t191.5 136h-17v1087h82v-1087
q-115 -53 -185.5 -137t-70.5 -166q0 -59 38 -96t102 -37q78 -1 123 22z" />
    <glyph glyph-name="Idotaccent" unicode="&#x130;" horiz-adv-x="557" 
d="M320.5 1697.5q-17.5 -16.5 -44.5 -16.5t-44 16.5t-17 43.5q0 29 16.5 45t44.5 16q27 0 44.5 -16.5t17.5 -44.5q0 -27 -17.5 -43.5zM236 0v1536h86v-1536h-86z" />
    <glyph glyph-name="dotlessi" unicode="&#x131;" horiz-adv-x="462" 
d="M190 0v1087h82v-1087h-82z" />
    <glyph glyph-name="uni0136" unicode="&#x136;" horiz-adv-x="1251" 
d="M729.5 -160.5q20.5 -27.5 20.5 -83.5q0 -70 -35 -133t-94 -100l-17 20q51 33 82 88.5t33 110.5q-18 -18 -51 -18q-31 0 -50.5 19t-19.5 50q0 33 20.5 53.5t53.5 20.5q37 0 57.5 -27.5zM236 1536h86v-1536h-86v1536zM1233 0h-113l-743 809l723 727h55l-690 -694z" />
    <glyph glyph-name="uni0137" unicode="&#x137;" horiz-adv-x="1019" 
d="M606.5 -160.5q20.5 -27.5 20.5 -83.5q0 -70 -35 -133t-94 -100l-17 20q51 33 82 88.5t33 110.5q-18 -18 -51 -18q-31 0 -50.5 19t-19.5 50q0 33 20.5 53.5t53.5 20.5q37 0 57.5 -27.5zM190 1597h82v-1597h-82v1597zM999 0h-104l-569 604l563 483h53l-532 -454z" />
    <glyph glyph-name="Lacute" unicode="&#x139;" horiz-adv-x="1015" 
d="M94 1647l-10 28l516 189l12 -33zM969 33v-33h-733v1536h86v-1503h647z" />
    <glyph glyph-name="lacute" unicode="&#x13a;" horiz-adv-x="462" 
d="M80 1706l-10 29l426 155l12 -30zM190 0v1597h82v-1597h-82z" />
    <glyph glyph-name="uni013B" unicode="&#x13b;" horiz-adv-x="1015" 
d="M661.5 -160.5q20.5 -27.5 20.5 -83.5q0 -70 -35 -133t-94 -100l-16 20q51 33 81.5 88.5t32.5 110.5q-18 -18 -51 -18q-31 0 -50.5 19t-19.5 50q0 33 20.5 53.5t53.5 20.5q37 0 57.5 -27.5zM969 33v-33h-733v1536h86v-1503h647z" />
    <glyph glyph-name="uni013C" unicode="&#x13c;" horiz-adv-x="462" 
d="M288.5 -160.5q20.5 -27.5 20.5 -83.5q0 -70 -34.5 -133t-94.5 -100l-16 20q51 33 81.5 88.5t33.5 110.5q-18 -18 -52 -18q-31 0 -50 19t-19 50q0 33 20.5 53.5t52.5 20.5q37 0 57.5 -27.5zM190 0v1597h82v-1597h-82z" />
    <glyph glyph-name="Lcaron" unicode="&#x13d;" horiz-adv-x="1021" 
d="M733 1184l-28 8l92 414l32 -9zM969 33v-33h-733v1536h86v-1503h647z" />
    <glyph glyph-name="lcaron" unicode="&#x13e;" horiz-adv-x="462" 
d="M428 1184l-29 8l90 414l33 -9zM190 0v1597h82v-1597h-82z" />
    <glyph glyph-name="Lslash" unicode="&#x141;" horiz-adv-x="1054" 
d="M1006 33v-33h-736v770l-161 -113l-21 29l182 127v723h88v-674l355 246l18 -29l-373 -258v-788h648z" />
    <glyph glyph-name="lslash" unicode="&#x142;" horiz-adv-x="555" 
d="M324 950v-950h-82v905l-166 -114l-21 28l187 129v649h82v-604l165 115l21 -29z" />
    <glyph glyph-name="Nacute" unicode="&#x143;" horiz-adv-x="1505" 
d="M532 1647l-10 28l516 189l13 -33zM236 0v1556h26l967 -1415v1395h41v-1556h-27l-967 1413v-1393h-40z" />
    <glyph glyph-name="nacute" unicode="&#x144;" horiz-adv-x="1224" 
d="M459 1266l-15 26l377 219l17 -28zM958.5 1020q88.5 -88 88.5 -234v-786h-82v788q0 127 -70 205t-184 78q-131 0 -252 -90t-187 -236v-745h-82v1087h64l14 -288q70 139 195 224t264 85q143 0 231.5 -88z" />
    <glyph glyph-name="uni0145" unicode="&#x145;" horiz-adv-x="1505" 
d="M811 -160.5q20 -27.5 20 -83.5q0 -70 -34.5 -133t-94.5 -100l-16 20q51 33 82 88.5t33 110.5q-18 -18 -51 -18q-31 0 -50.5 19t-19.5 50q0 33 20.5 53.5t53.5 20.5q37 0 57 -27.5zM236 0v1556h26l967 -1415v1395h41v-1556h-27l-967 1413v-1393h-40z" />
    <glyph glyph-name="uni0146" unicode="&#x146;" horiz-adv-x="1224" 
d="M667.5 -160.5q20.5 -27.5 20.5 -83.5q0 -70 -35 -133t-94 -100l-16 20q51 33 81.5 88.5t32.5 110.5q-18 -18 -51 -18q-31 0 -50 19t-19 50q0 33 20.5 53.5t52.5 20.5q37 0 57.5 -27.5zM958.5 1020q88.5 -88 88.5 -234v-786h-82v788q0 127 -70 205t-184 78
q-131 0 -252 -90t-187 -236v-745h-82v1087h64l14 -288q70 139 195 224t264 85q143 0 231.5 -88z" />
    <glyph glyph-name="Ncaron" unicode="&#x147;" horiz-adv-x="1505" 
d="M1055 1858l14 -17l-309 -219l-309 219l14 17l295 -183zM236 0v1556h26l967 -1415v1395h41v-1556h-27l-967 1413v-1393h-40z" />
    <glyph glyph-name="ncaron" unicode="&#x148;" horiz-adv-x="1224" 
d="M868 1509l15 -16l-271 -238l-268 238l14 16l254 -200zM958.5 1020q88.5 -88 88.5 -234v-786h-82v788q0 127 -70 205t-184 78q-131 0 -252 -90t-187 -236v-745h-82v1087h64l14 -288q70 139 195 224t264 85q143 0 231.5 -88z" />
    <glyph glyph-name="Eng" unicode="&#x14a;" horiz-adv-x="1505" 
d="M1270 1536v-1524q0 -133 -56.5 -214t-166.5 -144l-11 20q96 57 144.5 131t48.5 195l-953 1393v-1393h-40v1556h26l967 -1415v1395h41z" />
    <glyph glyph-name="eng" unicode="&#x14b;" horiz-adv-x="1224" 
d="M958.5 1020q88.5 -88 88.5 -234v-843q0 -158 -62.5 -252t-177.5 -162l-10 20q82 55 125 150.5t43 222.5v866q0 127 -70 205t-184 78q-131 0 -252 -90t-187 -236v-745h-82v1087h68l10 -286q70 139 195 223t264 84q143 0 231.5 -88z" />
    <glyph glyph-name="Omacron" unicode="&#x14c;" horiz-adv-x="1794" 
d="M627 1681v33h540v-33h-540zM1561.5 355.5q-95.5 -179.5 -267.5 -277.5t-397 -98t-398 98t-268.5 277.5t-95.5 412.5t95.5 412.5t268.5 277.5t398 98t397 -98t267.5 -277.5t95.5 -412.5t-95.5 -412.5zM314 373q83 -172 234.5 -266.5t348.5 -94.5t347.5 94.5t233.5 266.5
t83 395t-83 395t-233.5 266.5t-347.5 94.5t-348.5 -94.5t-234.5 -266.5t-83 -395t83 -395z" />
    <glyph glyph-name="omacron" unicode="&#x14d;" horiz-adv-x="1247" 
d="M354 1374v33h541v-33h-541zM1069.5 248q-63.5 -127 -178.5 -197.5t-266 -70.5q-150 0 -265.5 70.5t-179 197.5t-63.5 295t63.5 296t179 198.5t265.5 70.5q152 0 266.5 -70.5t178 -198.5t63.5 -296t-63.5 -295zM256 265q53 -120 148.5 -186.5t220.5 -66.5t220 66.5
t147 186.5t52 278t-52 278.5t-147 187t-220 66.5t-220.5 -66.5t-148.5 -187.5t-53 -278q0 -158 53 -278z" />
    <glyph glyph-name="Ohungarumlaut" unicode="&#x150;" horiz-adv-x="1794" 
d="M1001 1976l21 -28l-453 -312l-16 25zM1413 1976l21 -28l-453 -312l-16 25zM1561.5 355.5q-95.5 -179.5 -267.5 -277.5t-397 -98t-398 98t-268.5 277.5t-95.5 412.5t95.5 412.5t268.5 277.5t398 98t397 -98t267.5 -277.5t95.5 -412.5t-95.5 -412.5zM314 373
q83 -172 234.5 -266.5t348.5 -94.5t347.5 94.5t233.5 266.5t83 395t-83 395t-233.5 266.5t-347.5 94.5t-348.5 -94.5t-234.5 -266.5t-83 -395t83 -395z" />
    <glyph glyph-name="ohungarumlaut" unicode="&#x151;" horiz-adv-x="1247" 
d="M721 1567l22 -25l-309 -307l-20 22zM1077 1567l23 -25l-309 -307l-21 22zM1069.5 248q-63.5 -127 -178.5 -197.5t-266 -70.5q-150 0 -265.5 70.5t-179 197.5t-63.5 295t63.5 296t179 198.5t265.5 70.5q152 0 266.5 -70.5t178 -198.5t63.5 -296t-63.5 -295zM256 265
q53 -120 148.5 -186.5t220.5 -66.5t220 66.5t147 186.5t52 278t-52 278.5t-147 187t-220 66.5t-220.5 -66.5t-148.5 -187.5t-53 -278q0 -158 53 -278z" />
    <glyph glyph-name="OE" unicode="&#x152;" horiz-adv-x="2146" 
d="M2036 33v-33h-723v133q-84 -72 -196.5 -112.5t-225.5 -40.5q-223 0 -394 98t-266.5 277.5t-95.5 412.5t95.5 412.5t266.5 277.5t394 98q115 0 227.5 -44t194.5 -117v141h706v-33h-618v-674h526v-32h-526v-764h635zM1121.5 56q111.5 42 191.5 114v1190q-76 74 -187.5 118
t-224.5 44q-199 0 -350.5 -94.5t-235.5 -265.5t-84 -394t84 -394t235.5 -265.5t350.5 -94.5q109 0 220.5 42z" />
    <glyph glyph-name="oe" unicode="&#x153;" horiz-adv-x="2095" 
d="M1133 563v-20q0 -156 53 -276t148.5 -186.5t219.5 -66.5q96 0 198.5 36t170.5 95l12 -16q-72 -68 -177 -108.5t-212 -40.5q-174 0 -295 105t-161 286q-41 -182 -165 -286.5t-300 -104.5q-150 0 -265.5 70.5t-179 197.5t-63.5 295t63.5 296t179 198.5t265.5 70.5
q176 0 300 -104.5t165 -286.5q41 180 161.5 285.5t292.5 105.5q135 0 238.5 -67.5t161 -190.5t57.5 -283v-4h-868zM845 78.5q95 66.5 147 186.5t52 278t-52 278.5t-147 187t-220 66.5t-220.5 -66.5t-148.5 -187.5t-53 -278q0 -158 53 -278t148.5 -186.5t220.5 -66.5
t220 66.5zM1339.5 1015.5q-90.5 -59.5 -143.5 -168t-61 -251.5h778q0 143 -46 251.5t-129 168t-194 59.5q-114 0 -204.5 -59.5z" />
    <glyph glyph-name="Racute" unicode="&#x154;" horiz-adv-x="1234" 
d="M367 1647l-11 28l516 189l13 -33zM1186 0h-113l-747 737h-4v-737h-86v1536h352q147 0 258.5 -49t173 -139.5t61.5 -208.5q0 -119 -61.5 -210t-173 -141.5t-258.5 -50.5h-154zM578 770q182 0 294.5 101.5t112.5 267.5q0 164 -112.5 264t-294.5 100h-256v-733h256z" />
    <glyph glyph-name="racute" unicode="&#x155;" horiz-adv-x="774" 
d="M301 1266l-14 26l377 219l16 -28zM452.5 996q122.5 91 270.5 91v-32q-147 0 -271 -98.5t-180 -260.5v-696h-82v1087h64l14 -333q62 151 184.5 242z" />
    <glyph glyph-name="uni0156" unicode="&#x156;" horiz-adv-x="1234" 
d="M716.5 -160.5q20.5 -27.5 20.5 -83.5q0 -70 -34.5 -133t-94.5 -100l-16 20q51 33 82 88.5t33 110.5q-18 -18 -52 -18q-31 0 -50 19t-19 50q0 33 20.5 53.5t52.5 20.5q37 0 57.5 -27.5zM1186 0h-113l-747 737h-4v-737h-86v1536h352q147 0 258.5 -49t173 -139.5
t61.5 -208.5q0 -119 -61.5 -210t-173 -141.5t-258.5 -50.5h-154zM578 770q182 0 294.5 101.5t112.5 267.5q0 164 -112.5 264t-294.5 100h-256v-733h256z" />
    <glyph glyph-name="uni0157" unicode="&#x157;" horiz-adv-x="774" 
d="M288.5 -160.5q20.5 -27.5 20.5 -83.5q0 -70 -34.5 -133t-94.5 -100l-16 20q51 33 81.5 88.5t33.5 110.5q-18 -18 -52 -18q-31 0 -50 19t-19 50q0 33 20.5 53.5t52.5 20.5q37 0 57.5 -27.5zM452.5 996q122.5 91 270.5 91v-32q-147 0 -271 -98.5t-180 -260.5v-696h-82v1087
h64l14 -333q62 151 184.5 242z" />
    <glyph glyph-name="Rcaron" unicode="&#x158;" horiz-adv-x="1234" 
d="M891 1858l14 -17l-309 -219l-309 219l14 17l295 -183zM1186 0h-113l-747 737h-4v-737h-86v1536h352q147 0 258.5 -49t173 -139.5t61.5 -208.5q0 -119 -61.5 -210t-173 -141.5t-258.5 -50.5h-154zM578 770q182 0 294.5 101.5t112.5 267.5q0 164 -112.5 264t-294.5 100
h-256v-733h256z" />
    <glyph glyph-name="rcaron" unicode="&#x159;" horiz-adv-x="774" 
d="M711 1509l14 -16l-270 -238l-269 238l15 16l254 -200zM452.5 996q122.5 91 270.5 91v-32q-147 0 -271 -98.5t-180 -260.5v-696h-82v1087h64l14 -333q62 151 184.5 242z" />
    <glyph glyph-name="Sacute" unicode="&#x15a;" horiz-adv-x="1097" 
d="M317 1647l-10 28l516 189l13 -33zM928.5 177q-56.5 -95 -156.5 -146t-227 -51q-137 0 -255 59t-192 160l21 20q70 -92 181.5 -148.5t231.5 -56.5q160 0 261.5 99.5t101.5 259.5q0 111 -50 186.5t-122 121.5t-197 107q-121 57 -193.5 104.5t-121.5 123.5t-49 184
q0 109 49 189.5t133 123.5t191 43q111 0 210 -46t170 -128l-16 -16q-63 70 -158.5 113t-189.5 43q-133 0 -216 -83t-83 -214q0 -96 46 -164t113.5 -111t184.5 -100q129 -63 206 -113.5t130 -133.5t53 -206q0 -125 -56.5 -220z" />
    <glyph glyph-name="sacute" unicode="&#x15b;" horiz-adv-x="991" 
d="M348 1266l-14 26l377 219l16 -28zM787.5 62.5q-111.5 -82.5 -289.5 -82.5q-123 0 -228.5 40.5t-175.5 110.5l15 19q66 -61 168 -98.5t208 -37.5q145 0 238.5 69t93.5 179q0 74 -44 123t-109.5 78t-176.5 63q-119 37 -190.5 69t-120.5 89t-49 145q0 129 103.5 204
t254.5 75q106 0 196.5 -38t154.5 -103l-13 -17q-66 57 -151.5 90t-173.5 33q-125 0 -207 -62.5t-82 -164.5q0 -72 44 -120t106.5 -74.5t175.5 -63.5q119 -37 191.5 -70t122.5 -90t50 -147q0 -136 -111.5 -218.5z" />
    <glyph glyph-name="Scedilla" unicode="&#x15e;" horiz-adv-x="1097" 
d="M929.5 179q-55.5 -95 -154.5 -147t-226 -52l-39 -111q104 -4 168.5 -46t64.5 -106q0 -84 -100 -136t-262 -52l4 20q127 0 206 46.5t79 121.5q0 53 -57.5 87t-151.5 36l47 142q-127 8 -234.5 66t-175.5 151l21 20q70 -92 181.5 -148.5t231.5 -56.5q160 0 261.5 99.5
t101.5 259.5q0 111 -50 186.5t-122 121.5t-197 107q-121 57 -193.5 104.5t-121.5 123.5t-49 184q0 109 49 189.5t133 123.5t191 43q111 0 210 -46t170 -128l-16 -16q-63 70 -158.5 113t-189.5 43q-133 0 -216 -83t-83 -214q0 -96 46 -164t113.5 -111t184.5 -100
q129 -63 206 -113.5t130 -133.5t53 -206t-55.5 -218z" />
    <glyph glyph-name="scedilla" unicode="&#x15f;" horiz-adv-x="991" 
d="M788.5 63.5q-110.5 -81.5 -286.5 -83.5l-39 -111q106 -4 169.5 -46t63.5 -106q0 -84 -100 -136t-262 -52l4 20q129 0 207 46.5t78 121.5q0 53 -57.5 87t-151.5 36l47 140q-113 6 -208 46t-159 105l15 19q66 -61 168 -98.5t208 -37.5q145 0 238.5 69t93.5 179
q0 74 -44 123t-109.5 78t-176.5 63q-119 37 -190.5 69t-120.5 89t-49 145q0 129 103.5 204t254.5 75q106 0 196.5 -38t154.5 -103l-13 -17q-66 57 -151.5 90t-173.5 33q-125 0 -207 -62.5t-82 -164.5q0 -72 44 -120t106.5 -74.5t175.5 -63.5q119 -37 191.5 -70t122.5 -90
t50 -147q0 -136 -110.5 -217.5z" />
    <glyph glyph-name="Scaron" unicode="&#x160;" horiz-adv-x="1097" 
d="M842 1858l14 -17l-309 -219l-309 219l14 17l295 -183zM928.5 177q-56.5 -95 -156.5 -146t-227 -51q-137 0 -255 59t-192 160l21 20q70 -92 181.5 -148.5t231.5 -56.5q160 0 261.5 99.5t101.5 259.5q0 111 -50 186.5t-122 121.5t-197 107q-121 57 -193.5 104.5
t-121.5 123.5t-49 184q0 109 49 189.5t133 123.5t191 43q111 0 210 -46t170 -128l-16 -16q-63 70 -158.5 113t-189.5 43q-133 0 -216 -83t-83 -214q0 -96 46 -164t113.5 -111t184.5 -100q129 -63 206 -113.5t130 -133.5t53 -206q0 -125 -56.5 -220z" />
    <glyph glyph-name="scaron" unicode="&#x161;" horiz-adv-x="991" 
d="M758 1509l14 -16l-270 -238l-269 238l15 16l254 -200zM787.5 62.5q-111.5 -82.5 -289.5 -82.5q-123 0 -228.5 40.5t-175.5 110.5l15 19q66 -61 168 -98.5t208 -37.5q145 0 238.5 69t93.5 179q0 74 -44 123t-109.5 78t-176.5 63q-119 37 -190.5 69t-120.5 89t-49 145
q0 129 103.5 204t254.5 75q106 0 196.5 -38t154.5 -103l-13 -17q-66 57 -151.5 90t-173.5 33q-125 0 -207 -62.5t-82 -164.5q0 -72 44 -120t106.5 -74.5t175.5 -63.5q119 -37 191.5 -70t122.5 -90t50 -147q0 -136 -111.5 -218.5z" />
    <glyph glyph-name="uni0162" unicode="&#x162;" horiz-adv-x="1247" 
d="M645 0l-45 -131q104 -4 169 -46t65 -106q0 -84 -100.5 -136t-264.5 -52l4 20q129 0 208 46.5t79 121.5q0 53 -57.5 87t-151.5 36l53 160h-22v1503h-549v33h1181v-33h-546v-1503h-23z" />
    <glyph glyph-name="uni0163" unicode="&#x163;" horiz-adv-x="749" 
d="M371 18l-52 -149q106 -4 170 -46t64 -106q0 -84 -100.5 -136t-262.5 -52l5 20q127 0 205.5 46.5t78.5 121.5q0 53 -57 87t-152 36l68 205q-43 37 -66.5 94.5t-23.5 128.5v787h-205v32h205l61 343h21v-343h385v-32h-385v-791q0 -113 60.5 -181.5t156.5 -68.5
q51 0 100 18.5t80 47.5l12 -14q-39 -39 -99 -62.5t-122 -23.5q-81 -1 -147 38z" />
    <glyph glyph-name="Tcaron" unicode="&#x164;" horiz-adv-x="1247" 
d="M918 1858l14 -17l-309 -219l-310 219l15 17l295 -183zM1214 1503h-546v-1503h-86v1503h-549v33h1181v-33z" />
    <glyph glyph-name="tcaron" unicode="&#x165;" horiz-adv-x="749" 
d="M532 1186l-28 8l90 414l33 -9zM739 66q-39 -39 -99 -62.5t-122 -23.5q-121 0 -195.5 78.5t-74.5 209.5v787h-205v32h205l61 343h21v-343h385v-32h-385v-791q0 -113 60.5 -181.5t156.5 -68.5q51 0 100 18.5t80 47.5z" />
    <glyph glyph-name="Tbar" unicode="&#x166;" horiz-adv-x="1271" 
d="M680 1503v-696h305v-33h-305v-774h-88v774h-305v33h305v696h-547v33h1182v-33h-547z" />
    <glyph glyph-name="tbar" unicode="&#x167;" horiz-adv-x="790" 
d="M764 66q-39 -39 -99.5 -62.5t-121.5 -23.5q-121 0 -196 78.5t-75 209.5v322h-204v33h204v432h-204v32h204l62 343h20v-343h385v-32h-385v-432h379v-33h-379v-326q0 -113 60.5 -181.5t156.5 -68.5q51 0 100.5 18.5t80.5 47.5z" />
    <glyph glyph-name="Umacron" unicode="&#x16a;" horiz-adv-x="1492" 
d="M502 1681v33h540v-33h-540zM1210.5 253q-65.5 -130 -186.5 -201.5t-279 -71.5t-277.5 71.5t-185 202.5t-65.5 303v979h86v-983q0 -160 55.5 -281.5t156.5 -189.5t235 -68q145 0 254.5 66.5t170 189.5t60.5 283v983h41v-983q0 -170 -65.5 -300z" />
    <glyph glyph-name="umacron" unicode="&#x16b;" horiz-adv-x="1204" 
d="M322 1374v33h540v-33h-540zM1014 1087v-1087h-64l-14 279q-68 -135 -189.5 -217t-259.5 -82q-139 0 -224 85t-85 226v796h82v-798q0 -123 67.5 -198t178.5 -75q127 0 244.5 87t181.5 229v755h82z" />
    <glyph glyph-name="Uring" unicode="&#x16e;" horiz-adv-x="1492" 
d="M908.5 1672q-52.5 -48 -138.5 -48t-138 49t-52 129t53 129t137 49q86 0 138.5 -49t52.5 -129q0 -82 -52.5 -130zM663 1697q42 -40 107 -40q68 0 109 40t41 105q0 66 -41 106t-109 40q-66 0 -107.5 -41t-41.5 -105q0 -65 42 -105zM1210.5 253q-65.5 -130 -186.5 -201.5
t-279 -71.5t-277.5 71.5t-185 202.5t-65.5 303v979h86v-983q0 -160 55.5 -281.5t156.5 -189.5t235 -68q145 0 254.5 66.5t170 189.5t60.5 283v983h41v-983q0 -170 -65.5 -300z" />
    <glyph glyph-name="uring" unicode="&#x16f;" horiz-adv-x="1204" 
d="M728 1276q-52 -49 -138 -49q-84 0 -137.5 49t-53.5 129q0 82 53.5 131t137.5 49q86 0 138 -49t52 -131q0 -80 -52 -129zM482 1300.5q42 -40.5 108 -40.5q68 0 108.5 39.5t40.5 105.5t-41 106.5t-108 40.5q-66 0 -108 -41t-42 -106q0 -64 42 -104.5zM1014 1087v-1087h-64
l-14 279q-68 -135 -189.5 -217t-259.5 -82q-139 0 -224 85t-85 226v796h82v-798q0 -123 67.5 -198t178.5 -75q127 0 244.5 87t181.5 229v755h82z" />
    <glyph glyph-name="Uhungarumlaut" unicode="&#x170;" horiz-adv-x="1492" 
d="M874 1976l21 -28l-453 -312l-16 25zM1286 1976l21 -28l-453 -312l-16 25zM1210.5 253q-65.5 -130 -186.5 -201.5t-279 -71.5t-277.5 71.5t-185 202.5t-65.5 303v979h86v-983q0 -160 55.5 -281.5t156.5 -189.5t235 -68q145 0 254.5 66.5t170 189.5t60.5 283v983h41v-983
q0 -170 -65.5 -300z" />
    <glyph glyph-name="uhungarumlaut" unicode="&#x171;" horiz-adv-x="1204" 
d="M688 1567l23 -25l-310 -307l-20 22zM1044 1567l23 -25l-309 -307l-21 22zM1014 1087v-1087h-64l-14 279q-68 -135 -189.5 -217t-259.5 -82q-139 0 -224 85t-85 226v796h82v-798q0 -123 67.5 -198t178.5 -75q127 0 244.5 87t181.5 229v755h82z" />
    <glyph glyph-name="Uogonek" unicode="&#x172;" horiz-adv-x="1492" 
d="M1276 1536v-983q0 -213 -99.5 -359.5t-273.5 -193.5q-115 -51 -185.5 -135t-70.5 -168q0 -59 38 -96t101 -37q74 0 123 22l6 -20q-29 -18 -67.5 -27.5t-77.5 -9.5q-88 0 -142.5 45t-54.5 121q0 80 60.5 156.5t165.5 130.5q-16 -2 -54 -2q-158 0 -277.5 71.5t-185 202.5
t-65.5 303v979h86v-983q0 -160 55.5 -281.5t156.5 -189.5t235 -68q145 0 254.5 66.5t170 189.5t60.5 283v983h41z" />
    <glyph glyph-name="uogonek" unicode="&#x173;" horiz-adv-x="1204" 
d="M1026 -434q-29 -18 -67.5 -27.5t-77.5 -9.5q-88 0 -142.5 45t-54.5 121q0 88 72.5 170t193.5 135l-14 279q-68 -135 -189.5 -217t-259.5 -82q-139 0 -224 85t-85 226v796h82v-798q0 -123 67.5 -198t178.5 -75q127 0 244.5 87t181.5 229v755h82v-1087
q-115 -51 -185.5 -135t-70.5 -168q0 -59 38 -96t101 -37q74 0 123 22z" />
    <glyph glyph-name="Wcircumflex" unicode="&#x174;" horiz-adv-x="1865" 
d="M659 1622l-14 16l309 220l310 -220l-15 -16l-295 182zM1774 1536l-422 -1556h-31l-385 1398l-375 -1398h-33l-438 1556h92l387 -1393l373 1413h35l383 -1413l371 1393h43z" />
    <glyph glyph-name="wcircumflex" unicode="&#x175;" horiz-adv-x="1525" 
d="M532 1255l-14 17l268 237l271 -237l-15 -17l-256 201zM1460 1087l-358 -1107h-23l-313 974l-315 -974h-23l-360 1107h90l307 -948l313 969h27l311 -969l307 948h37z" />
    <glyph glyph-name="Ycircumflex" unicode="&#x176;" horiz-adv-x="1402" 
d="M422 1622l-14 16l309 220l309 -220l-14 -16l-295 182zM756 690v-690h-86v690l-588 846h104l551 -803l525 803h47z" />
    <glyph glyph-name="ycircumflex" unicode="&#x177;" horiz-adv-x="1081" 
d="M315 1255l-14 17l268 237l271 -237l-15 -17l-256 201zM1028 1087l-657 -1542h-41l194 457l-465 1085h88l422 -983l418 983h41z" />
    <glyph glyph-name="Ydieresis" unicode="&#x178;" horiz-adv-x="1402" 
d="M564.5 1696.5q-15.5 -15.5 -42.5 -15.5t-43 15.5t-16 42.5t16.5 42t42.5 15q27 0 42.5 -15.5t15.5 -41.5q0 -27 -15.5 -42.5zM955.5 1696.5q-15.5 -15.5 -42.5 -15.5t-43 15.5t-16 42.5t16.5 42t42.5 15q27 0 42.5 -15.5t15.5 -41.5q0 -27 -15.5 -42.5zM756 690v-690h-86
v690l-588 846h104l551 -803l525 803h47z" />
    <glyph glyph-name="Zacute" unicode="&#x179;" horiz-adv-x="1150" 
d="M362 1647l-10 28l516 189l13 -33zM49 0v16l924 1487h-858v33h966v-18l-925 -1485h925v-33h-1032z" />
    <glyph glyph-name="zacute" unicode="&#x17a;" horiz-adv-x="948" 
d="M338 1266l-14 26l376 219l17 -28zM55 0v16l721 1039h-678v32h781v-16l-721 -1038h721v-33h-824z" />
    <glyph glyph-name="Zdotaccent" unicode="&#x17b;" horiz-adv-x="1150" 
d="M631.5 1697.5q-17.5 -16.5 -43.5 -16.5q-27 0 -44.5 16.5t-17.5 43.5q0 29 16.5 45t45.5 16q27 0 44 -16.5t17 -44.5q0 -27 -17.5 -43.5zM49 0v16l924 1487h-858v33h966v-18l-925 -1485h925v-33h-1032z" />
    <glyph glyph-name="zdotaccent" unicode="&#x17c;" horiz-adv-x="948" 
d="M533.5 1426.5q-17.5 -17.5 -44.5 -17.5q-29 0 -45 17.5t-16 43.5q0 27 16.5 43.5t44.5 16.5q29 0 45.5 -16.5t16.5 -43.5q0 -26 -17.5 -43.5zM55 0v16l721 1039h-678v32h781v-16l-721 -1038h721v-33h-824z" />
    <glyph glyph-name="Zcaron" unicode="&#x17d;" horiz-adv-x="1150" 
d="M885 1858l14 -17l-309 -219l-309 219l14 17l295 -183zM49 0v16l924 1487h-858v33h966v-18l-925 -1485h925v-33h-1032z" />
    <glyph glyph-name="zcaron" unicode="&#x17e;" horiz-adv-x="948" 
d="M748 1509l14 -16l-270 -238l-269 238l15 16l254 -200zM55 0v16l721 1039h-678v32h781v-16l-721 -1038h721v-33h-824z" />
    <glyph glyph-name="florin" unicode="&#x192;" horiz-adv-x="1085" 
d="M917.5 1528.5q59.5 -27.5 94.5 -72.5l-15 -16q-33 39 -85 60.5t-109 21.5q-100 0 -160.5 -69t-60.5 -181v-443h333v-32h-333v-527q0 -129 -83 -209.5t-214 -80.5q-63 0 -124 27.5t-95 72.5l14 16q33 -37 86 -59.5t108 -22.5q100 0 161 69t61 181v533h-291v32h291v437
q0 131 83 210.5t216 79.5q63 0 122.5 -27.5z" />
    <glyph glyph-name="uni0218" unicode="&#x218;" horiz-adv-x="1097" 
d="M589.5 -160.5q20.5 -27.5 20.5 -83.5q0 -70 -34.5 -133t-94.5 -100l-16 20q51 33 82 88.5t33 110.5q-18 -18 -52 -18q-31 0 -50 19t-19 50q0 33 20.5 53.5t52.5 20.5q37 0 57.5 -27.5zM928.5 177q-56.5 -95 -156.5 -146t-227 -51q-137 0 -255 59t-192 160l21 20
q70 -92 181.5 -148.5t231.5 -56.5q160 0 261.5 99.5t101.5 259.5q0 111 -50 186.5t-122 121.5t-197 107q-121 57 -193.5 104.5t-121.5 123.5t-49 184q0 109 49 189.5t133 123.5t191 43q111 0 210 -46t170 -128l-16 -16q-63 70 -158.5 113t-189.5 43q-133 0 -216 -83
t-83 -214q0 -96 46 -164t113.5 -111t184.5 -100q129 -63 206 -113.5t130 -133.5t53 -206q0 -125 -56.5 -220z" />
    <glyph glyph-name="uni0219" unicode="&#x219;" horiz-adv-x="991" 
d="M544.5 -160.5q20.5 -27.5 20.5 -83.5q0 -70 -34.5 -133t-94.5 -100l-16 20q51 33 81.5 88.5t33.5 110.5q-18 -18 -52 -18q-31 0 -50 19t-19 50q0 33 20.5 53.5t52.5 20.5q37 0 57.5 -27.5zM787.5 62.5q-111.5 -82.5 -289.5 -82.5q-123 0 -228.5 40.5t-175.5 110.5l15 19
q66 -61 168 -98.5t208 -37.5q145 0 238.5 69t93.5 179q0 74 -44 123t-109.5 78t-176.5 63q-119 37 -190.5 69t-120.5 89t-49 145q0 129 103.5 204t254.5 75q106 0 196.5 -38t154.5 -103l-13 -17q-66 57 -151.5 90t-173.5 33q-125 0 -207 -62.5t-82 -164.5q0 -72 44 -120
t106.5 -74.5t175.5 -63.5q119 -37 191.5 -70t122.5 -90t50 -147q0 -136 -111.5 -218.5z" />
    <glyph glyph-name="uni021A" unicode="&#x21a;" horiz-adv-x="1247" 
d="M679.5 -160.5q20.5 -27.5 20.5 -83.5q0 -70 -34.5 -133t-94.5 -100l-16 20q51 33 82 88.5t33 110.5q-18 -18 -52 -18q-31 0 -50 19t-19 50q0 33 20.5 53.5t53.5 20.5q36 0 56.5 -27.5zM1214 1503h-546v-1503h-86v1503h-549v33h1181v-33z" />
    <glyph glyph-name="uni021B" unicode="&#x21b;" horiz-adv-x="749" 
d="M382.5 -160.5q20.5 -27.5 20.5 -83.5q0 -70 -34.5 -133t-94.5 -100l-16 20q51 33 82 88.5t33 110.5q-18 -18 -51 -18q-31 0 -50.5 19t-19.5 50q0 33 20.5 53.5t53.5 20.5q36 0 56.5 -27.5zM739 66q-39 -39 -99 -62.5t-122 -23.5q-121 0 -195.5 78.5t-74.5 209.5v787h-205
v32h205l61 343h21v-343h385v-32h-385v-791q0 -113 60.5 -181.5t156.5 -68.5q51 0 100 18.5t80 47.5z" />
    <glyph glyph-name="uni0237" unicode="&#x237;" horiz-adv-x="471" 
d="M218.5 -309q-62.5 -94 -177.5 -162l-10 20q82 55 125 149.5t43 221.5v1167h82v-1144q0 -158 -62.5 -252z" />
    <glyph glyph-name="circumflex" unicode="&#x2c6;" horiz-adv-x="1228" 
d="M272 1206l-14 17l268 237l271 -237l-15 -17l-256 201z" />
    <glyph glyph-name="caron" unicode="&#x2c7;" horiz-adv-x="1228" 
d="M784 1460l15 -16l-271 -238l-268 238l14 16l254 -200z" />
    <glyph glyph-name="breve" unicode="&#x2d8;" horiz-adv-x="1228" 
d="M599 1287q-69 -54 -148 -54q-78 0 -148 55t-102 144l20 10q35 -78 97 -125t133 -47q70 0 133 47t98 125l20 -10q-34 -91 -103 -145z" />
    <glyph glyph-name="dotaccent" unicode="&#x2d9;" horiz-adv-x="1228" 
d="M263 1426q-17 -17 -44 -17q-29 0 -45 17t-16 44t16 43t45 17q29 0 45 -17q16 -16 17 -43q-1 -27 -18 -44z" />
    <glyph glyph-name="ring" unicode="&#x2da;" horiz-adv-x="1228" 
d="M529 1227q-52 -49 -138 -49q-84 0 -137 49t-53 129q0 82 53 131t137 49q86 0 138 -49t53 -131q-1 -80 -53 -129zM284 1251q42 -41 107 -41q68 0 109 40t41 106t-41 106q-41 41 -109 41q-66 0 -107 -41q-42 -41 -42 -106q0 -64 42 -105z" />
    <glyph glyph-name="ogonek" unicode="&#x2db;" horiz-adv-x="1228" 
d="M414 -462q-39 -9 -78 -9q-88 0 -142 45t-55 121q0 94 84 182t221 139l25 -16q-115 -51 -185 -135q-71 -84 -71 -168q0 -59 38 -96t101 -37q74 0 123 22l6 -20q-28 -19 -67 -28z" />
    <glyph glyph-name="tilde" unicode="&#x2dc;" horiz-adv-x="1228" 
d="M256 1270l-20 10q49 145 172 145q43 0 74 -18q32 -18 73 -53q37 -31 63 -46q27 -15 60 -16q88 0 139 125l23 -12q-18 -63 -62 -105q-43 -41 -110 -40q-43 0 -75 18t-73 53q-37 31 -63 46q-27 15 -60 16q-92 0 -141 -123z" />
    <glyph glyph-name="hungarumlaut" unicode="&#x2dd;" horiz-adv-x="1228" 
d="M614 1518l23 -25l-309 -307l-21 22zM971 1518l22 -25l-309 -307l-20 22z" />
    <glyph glyph-name="gravecomb" unicode="&#x300;" 
d="M-215 1217l-379 217l16 28l377 -219z" />
    <glyph glyph-name="acutecomb" unicode="&#x301;" 
d="M-590 1217l-14 26l377 219l16 -28z" />
    <glyph glyph-name="uni0302" unicode="&#x302;" 
d="M-782 1206l-15 17l269 237l270 -237l-14 -17l-256 201z" />
    <glyph glyph-name="tildecomb" unicode="&#x303;" 
d="M-819 1270l-21 10q49 145 172 145q43 0 75 -18t73 -53q37 -31 63.5 -46.5t59.5 -15.5q88 0 139 125l22 -12q-18 -63 -61 -104t-111 -41q-43 0 -74.5 18t-72.5 53q-37 31 -63.5 46.5t-59.5 15.5q-92 0 -141 -123z" />
    <glyph glyph-name="uni0304" unicode="&#x304;" 
d="M-739 1325v33h540v-33h-540z" />
    <glyph glyph-name="uni0306" unicode="&#x306;" 
d="M-302 1287q-69 -54 -149 -54q-78 0 -147.5 55t-101.5 144l20 10q35 -78 97.5 -125t131.5 -47q70 0 133.5 47t98.5 125l20 -10q-34 -91 -103 -145z" />
    <glyph glyph-name="uni0307" unicode="&#x307;" 
d="M-173 1426.5q-17 -17.5 -44 -17.5q-29 0 -45.5 17.5t-16.5 43.5q0 27 16.5 43.5t45.5 16.5t45 -16.5t16 -43.5q0 -26 -17 -43.5z" />
    <glyph glyph-name="uni0308" unicode="&#x308;" 
d="M-605.5 1379.5q-15.5 -15.5 -41.5 -15.5q-27 0 -43.5 15.5t-16.5 41.5q0 27 16.5 42.5t43.5 15.5t42 -15.5t15 -42.5q0 -26 -15.5 -41.5zM-214 1379.5q-15 -15.5 -42 -15.5t-43 15.5t-16 41.5q0 27 16 42.5t43 15.5t42 -15.5t15 -42.5q0 -26 -15 -41.5z" />
    <glyph glyph-name="uni030A" unicode="&#x30a;" 
d="M-255 1227q-52 -49 -138 -49q-84 0 -137.5 49t-53.5 129q0 82 53.5 131t137.5 49q86 0 138 -49t52 -131q0 -80 -52 -129zM-501 1251q42 -41 108 -41q68 0 108.5 40t40.5 106t-41 106.5t-108 40.5q-66 0 -108 -41t-42 -106q0 -64 42 -105z" />
    <glyph glyph-name="uni030B" unicode="&#x30b;" 
d="M-614 1518l22 -25l-309 -307l-21 22zM-258 1518l22 -25l-309 -307l-20 22z" />
    <glyph glyph-name="uni030C" unicode="&#x30c;" 
d="M-428 1460l14 -16l-270 -238l-268 238l14 16l254 -200z" />
    <glyph glyph-name="uni0312" unicode="&#x312;" 
d="M-177.5 1360.5q19.5 -21.5 19.5 -53.5q0 -35 -20.5 -56.5t-52.5 -21.5q-37 0 -57.5 30.5t-20.5 90.5q0 94 35.5 184t93.5 141l16 -20q-51 -49 -83 -130t-32 -163q20 20 52 20q30 0 49.5 -21.5z" />
    <glyph glyph-name="uni0326" unicode="&#x326;" 
d="M-178.5 -160.5q20.5 -27.5 20.5 -83.5q0 -70 -34.5 -133t-94.5 -100l-16 20q51 33 82 88.5t33 110.5q-18 -18 -52 -18q-31 0 -50 19t-19 50q0 33 20.5 53.5t52.5 20.5q37 0 57.5 -27.5z" />
    <glyph glyph-name="uni0327" unicode="&#x327;" 
d="M-201.5 -177q64.5 -42 64.5 -106q0 -84 -100.5 -136t-262.5 -52l4 20q127 0 206 46.5t79 121.5q0 53 -57.5 87t-151.5 36l58 174l36 -14l-45 -131q105 -4 169.5 -46z" />
    <glyph glyph-name="uni0328" unicode="&#x328;" 
d="M-209 -462q-39 -9 -78 -9q-88 0 -142 45t-54 121q0 94 84 182t221 139l24 -16q-115 -51 -185.5 -135t-70.5 -168q0 -59 38 -96t102 -37q74 0 123 22l6 -20q-29 -19 -68 -28z" />
    <glyph glyph-name="uni0335" unicode="&#x335;" 
d="M-963 725v33h697v-33h-697z" />
    <glyph glyph-name="uni0336" unicode="&#x336;" 
d="M-1511 1110v33h1312v-33h-1312z" />
    <glyph glyph-name="uni0337" unicode="&#x337;" 
d="M-379 702v11l-207 -142l-20 29l227 156v-11l207 144l20 -29z" />
    <glyph glyph-name="uni0338" unicode="&#x338;" 
d="M-893 -90l-29 20l844 1194l29 -20z" />
    <glyph glyph-name="uni0394" unicode="&#x394;" horiz-adv-x="1417" 
d="M1341 23v-23h-1265v18l616 1538h27zM1243 35l-561 1386l-557 -1386h1118z" />
    <glyph glyph-name="uni03A9" unicode="&#x3a9;" horiz-adv-x="1660" 
d="M1485 680q-45 -102 -107.5 -178t-160.5 -172q-102 -102 -148.5 -165t-46.5 -132h483v-33h-524v33q0 82 45 151.5t139 173.5q86 94 139.5 165t91.5 168t38 216q0 182 -75 321.5t-212 215.5t-318 76q-180 0 -316 -76t-211 -215t-75 -322q0 -119 38 -216t91.5 -168.5
t137.5 -164.5q94 -104 139 -173.5t45 -151.5v-33h-522v33h481q0 70 -46 132t-149 165q-98 98 -159.5 173t-106.5 177t-45 227q0 193 87 340.5t246 228t365 80.5q207 0 367 -80.5t247 -228t87 -340.5q0 -125 -45 -227z" />
    <glyph glyph-name="uni03BC" unicode="&#x3bc;" horiz-adv-x="1204" 
d="M1026 1087v-796q0 -141 -85 -226t-224 -85q-135 0 -256 79.5t-189 210.5v-721h-82v1538h82v-755q66 -141 183.5 -228.5t244.5 -87.5q109 0 176.5 75t67.5 198v798h82z" />
    <glyph glyph-name="pi" unicode="&#x3c0;" horiz-adv-x="1372" 
d="M1055 1055v-885q0 -72 34.5 -115t90.5 -43q43 0 100 13l4 -17q-57 -29 -115 -28q-88 0 -142 55t-54 141v879h-596v-1055h-82v1055h-254v32h1268v-32h-254z" />
    <glyph glyph-name="Wgrave" unicode="&#x1e80;" horiz-adv-x="1865" 
d="M1184 1647l-516 184l12 33l514 -189zM1774 1536l-422 -1556h-31l-385 1398l-375 -1398h-33l-438 1556h92l387 -1393l373 1413h35l383 -1413l371 1393h43z" />
    <glyph glyph-name="wgrave" unicode="&#x1e81;" horiz-adv-x="1525" 
d="M938 1266l-379 217l16 28l377 -219zM1460 1087l-358 -1107h-23l-313 974l-315 -974h-23l-360 1107h90l307 -948l313 969h27l311 -969l307 948h37z" />
    <glyph glyph-name="Wacute" unicode="&#x1e82;" horiz-adv-x="1865" 
d="M727 1647l-10 28l516 189l12 -33zM1774 1536l-422 -1556h-31l-385 1398l-375 -1398h-33l-438 1556h92l387 -1393l373 1413h35l383 -1413l371 1393h43z" />
    <glyph glyph-name="wacute" unicode="&#x1e83;" horiz-adv-x="1525" 
d="M633 1266l-15 26l377 219l17 -28zM1460 1087l-358 -1107h-23l-313 974l-315 -974h-23l-360 1107h90l307 -948l313 969h27l311 -969l307 948h37z" />
    <glyph glyph-name="Wdieresis" unicode="&#x1e84;" horiz-adv-x="1865" 
d="M803.5 1696.5q-15.5 -15.5 -41.5 -15.5q-27 0 -43.5 15.5t-16.5 42.5t16.5 42t43.5 15t42 -15.5t15 -41.5q0 -27 -15.5 -42.5zM1195 1696.5q-15 -15.5 -42 -15.5t-43 15.5t-16 42.5t16 42t43 15t42 -15.5t15 -41.5q0 -27 -15 -42.5zM1774 1536l-422 -1556h-31l-385 1398
l-375 -1398h-33l-438 1556h92l387 -1393l373 1413h35l383 -1413l371 1393h43z" />
    <glyph glyph-name="wdieresis" unicode="&#x1e85;" horiz-adv-x="1525" 
d="M633.5 1428.5q-15.5 -15.5 -41.5 -15.5q-27 0 -43.5 15.5t-16.5 41.5q0 27 16.5 42.5t43.5 15.5t42 -15.5t15 -42.5q0 -26 -15.5 -41.5zM1025 1428.5q-15 -15.5 -42 -15.5t-43 15.5t-16 41.5q0 27 16 42.5t43 15.5t42 -15.5t15 -42.5q0 -26 -15 -41.5zM1460 1087
l-358 -1107h-23l-313 974l-315 -974h-23l-360 1107h90l307 -948l313 969h27l311 -969l307 948h37z" />
    <glyph glyph-name="uni1E9E" unicode="&#x1e9e;" horiz-adv-x="1517" 
d="M1180.5 746.5q105.5 -62.5 163 -154.5t57.5 -201q0 -123 -58.5 -216t-164 -144t-244.5 -51q-92 0 -191.5 36.5t-171.5 96.5l17 22q68 -55 160 -88t178 -33q170 0 274.5 104.5t104.5 272.5q0 106 -58.5 195.5t-166 150t-249.5 78.5l410 688h-919v-1503h-86v1536h1118v-16
l-418 -691q139 -20 244.5 -82.5z" />
    <glyph glyph-name="Ygrave" unicode="&#x1ef2;" horiz-adv-x="1402" 
d="M946 1647l-516 184l12 33l514 -189zM756 690v-690h-86v690l-588 846h104l551 -803l525 803h47z" />
    <glyph glyph-name="ygrave" unicode="&#x1ef3;" horiz-adv-x="1081" 
d="M723 1266l-379 217l16 28l377 -219zM1028 1087l-657 -1542h-41l194 457l-465 1085h88l422 -983l418 983h41z" />
    <glyph glyph-name="endash" unicode="&#x2013;" horiz-adv-x="1161" 
d="M166 557v33h829v-33h-829z" />
    <glyph glyph-name="emdash" unicode="&#x2014;" horiz-adv-x="1509" 
d="M166 557v33h1177v-33h-1177z" />
    <glyph glyph-name="quoteleft" unicode="&#x2018;" horiz-adv-x="440" 
d="M278.5 1243.5q20.5 -22.5 20.5 -59.5t-22.5 -59.5t-57.5 -22.5q-39 0 -60.5 31.5t-21.5 93.5q0 96 38 186t97 143l17 -20q-53 -49 -86 -130t-33 -161q25 20 55 21q33 0 53.5 -22.5z" />
    <glyph glyph-name="quoteright" unicode="&#x2019;" horiz-adv-x="432" 
d="M287.5 1525.5q21.5 -30.5 21.5 -93.5q0 -96 -38 -187.5t-99 -142.5l-14 20q53 49 85.5 130t32.5 163q-23 -23 -55 -22q-33 0 -53.5 22.5t-20.5 59.5t23 59t57 22q39 0 60.5 -30.5z" />
    <glyph glyph-name="quotesinglbase" unicode="&#x201a;" horiz-adv-x="415" 
d="M265 113q22 -31 22 -95q0 -96 -38 -187t-99 -142l-15 20q53 49 86 130t33 163q-23 -23 -55 -22q-33 0 -54 22q-20 23 -20 59q0 37 22 60q23 23 58 22q38 1 60 -30z" />
    <glyph glyph-name="quotedblleft" unicode="&#x201c;" horiz-adv-x="696" 
d="M279 1243q20 -23 20 -59q0 -37 -23 -60t-57 -22q-39 0 -60 32q-22 32 -22 93q0 96 38 186t97 143l17 -20q-53 -49 -86 -130t-33 -161q25 20 55 21q34 0 54 -23zM537 1243q20 -23 20 -59q0 -37 -22 -60q-23 -23 -58 -22q-39 0 -60 32q-22 32 -22 93q0 96 38 186t97 143
l17 -20q-53 -49 -86 -130t-33 -161q25 20 55 21q34 0 54 -23z" />
    <glyph glyph-name="quotedblright" unicode="&#x201d;" horiz-adv-x="688" 
d="M287.5 1525.5q21.5 -30.5 21.5 -93.5q0 -96 -38 -187.5t-99 -142.5l-14 20q53 49 85.5 130t32.5 163q-23 -23 -55 -22q-33 0 -53.5 22.5t-20.5 59.5t23 59t57 22q39 0 60.5 -30.5zM543.5 1525.5q21.5 -30.5 21.5 -93.5q0 -94 -38 -185.5t-97 -144.5l-16 20
q53 49 85.5 129t35.5 164q-23 -23 -56 -22q-35 0 -55.5 22.5t-20.5 59.5t23 59t57 22q39 0 60.5 -30.5z" />
    <glyph glyph-name="quotedblbase" unicode="&#x201e;" horiz-adv-x="671" 
d="M263 113q22 -31 22 -95q0 -96 -38 -187t-100 -142l-14 20q53 49 86 130t33 163q-23 -23 -55 -22q-33 0 -54 22q-20 23 -20 59q0 37 22 60q23 23 58 22q38 1 60 -30zM519 113q22 -31 22 -95q0 -94 -38 -185t-97 -144l-17 20q53 49 86 129t35 164q-23 -23 -55 -22
q-35 0 -56 22q-20 23 -20 59q0 37 22 60q23 23 58 22q38 1 60 -30z" />
    <glyph glyph-name="dagger" unicode="&#x2020;" horiz-adv-x="700" 
d="M575 1440h-204v-498h-41v498h-205v33h205v268h41v-268h204v-33z" />
    <glyph glyph-name="daggerdbl" unicode="&#x2021;" horiz-adv-x="733" 
d="M387 1495v-307h205v-33h-205v-213h-41v213h-205v33h205v307h-205v33h205v213h41v-213h205v-33h-205z" />
    <glyph glyph-name="bullet" unicode="&#x2022;" horiz-adv-x="700" 
d="M446.5 639q-36.5 -37 -96.5 -37q-59 0 -96 37t-37 98t37 99t96 38t96 -37.5t37 -99.5q0 -61 -36.5 -98z" />
    <glyph glyph-name="ellipsis" unicode="&#x2026;" horiz-adv-x="1351" 
d="M1175 2q-22 -23 -57 -22q-35 0 -57 22q-23 23 -23 59q0 37 23 60t57 22q35 0 57 -22q22 -23 21 -60q1 -36 -21 -59zM734 2q-22 -23 -56 -22q-35 0 -57 22q-23 23 -23 59q0 37 23 60t57 22q35 0 56 -22q22 -23 22 -60q0 -36 -22 -59zM292 2q-22 -23 -56 -22q-35 0 -58 22
q-23 23 -22 59q0 37 22 60q23 23 58 22q35 0 56 -22q22 -23 21 -60q1 -36 -21 -59z" />
    <glyph glyph-name="perthousand" unicode="&#x2030;" horiz-adv-x="2496" 
d="M2364 195q-38 -98 -107 -153q-70 -54 -160 -54q-137 0 -221 120t-84 314q0 195 84 314q84 120 221 120q90 0 160 -54t107 -153q38 -98 38 -227t-38 -227zM1929 124q63 -114 168 -114q102 0 167 114t65 298t-65 298t-167 114q-104 0 -168 -113q-63 -113 -63 -299
q0 -184 63 -298zM673 885q-38 -98 -108 -153q-70 -54 -159 -54q-137 0 -222 120q-84 120 -84 314q0 195 84 314q84 120 222 120q90 0 159 -54q70 -54 108 -153q38 -98 38 -227t-38 -227zM238 814q63 -114 168 -114q102 0 166 114q65 114 65 298t-65 298t-166 114
q-104 0 -168 -113q-63 -113 -64 -299q1 -184 64 -298zM365 0l983 1536h41l-983 -1536h-41zM1615 195q-38 -98 -108 -153q-70 -54 -159 -54q-137 0 -222 120q-84 120 -84 314q0 195 84 314q84 120 222 120q90 0 159 -54q70 -54 108 -153q38 -98 38 -227t-38 -227zM1180 124
q63 -114 168 -114q102 0 166 114q65 114 65 298t-65 298t-166 114q-104 0 -168 -113q-63 -113 -64 -299q1 -184 64 -298z" />
    <glyph glyph-name="guilsinglleft" unicode="&#x2039;" horiz-adv-x="585" 
d="M111 567v13l307 387l20 -13l-254 -381l254 -380l-20 -13z" />
    <glyph glyph-name="guilsinglright" unicode="&#x203a;" horiz-adv-x="585" 
d="M147 193l254 380l-254 381l21 13l307 -387v-13l-307 -387z" />
    <glyph glyph-name="fraction" unicode="&#x2044;" horiz-adv-x="225" 
d="M-401 0l983 1536h41l-983 -1536h-41z" />
    <glyph glyph-name="lira" unicode="&#x20a4;" horiz-adv-x="1191" 
d="M1112 698q0 -207 -92 -365.5t-259 -245.5t-386 -87h-86v819l-176 -47v35l176 47v225l-176 -47v35l176 47v422h86v-399l487 131v-35l-487 -131v-225l487 131v-35l-487 -131v-809q207 0 365.5 83t248.5 234.5t94 347.5h29z" />
    <glyph glyph-name="Euro" unicode="&#x20ac;" horiz-adv-x="1445" 
d="M1348 199q-78 -98 -206 -158.5t-261 -60.5q-164 0 -296 76.5t-217 217t-112 328.5h-170v33h166q-6 66 -6 133q0 35 4 96h-164v33h166q20 199 104 348.5t218.5 230t304.5 80.5q127 0 248.5 -56t197.5 -150l-16 -19q-70 86 -185.5 138.5t-234.5 52.5q-145 0 -262 -77
t-189.5 -218.5t-91.5 -329.5h565v-33h-567q-4 -61 -4 -96q0 -68 6 -133h565v-33h-561q25 -178 98.5 -311t186.5 -205t254 -72q123 0 245.5 57.5t196.5 149.5z" />
    <glyph glyph-name="uni20B1" unicode="&#x20b1;" horiz-adv-x="1337" 
d="M1253 1167h-172q10 -61 11 -114q0 -53 -11 -115h172v-33h-180q-43 -156 -168 -245t-305 -89h-227v-571h-86v905h-178v33h178v229h-178v33h178v336h313q180 0 306 -90t167 -246h180v-33zM373 1200h604q-37 141 -140.5 222t-248.5 81h-215v-303zM985 1167h-612v-229h612
q10 61 10 115q0 53 -10 114zM836.5 685q103.5 81 140.5 220h-604v-301h215q145 0 248.5 81z" />
    <glyph glyph-name="uni20B9" unicode="&#x20b9;" horiz-adv-x="1087" 
d="M1006 1503h-574q180 -41 284.5 -136t110.5 -228h179v-33h-179q-8 -166 -154.5 -274.5t-385.5 -126.5l481 -705h-104l-500 733h16q160 0 283 46t193.5 131t74.5 196h-567v33h567q-4 109 -74.5 191.5t-193.5 127.5t-283 45h-16v33h842v-33z" />
    <glyph glyph-name="uni20BD" unicode="&#x20bd;" horiz-adv-x="1218" 
d="M377 694v-229h487v-33h-487v-432h-86v432h-178v33h178v229h-178v33h178v809h334q152 0 268.5 -52t180 -148.5t63.5 -221.5t-63.5 -220t-180.5 -147.5t-268 -52.5h-248zM987 1318q-53 89 -150.5 137t-224.5 48h-235v-776h235q127 0 224.5 48t150.5 136t53 203t-53 204z
" />
    <glyph glyph-name="uni20BF" unicode="&#x20bf;" horiz-adv-x="1212" 
d="M991.5 152.5q-106.5 -109.5 -286.5 -140.5v-217h-41v211q-45 -6 -99 -6h-114v-205h-41v205h-174v1536h174v205h41v-205h114q57 0 99 -8v213h41v-221q137 -31 216.5 -123t79.5 -221q0 -137 -81.5 -232.5t-221.5 -128.5q184 -29 292 -133t108 -258q0 -162 -106.5 -271.5z
M808 1412q-97 91 -253 91h-233v-674h233q158 0 254 95.5t96 251.5q0 145 -97 236zM789.5 81q101.5 48 156.5 137t55 206q0 111 -55 196t-156.5 131t-234.5 46h-233v-764h233q133 0 234.5 48z" />
    <glyph glyph-name="trademark" unicode="&#x2122;" horiz-adv-x="1480" 
d="M1237 922l-43 491l-223 -502h-19l-227 510l-45 -499h-25l58 624h22l248 -551l244 551h22l56 -624h-68zM76 1536h493v-20h-215v-594h-65v594h-213v20z" />
    <glyph glyph-name="oneeighth" unicode="&#x215b;" horiz-adv-x="1609" 
d="M1441 369q58 -61 58 -152q0 -102 -81 -166q-81 -63 -214 -63q-131 0 -211 63t-80 166q0 90 59 152q58 61 156 80q-82 16 -130 69t-48 131q0 94 70 151q70 56 184 56q115 0 186 -56t70 -151q0 -78 -48 -131t-130 -69q101 -19 159 -80zM1075 511q49 -52 129 -52
q82 0 131 52t49 138q0 84 -49 134t-131 51q-80 0 -129 -52q-49 -51 -49 -133q0 -86 49 -138zM1363 67q60 56 60 150q0 98 -60 159q-60 60 -159 60q-96 0 -156 -60t-61 -159q0 -94 61 -150q60 -56 156 -57q99 1 159 57zM233 0l984 1536h40l-983 -1536h-41zM438 1546v-856h-69
v797l-293 -168l-10 18l356 209h16z" />
    <glyph glyph-name="threeeighths" unicode="&#x215c;" horiz-adv-x="1677" 
d="M1521 369q58 -61 58 -152q0 -102 -81 -166q-81 -63 -214 -63q-131 0 -211 63t-80 166q0 90 59 152q58 61 156 80q-82 16 -130 69t-48 131q0 94 70 151q70 56 184 56q115 0 185 -56q71 -56 71 -151q0 -78 -48 -131t-130 -69q101 -19 159 -80zM1155 511q49 -52 129 -52
q82 0 131 52t49 138q0 84 -49 134t-131 51q-80 0 -129 -52q-49 -51 -49 -133q0 -86 49 -138zM1443 67q60 56 60 150q0 98 -60 159q-60 60 -159 60q-96 0 -157 -60q-60 -60 -60 -159q0 -94 60 -150t157 -57q99 1 159 57zM311 0l983 1536h41l-983 -1536h-41zM581 1063
q67 -61 66 -154q0 -104 -80 -168q-80 -63 -211 -63q-74 0 -146 32q-73 32 -122 81l12 16q45 -47 110 -74t130 -26q104 0 169 56t64 148q0 96 -71 156q-72 59 -189 59h-24v23h14q106 0 171 54t65 145q0 78 -53 125q-52 47 -136 47q-51 0 -111 -24t-102 -58l-12 12
q45 43 111 70t124 26q113 0 183 -53t69 -141q0 -84 -56 -141q-56 -56 -155 -72q113 -15 180 -76z" />
    <glyph glyph-name="fiveeighths" unicode="&#x215d;" horiz-adv-x="1660" 
d="M1504 369q58 -61 59 -152q0 -102 -81 -166q-81 -63 -214 -63q-131 0 -211 63t-80 166q0 90 58 152q58 61 157 80q-82 16 -130 69t-48 131q0 94 69 151q70 56 185 56t185 -56q71 -56 71 -151q0 -78 -48 -131t-130 -69q100 -19 158 -80zM1139 511q49 -52 129 -52
q82 0 131 52t49 138q0 84 -49 134t-131 51q-80 0 -129 -52q-49 -51 -49 -133q0 -86 49 -138zM1426 67q60 56 61 150q0 98 -61 159q-60 60 -158 60q-96 0 -157 -60q-60 -60 -60 -159q0 -94 60 -150t157 -57q98 1 158 57zM297 0l983 1536h41l-983 -1536h-41zM561 1146
q78 -75 78 -196q0 -123 -81 -197q-81 -75 -214 -75q-78 0 -145 32q-68 32 -103 83l13 14q33 -45 93 -73t126 -27q106 0 172 67q66 68 65 176q0 109 -62 176q-62 68 -165 68q-43 0 -93 -15t-91 -40l-9 14l52 383h407v-23h-342l-45 -321q74 29 139 29q127 0 205 -75z" />
    <glyph glyph-name="seveneighths" unicode="&#x215e;" horiz-adv-x="1599" 
d="M1435 369q58 -61 58 -152q0 -102 -81 -166q-81 -63 -214 -63q-131 0 -211 63t-80 166q0 90 59 152q58 61 156 80q-82 16 -130 69t-48 131q0 94 70 151q70 56 184 56q115 0 185 -56q71 -56 71 -151q0 -78 -48 -131t-130 -69q101 -19 159 -80zM1069 511q49 -52 129 -52
q82 0 131 52t49 138q0 84 -49 134t-131 51q-80 0 -129 -52q-49 -51 -49 -133q0 -86 49 -138zM1357 67q60 56 60 150q0 98 -60 159q-60 60 -159 60q-96 0 -157 -60q-60 -60 -60 -159q0 -94 60 -150t157 -57q99 1 159 57zM225 0l983 1536h41l-983 -1536h-41zM618 1536v-12
l-354 -834h-74l351 823h-469v23h546z" />
    <glyph glyph-name="partialdiff" unicode="&#x2202;" horiz-adv-x="1251" 
d="M697.5 1445q199.5 -140 308 -363.5t108.5 -497.5q0 -180 -64.5 -316.5t-181 -212t-270.5 -75.5q-150 0 -263.5 58t-176 165.5t-62.5 247.5q0 131 58.5 231t165 155.5t245.5 55.5q133 0 255 -62.5t198 -166.5q-16 248 -118.5 447.5t-275.5 326.5t-397 159l6 21
q265 -33 464.5 -173zM819 83q96 71 148.5 199t52.5 296v26q-72 115 -192.5 184.5t-247.5 69.5q-174 0 -280.5 -112.5t-106.5 -296.5q0 -129 50 -228.5t142 -154t213 -54.5q125 0 221 71z" />
    <glyph glyph-name="emptyset" unicode="&#x2205;" horiz-adv-x="1488" 
d="M1176 1014q68 -80 104.5 -188.5t36.5 -235.5q0 -182 -71.5 -320.5t-202 -214t-302.5 -75.5q-123 0 -226 39.5t-179 115.5l-166 -174l-33 31l168 176q-68 80 -104.5 187.5t-36.5 234.5q0 182 71.5 320.5t202.5 214t303 75.5q123 0 226.5 -40t177.5 -113l168 174l30 -33z
M334 197l784 819q-70 74 -166 112.5t-211 38.5q-158 0 -278.5 -71.5t-187 -202.5t-66.5 -303q0 -235 125 -393zM1147 983l-785 -819q147 -152 379 -152q158 0 278 72t186.5 203t66.5 303q0 235 -125 393z" />
    <glyph glyph-name="product" unicode="&#x220f;" horiz-adv-x="1636" 
d="M1567 1565h-240v-2016h-86v2016h-844v-2016h-86v2016h-239v32h1495v-32z" />
    <glyph glyph-name="summation" unicode="&#x2211;" horiz-adv-x="1173" 
d="M72 -451v17l559 1048l-539 967v16h998v-32h-897l536 -951l-557 -1032h938v-33h-1038z" />
    <glyph glyph-name="minus" unicode="&#x2212;" horiz-adv-x="970" 
d="M127 557v33h717v-33h-717z" />
    <glyph glyph-name="radical" unicode="&#x221a;" horiz-adv-x="1388" 
d="M1405 1597l-881 -2050h-35l-469 1090h97l415 -971l832 1931h41z" />
    <glyph glyph-name="infinity" unicode="&#x221e;" horiz-adv-x="1677" 
d="M1433.5 834.5q98.5 -95.5 98.5 -250.5q0 -156 -98.5 -251t-259.5 -95q-125 0 -214.5 62t-121.5 169q-33 -106 -122 -168.5t-214 -62.5q-162 0 -260.5 95t-98.5 251t98.5 251t260.5 95q125 0 214 -62.5t122 -169.5q33 106 122 169t214 63q161 0 259.5 -95.5zM729 356
q86 86 86 228q0 141 -86 227t-227 86t-227.5 -86t-86.5 -227t86 -227.5t228 -86.5q141 0 227 86zM1401 356q86 86 86 228q0 141 -86 227t-227 86t-227.5 -86t-86.5 -227t86 -227.5t228 -86.5q141 0 227 86z" />
    <glyph glyph-name="integral" unicode="&#x222b;" horiz-adv-x="915" 
d="M419 -391q-83 -80 -216 -80q-63 0 -123 27.5t-94 72.5l14 17q31 -37 84 -59.5t109 -22.5q100 0 160.5 67.5t60.5 182.5v1513q0 131 83 211t216 80q63 0 122.5 -27.5t94.5 -72.5l-15 -17q-31 37 -84 59.5t-110 22.5q-100 0 -159.5 -67.5t-59.5 -182.5v-1513
q0 -131 -83 -211z" />
    <glyph glyph-name="approxequal" unicode="&#x2248;" horiz-adv-x="970" 
d="M51 666q0 102 62 165q61 63 161 64q66 0 114 -29t110 -84q61 -53 104 -79t103 -25q84 0 136 54t52 142h29q0 -102 -62 -165q-61 -63 -162 -64q-66 0 -113 29q-48 29 -110 84q-61 53 -104 79t-103 25q-84 0 -136 -54t-52 -142h-29zM51 301q0 102 62 166q61 63 161 63
q66 0 114 -28q48 -29 110 -84q61 -53 104 -79t103 -26q84 0 136 55q52 54 52 142h29q0 -102 -62 -166q-61 -63 -162 -63q-66 0 -113 28q-48 29 -110 84q-61 53 -104 79t-103 26q-84 0 -136 -55q-52 -54 -52 -142h-29z" />
    <glyph glyph-name="notequal" unicode="&#x2260;" horiz-adv-x="970" 
d="M580 705l-142 -263h406v-32h-424l-121 -222h-41l121 222h-252v32h270l142 263h-412v32h430l121 221h41l-121 -221h246v-32h-264z" />
    <glyph glyph-name="lessequal" unicode="&#x2264;" horiz-adv-x="970" 
d="M125 729l711 209v-37l-643 -188l643 -189v-37l-711 209v33zM125 264h717v-33h-717v33z" />
    <glyph glyph-name="greaterequal" unicode="&#x2265;" horiz-adv-x="970" 
d="M135 487v37l643 189l-643 188v37l711 -209v-33zM129 231v33h717v-33h-717z" />
    <glyph glyph-name="lozenge" unicode="&#x25ca;" horiz-adv-x="1064" 
d="M961 666l-414 -666h-29l-414 666l414 665h29zM918 666l-386 618l-385 -618l385 -619z" />
    <glyph glyph-name="uni261E" unicode="&#x261e;" horiz-adv-x="5521" 
d="M109 324l192 90q27 10 33 10t20.5 -6t34.5 -6l320 137q20 10 36 10q12 0 19 -2q18 -6 50 5t110 50q6 2 19 11.5t28 7.5q35 -2 78 8q41 8 63 8q10 0 82 27q14 4 65.5 22.5t73.5 20.5q37 2 86 33l41 20q23 8 41 8q14 0 28.5 -3t26.5 -3q14 0 21 2q23 6 53.5 9t40.5 10
q23 10 44.5 25.5t31.5 15.5q12 0 49 -15q18 27 43 27q10 0 36 -7.5t40 -7.5t33 7q53 18 266 78.5t252 68.5l45 8l33 21l217 88q14 6 22 -2q49 -49 99.5 -84t126.5 -76l372 -201l21 -18q6 -8 16 -8l1032 -4q20 0 29.5 7t21 11t44.5 2l276 -12l57 -8l70 4l434 -4l78 -4l-4 -97
l-39 -4l-573 2q-8 0 -13.5 2t-3.5 10l-305 5q-33 0 -45 7t-35 7l-975 10l27 -35q12 -16 50 -68t48 -71q96 -197 96 -262l-2 -8q-45 -29 -59 -29q-6 0 -23.5 5t-33.5 9l-47 7q-16 2 -71.5 10t-74.5 18l-80 62l21 -72q31 -98 30 -115q0 -10 -6 -15t-14 -11l-25 -25
q-20 -20 -36 -20q-10 0 -23 6l-76 63l-67 8q-59 6 -80 50l-62 110q-4 8 -9 13.5t-13 5.5q-10 0 -78 7t-121 7q45 0 -51 -3t-205.5 -6t-181.5 -3q-27 0 -81 14t-90 26.5t-52 16.5q-111 39 -150 45h-6q-14 0 -28.5 -11t-22.5 -16q-35 -14 -61.5 -20t-43.5 -10
q-35 -12 -47 -21.5t-22 -23.5q-10 -23 -45 -45q-8 -4 -19 -4l-37 2q-39 0 -65 -27q-53 -53 -75.5 -71.5t-51.5 -32t-100 -35.5q-16 -6 -42 -11.5t-40 -19.5q-10 -10 -35 -23.5t-35 -17.5q-109 -51 -131 -90q-20 -37 -46 -50.5t-89 -27.5l-109 -76l-170 -100
q-61 -53 -94 -70.5t-113 -36.5q-25 4 -59 52q-61 80 -125.5 206.5t-108 256t-43.5 215.5q1 25 46 45zM3447 212q51 -7 74 -7q-55 20 -76 33.5t-43 35.5q-33 33 -72 62q-6 4 -8 10t0 8l33 -12q45 -45 116.5 -93t143.5 -63l-168 250q-4 6 -15 56q-57 63 -143 102l-14 -2
l98 -74l47 -45l-2 -6q-113 102 -254 186q-18 12 -27.5 21.5t-11.5 25.5q-2 12 -7 16.5t-19 6.5l-43 6l-39 33l-86 45l-23 18l-112 56q-4 2 -19.5 8t-30.5 0l-159 -64l-52 -4q-70 -27 -100 -53q-2 2 -2 6q0 12 12 19q33 18 64 28t78 13l151 61q16 4 23 4q25 0 50 -11
t50 -26.5t39 -23.5l172 -80l78 -56l14 -16l125 -78q8 8 47 -20.5t80 -69.5t55 -67l150 -250q6 -12 10 -13l21 9q12 4 15 10t1 20q-20 94 -56 167t-90.5 145.5t-164.5 203.5q-213 94 -378 190.5t-204 162.5l-270 -115q-150 -27 -480 -135q-12 -4 -61 -20.5t-74 -16.5
q-16 0 -30 8q-6 -35 -19 -84q-23 -74 -24 -151l-9 -209h-4l-8 55q-2 27 -14 27q-4 0 -25 -9q-14 -4 -19 -17t-3 -26l6 -41l-4 -2l-17 35q-14 -14 -21 -18t-18 -2q-57 10 -65 10q-20 0 -35 -8l-121 -76q-18 -12 -18 -31q0 -8 2 -16t2 -16q0 -14 -14 -23l-160 -84
q-33 -18 -98 -45q-53 -18 -138 -70q-4 -4 -12 -4q-6 0 -11 5.5t-7 9.5q-4 4 -9 4q-6 0 -11 -4t-5 -9q0 -10 -6 -15t-19 -9q-68 -33 -79 -41q-154 -76 -260.5 -132.5t-165.5 -92.5q-14 -10 -15 8l53 33l-6 6q-29 0 -69 -17q-29 -12 -41 -12q-20 0 -35 23q-49 76 -123 270
l-41 125q-25 63 -24 117q0 14 4 19t18 5q4 -59 11 -99t26 -81q10 -25 20 -64q2 -23 13 -47q47 -143 116 -245q4 -6 11 -7q4 0 12 4.5t14 6.5l72 14q4 2 12 2q16 0 19 -16l102 57l305 147q10 6 28.5 13.5t30 16.5t17.5 24q2 8 14 8q8 0 26.5 -4t29.5 2l368 186q16 8 17 21
q0 6 -4.5 18t-4.5 19q0 12 13 20l98 61q33 23 56.5 35.5t41.5 12.5q14 0 52 -11q4 -2 10 -2q18 0 18 25q0 37 -4 70q-4 41 -4 104q0 74 2 133l8 70q-27 -12 -47 -19.5t-44.5 -13.5t-45.5 -10q-41 -10 -53 -11q-25 0 -43 19l-25 -21l-176 -208l-6 2l25 49l124 145
q-27 -14 -49 -18l-47 -8q-33 -12 -94 -31q-98 -29 -121 -45q-10 -8 -24 -8l-25 2q-20 0 -35.5 -6.5t-21.5 -6.5l-47 6l-78 -38q-47 -23 -76 -35.5t-39 -12.5q-8 0 -20 7l-9 2q-8 0 -16 -15q-2 -6 -4 -18t-6 -19q-18 -35 -23.5 -78.5t-15.5 -197.5q-14 35 -14 98
q0 57 10 117.5t26 91.5q-45 -14 -217 -88q-104 -47 -112 -47q-10 0 -27.5 9t-24.5 5l-239 -112q16 -141 96 -324.5t221 -400.5l68 43l-62 90l9 6l73 -86q59 23 75.5 31t27.5 22q135 80 192.5 117t77.5 55q16 16 66 33q35 10 55 21.5t33 35.5q16 33 87.5 74t221.5 102
q84 31 127 55.5t67 65.5q63 41 129 54q31 6 48 34q8 14 18 21.5t33 9.5q20 2 40.5 10t53.5 25l76 35q10 4 26 4q14 0 38 -8.5t42 -14.5l125 -39q-2 6 -2 29q0 39 10 90q2 8 4.5 19.5t5.5 14.5t11 3q-12 -57 -12 -96t10 -60q6 -12 17.5 -17t23.5 -6t18 -3q-8 16 -19 35.5
t-14.5 34t-3.5 38.5q0 23 4 72q6 41 7 82l6 4l2 -21q10 29 23.5 47.5t33.5 32.5l-211 -2q-20 0 -51 -12t-43 -12q-23 0 -39 37q-6 12 -6 30q0 23 8 42.5t25 27.5q12 6 22 6q12 0 22.5 -7t27 -26.5t28.5 -19.5l819 10l-2 4l-96 19q-4 4 -1 9t9 5q76 0 152 -29
q29 -10 39 -26.5t14 -18.5q10 -4 40 -10t42 -14l131 -109l-2 -4l-94 72q-4 2 -14.5 10t-19.5 11t-22 3l-159 6q4 -4 13 -15t13 -21q4 -12 25 -13h10q14 0 21 -6l178 -80q45 -4 101 -31.5t56 -44.5q0 -29 -15 -61.5t-38 -48.5q57 -45 88 -72q27 -25 41 -35q17 -10 68 -17z
M1837 823q-10 0 -41 -30q-6 -6 -16 -7q-16 0 -25 9q-12 12 -16 12q-6 0 -17 -8q10 -12 11 -35l-2 -27q-4 -66 -5 -159q0 -102 5 -136q18 14 33.5 18.5t19.5 8.5t6 23l25 256l24 75h-2zM4835 690l4 17l-333 10q-6 0 -10.5 -5t-4.5 -10zM5394 623q8 0 11.5 3t5.5 11l8 53
l-465 -6q-35 0 -59.5 1t-46.5 7l-9 -63zM4481 659.5q-2 -16.5 4 -16.5l340 -8l2 29l-340 12q-4 0 -6 -16.5zM2865 631q-12 31 -45 24l57 -57zM2200 444q0 -31 10 -49t53 -73l25 -9h487q57 -4 90 -8l62 -6l143 -12v4l-262 53l-80 10q-18 6 -33 6q-14 0 -27.5 -6t-17.5 -6
q-10 0 -18 14q-4 10 -17 11q-6 0 -18 -2t-17 8l-276 29l-10 8l10 8q12 4 23 4q12 0 29.5 -3t27.5 -5l166 -23q6 -2 20.5 -7t40.5 -5q27 0 43.5 -6t28.5 -6q10 0 24.5 2t26.5 0l236 -53q61 -14 103 -23.5t58 -9.5q20 0 39 12q61 39 84 60.5t33 56.5q2 4 2 10q0 16 -12 25
q-27 23 -59.5 32t-92.5 19l-53 10l-193 8q-27 0 -45 15.5t-49 50.5q-43 49 -47 53q-8 10 -13 12t-11.5 2h-8.5h-407q-27 0 -51.5 -37.5t-24.5 -74.5q0 -80 26.5 -126t86.5 -79l4 -4l-6 -2q-14 0 -47 14q-37 18 -53.5 60.5t-26.5 105.5q-6 -43 -6 -68zM2880.5 614.5
q11.5 -28.5 7.5 -36.5l-78 69l31 -55l-5 -2q-4 6 -15 17t-15 22q-8 18 -15.5 21t-40.5 3l50 -57q10 -14 37.5 -26.5t39.5 -18.5l29 37q4 10 0 18q-12 29 -39 47q2 -10 13.5 -38.5zM2888 547q147 -20 217 -21l-129 58q-14 6 -29.5 10t-21.5 -2zM1817 453q0 2 8 47l10 47
l10 14l-14 -108q8 -4 14 2t19.5 25.5t21.5 33.5q10 12 27 12q18 0 29 -14q12 -16 18 -26.5t10 -13.5t10 3l21 23q12 14 27 14q20 0 32 -27q6 -16 21.5 -28.5t32.5 -10.5l18 3v-7l-37 -6q-16 -4 -28.5 6.5t-22.5 40.5q-6 16 -19 17q-10 0 -20 -11q-39 -39 -51 -38
q-14 0 -17 22l-6 31q-2 10 -12 10q-6 0 -11 -3t-7 -7q-6 -10 -21.5 -32.5t-24 -27t-22.5 -4.5q-16 1 -16 13zM3181 100l67 -55q10 -6 15.5 -7t13.5 7q20 18 38.5 32.5t18.5 18.5q0 37 -33.5 127t-56.5 109l-90 -53l-94 -5q66 -74 80 -102q8 -20 28 -47zM3029 176
q4 -4 11 -21.5t18 -21.5l106 -24l-121 165l-75 2z" />
    <glyph glyph-name="uniF8FF" unicode="&#xf8ff;" horiz-adv-x="2541" 
d="M1694 -6q-14 -14 -35 -14q-27 0 -34 13t-7 34v663l-694 -696q-14 -14 -35 -14q-27 0 -34 13t-7 34v663l-696 -696q-14 -14 -35 -14q-14 0 -24.5 10t-10.5 26q0 20 10 31l701 698h-664q-47 0 -47 39q0 18 14 33l697 701h-670q-18 0 -29.5 10t-11.5 28v3q0 18 11 28t30 10
h758q20 0 33.5 -7t13.5 -34q0 -18 -17 -34l-698 -697h676q16 0 28.5 -12t12.5 -29v-669l694 692q16 16 35 16q37 0 37 -45v-663l696 692q16 16 33 16q14 0 24.5 -11t10.5 -28q0 -16 -13 -28z" />
    <glyph glyph-name="G.aalt" horiz-adv-x="1609" 
d="M1450 815v-835h-20l-56 288q-90 -129 -240.5 -208.5t-306.5 -79.5q-205 0 -360.5 98t-242.5 276t-87 412q0 236 90 415t253 277t376 98q156 0 306.5 -58t242.5 -157l-14 -16q-88 88 -232.5 142.5t-292.5 54.5q-188 0 -331.5 -94.5t-222.5 -266.5t-79 -395t75 -393
t212 -264.5t316 -94.5q147 0 293.5 79t232.5 208v514h88z" />
    <glyph glyph-name="J.aalt" horiz-adv-x="774" 
d="M354 1645l-10 28l426 156l12 -31zM471 58.5q-78 -78.5 -205 -78.5q-61 0 -118.5 21.5t-96.5 59.5l17 21q31 -31 79 -49.5t99 -18.5q98 0 157.5 69t59.5 181v1272h86v-1268q0 -131 -78 -209.5z" />
    <glyph glyph-name="W.aalt" horiz-adv-x="1828" 
d="M1755 1536l-553 -1556h-28l-261 753l-256 -753h-28l-557 1556h90l504 -1417l227 680l-254 737h92l219 -645l224 645h43l-244 -709l241 -706l498 1415h43z" />
    <glyph glyph-name="Wacute.aalt" horiz-adv-x="1828" 
d="M705 1647l-11 28l516 189l13 -33zM1755 1536l-553 -1556h-28l-261 753l-256 -753h-28l-557 1556h90l504 -1417l227 680l-254 737h92l219 -645l224 645h43l-244 -709l241 -706l498 1415h43z" />
    <glyph glyph-name="Wcircumflex.aalt" horiz-adv-x="1828" 
d="M639 1622l-14 16l309 220l309 -220l-14 -16l-295 182zM1755 1536l-553 -1556h-28l-261 753l-256 -753h-28l-557 1556h90l504 -1417l227 680l-254 737h92l219 -645l224 645h43l-244 -709l241 -706l498 1415h43z" />
    <glyph glyph-name="Wdieresis.aalt" horiz-adv-x="1828" 
d="M781.5 1696.5q-15.5 -15.5 -42.5 -15.5t-43 15.5t-16 42.5t16.5 42t42.5 15q27 0 42.5 -15.5t15.5 -41.5q0 -27 -15.5 -42.5zM1172.5 1696.5q-15.5 -15.5 -42.5 -15.5t-43 15.5t-16 42.5t16.5 42t42.5 15q27 0 42.5 -15.5t15.5 -41.5q0 -27 -15.5 -42.5zM1755 1536
l-553 -1556h-28l-261 753l-256 -753h-28l-557 1556h90l504 -1417l227 680l-254 737h92l219 -645l224 645h43l-244 -709l241 -706l498 1415h43z" />
    <glyph glyph-name="Wgrave.aalt" horiz-adv-x="1828" 
d="M1163 1647l-516 184l12 33l515 -189zM1755 1536l-553 -1556h-28l-261 753l-256 -753h-28l-557 1556h90l504 -1417l227 680l-254 737h92l219 -645l224 645h43l-244 -709l241 -706l498 1415h43z" />
    <glyph glyph-name="Y.aalt" horiz-adv-x="1392" 
d="M1333 1536l-809 -1536h-47l242 459l-613 1077h99l559 -989l522 989h47z" />
    <glyph glyph-name="Yacute.aalt" horiz-adv-x="1392" 
d="M522 1647l-10 28l516 189l12 -33zM1333 1536l-809 -1536h-47l242 459l-613 1077h99l559 -989l522 989h47z" />
    <glyph glyph-name="Ycircumflex.aalt" horiz-adv-x="1392" 
d="M455 1622l-15 16l310 220l309 -220l-15 -16l-294 182zM1333 1536l-809 -1536h-47l242 459l-613 1077h99l559 -989l522 989h47z" />
    <glyph glyph-name="Ydieresis.aalt" horiz-adv-x="1392" 
d="M599 1696.5q-15 -15.5 -42 -15.5t-43 15.5t-16 42.5t16 42t43 15t42 -15.5t15 -41.5q0 -27 -15 -42.5zM990.5 1696.5q-15.5 -15.5 -42.5 -15.5t-43 15.5t-16 42.5t16.5 42t42.5 15q27 0 42.5 -15.5t15.5 -41.5q0 -27 -15.5 -42.5zM1333 1536l-809 -1536h-47l242 459
l-613 1077h99l559 -989l522 989h47z" />
    <glyph glyph-name="Ygrave.aalt" horiz-adv-x="1392" 
d="M979 1647l-516 184l12 33l514 -189zM1333 1536l-809 -1536h-47l242 459l-613 1077h99l559 -989l522 989h47z" />
    <glyph glyph-name="a.salt" horiz-adv-x="1132" 
d="M844.5 1010.5q107.5 -97.5 107.5 -267.5v-763h-20l-53 305q-72 -139 -194 -222t-253 -83q-156 0 -249 87t-93 232q0 133 119 214t313 81h348v151q0 156 -87 242t-244 86q-98 0 -193.5 -37t-167.5 -102l-14 14q72 76 174 118t211 42q188 0 295.5 -97.5zM685 103
q116 87 185 229v229h-342q-158 0 -254 -71.5t-96 -190.5q0 -129 75 -206t196 -77q120 0 236 87z" />
    <glyph glyph-name="aacute.aalt" horiz-adv-x="1132" 
d="M424 1266l-14 26l376 219l17 -28zM844.5 1010.5q107.5 -97.5 107.5 -267.5v-763h-20l-53 305q-72 -139 -194 -222t-253 -83q-156 0 -249 87t-93 232q0 133 119 214t313 81h348v151q0 156 -87 242t-244 86q-98 0 -193.5 -37t-167.5 -102l-14 14q72 76 174 118t211 42
q188 0 295.5 -97.5zM685 103q116 87 185 229v229h-342q-158 0 -254 -71.5t-96 -190.5q0 -129 75 -206t196 -77q120 0 236 87z" />
    <glyph glyph-name="abreve.aalt" horiz-adv-x="1132" 
d="M724 1336.5q-69 -54.5 -149 -54.5q-78 0 -147.5 55.5t-101.5 143.5l20 10q35 -78 97.5 -125t131.5 -47q70 0 133.5 47t98.5 125l20 -10q-34 -90 -103 -144.5zM844.5 1010.5q107.5 -97.5 107.5 -267.5v-763h-20l-53 305q-72 -139 -194 -222t-253 -83q-156 0 -249 87
t-93 232q0 133 119 214t313 81h348v151q0 156 -87 242t-244 86q-98 0 -193.5 -37t-167.5 -102l-14 14q72 76 174 118t211 42q188 0 295.5 -97.5zM685 103q116 87 185 229v229h-342q-158 0 -254 -71.5t-96 -190.5q0 -129 75 -206t196 -77q120 0 236 87z" />
    <glyph glyph-name="acircumflex.aalt" horiz-adv-x="1132" 
d="M322 1255l-15 17l268 237l271 -237l-15 -17l-256 201zM844.5 1010.5q107.5 -97.5 107.5 -267.5v-763h-20l-53 305q-72 -139 -194 -222t-253 -83q-156 0 -249 87t-93 232q0 133 119 214t313 81h348v151q0 156 -87 242t-244 86q-98 0 -193.5 -37t-167.5 -102l-14 14
q72 76 174 118t211 42q188 0 295.5 -97.5zM685 103q116 87 185 229v229h-342q-158 0 -254 -71.5t-96 -190.5q0 -129 75 -206t196 -77q120 0 236 87z" />
    <glyph glyph-name="adieresis.aalt" horiz-adv-x="1132" 
d="M423 1428.5q-15 -15.5 -42 -15.5t-43 15.5t-16 41.5q0 27 16 42.5t43 15.5t42 -15.5t15 -42.5q0 -26 -15 -41.5zM814 1428.5q-15 -15.5 -42 -15.5t-43 15.5t-16 41.5q0 27 16 42.5t43 15.5t42 -15.5t15 -42.5q0 -26 -15 -41.5zM844.5 1010.5q107.5 -97.5 107.5 -267.5
v-763h-20l-53 305q-72 -139 -194 -222t-253 -83q-156 0 -249 87t-93 232q0 133 119 214t313 81h348v151q0 156 -87 242t-244 86q-98 0 -193.5 -37t-167.5 -102l-14 14q72 76 174 118t211 42q188 0 295.5 -97.5zM685 103q116 87 185 229v229h-342q-158 0 -254 -71.5
t-96 -190.5q0 -129 75 -206t196 -77q120 0 236 87z" />
    <glyph glyph-name="agrave.aalt" horiz-adv-x="1132" 
d="M727 1266l-379 217l17 28l376 -219zM844.5 1010.5q107.5 -97.5 107.5 -267.5v-763h-20l-53 305q-72 -139 -194 -222t-253 -83q-156 0 -249 87t-93 232q0 133 119 214t313 81h348v151q0 156 -87 242t-244 86q-98 0 -193.5 -37t-167.5 -102l-14 14q72 76 174 118t211 42
q188 0 295.5 -97.5zM685 103q116 87 185 229v229h-342q-158 0 -254 -71.5t-96 -190.5q0 -129 75 -206t196 -77q120 0 236 87z" />
    <glyph glyph-name="amacron.aalt" horiz-adv-x="1132" 
d="M307 1374v33h541v-33h-541zM844.5 1010.5q107.5 -97.5 107.5 -267.5v-763h-20l-53 305q-72 -139 -194 -222t-253 -83q-156 0 -249 87t-93 232q0 133 119 214t313 81h348v151q0 156 -87 242t-244 86q-98 0 -193.5 -37t-167.5 -102l-14 14q72 76 174 118t211 42
q188 0 295.5 -97.5zM685 103q116 87 185 229v229h-342q-158 0 -254 -71.5t-96 -190.5q0 -129 75 -206t196 -77q120 0 236 87z" />
    <glyph glyph-name="aogonek.aalt" horiz-adv-x="1132" 
d="M967 -434q-29 -18 -68 -27.5t-78 -9.5q-90 0 -143 45t-53 121q0 86 84 169t221 130l-51 291q-72 -139 -194 -222t-253 -83q-156 0 -249 87t-93 232q0 133 119 214t313 81h348v151q0 156 -87 242t-244 86q-98 0 -193.5 -37t-167.5 -102l-14 14q72 76 174 118t211 42
q188 0 295.5 -97.5t107.5 -267.5v-763q-113 -49 -183.5 -127t-70.5 -156q0 -59 38 -96t100 -37q76 0 125 22zM685 103q116 87 185 229v229h-342q-158 0 -254 -71.5t-96 -190.5q0 -129 75 -206t196 -77q120 0 236 87z" />
    <glyph glyph-name="aring.aalt" horiz-adv-x="1132" 
d="M714 1276q-52 -49 -139 -49q-84 0 -137 49t-53 129q0 82 53.5 131t136.5 49q86 0 138.5 -49t52.5 -131q0 -80 -52 -129zM468 1300.5q42 -40.5 107 -40.5q68 0 109 39.5t41 105.5t-41 106.5t-109 40.5q-66 0 -107.5 -41t-41.5 -106q0 -64 42 -104.5zM844.5 1010.5
q107.5 -97.5 107.5 -267.5v-763h-20l-53 305q-72 -139 -194 -222t-253 -83q-156 0 -249 87t-93 232q0 133 119 214t313 81h348v151q0 156 -87 242t-244 86q-98 0 -193.5 -37t-167.5 -102l-14 14q72 76 174 118t211 42q188 0 295.5 -97.5zM685 103q116 87 185 229v229h-342
q-158 0 -254 -71.5t-96 -190.5q0 -129 75 -206t196 -77q120 0 236 87z" />
    <glyph glyph-name="atilde.aalt" horiz-adv-x="1132" 
d="M295 1319l-21 10q49 145 172 146q43 0 75 -18.5t73 -53.5q37 -31 63.5 -46.5t59.5 -15.5q88 0 139 125l23 -12q-18 -63 -61.5 -104t-110.5 -41q-43 0 -75 18.5t-73 52.5q-37 31 -63.5 46.5t-59.5 15.5q-92 0 -141 -123zM844.5 1010.5q107.5 -97.5 107.5 -267.5v-763h-20
l-53 305q-72 -139 -194 -222t-253 -83q-156 0 -249 87t-93 232q0 133 119 214t313 81h348v151q0 156 -87 242t-244 86q-98 0 -193.5 -37t-167.5 -102l-14 14q72 76 174 118t211 42q188 0 295.5 -97.5zM685 103q116 87 185 229v229h-342q-158 0 -254 -71.5t-96 -190.5
q0 -129 75 -206t196 -77q120 0 236 87z" />
    <glyph glyph-name="b.aalt" horiz-adv-x="1243" 
d="M912.5 1037.5q103.5 -70.5 159.5 -198.5t56 -296t-56 -295t-159.5 -197.5t-238.5 -70.5q-139 0 -251 85t-159 224l-53 -309h-21v1617h82v-776q51 129 160 208t242 79q135 0 238.5 -70.5zM857 80.5q87 66.5 135 186.5t48 276q0 158 -48 277.5t-135 186t-200 66.5
q-125 0 -231.5 -90t-153.5 -235v-408q47 -145 153.5 -235.5t231.5 -90.5q113 0 200 66.5z" />
    <glyph glyph-name="d.aalt" horiz-adv-x="1243" 
d="M1053 1597v-1617h-21l-53 311q-47 -139 -158.5 -225t-249.5 -86q-135 0 -238.5 70.5t-159.5 197.5t-56 295t56 296t159.5 198.5t238.5 70.5q133 0 242 -79t158 -210v778h82zM817.5 104.5q106.5 90.5 153.5 235.5v408q-47 145 -153.5 235t-231.5 90q-113 0 -200 -66.5
t-135 -186.5t-48 -277q0 -156 48 -276t135 -186.5t200 -66.5q125 0 231.5 90.5z" />
    <glyph glyph-name="dcaron.aalt" horiz-adv-x="1243" 
d="M1303 1597l-97 -413l-28 8l92 414zM971 1597h82v-1617h-21l-53 311q-47 -139 -158.5 -225t-249.5 -86q-135 0 -238.5 70.5t-159.5 197.5t-56 295t56 296t159.5 198.5t238.5 70.5q133 0 242 -79t158 -210v778zM817.5 104.5q106.5 90.5 153.5 235.5v408q-47 145 -153.5 235
t-231.5 90q-113 0 -200 -66.5t-135 -186.5t-48 -277q0 -156 48 -276t135 -186.5t200 -66.5q125 0 231.5 90.5z" />
    <glyph glyph-name="dcroat.aalt" horiz-adv-x="1243" 
d="M1229 1329h-176v-1349h-21l-53 311q-47 -139 -158.5 -225t-249.5 -86q-135 0 -238.5 70.5t-159.5 197.5t-56 295t56 296t159.5 198.5t238.5 70.5q133 0 242 -79t158 -210v510h-439v33h439v235h82v-235h176v-33zM817.5 104.5q106.5 90.5 153.5 235.5v408
q-47 145 -153.5 235t-231.5 90q-113 0 -200 -66.5t-135 -186.5t-48 -277q0 -156 48 -276t135 -186.5t200 -66.5q125 0 231.5 90.5z" />
    <glyph glyph-name="g.aalt" horiz-adv-x="1243" 
d="M1053 1108v-1102q0 -143 -64.5 -250.5t-182.5 -167t-274 -59.5q-90 0 -187 36t-165 93l17 18q63 -51 155 -82.5t178 -31.5q131 0 230.5 55t155 155.5t55.5 229.5v264q-51 -129 -160 -207.5t-240 -78.5q-135 0 -238.5 70.5t-159.5 197.5t-56 295t56 296t159.5 198.5
t238.5 70.5q139 0 251 -86t157 -227l53 313h21zM817.5 104.5q106.5 90.5 153.5 235.5v408q-47 145 -153.5 235t-231.5 90q-113 0 -200 -66.5t-135 -186.5t-48 -277q0 -156 48 -276t135 -186.5t200 -66.5q125 0 231.5 90.5z" />
    <glyph glyph-name="gbreve.aalt" horiz-adv-x="1243" 
d="M783.5 1338.5q-68.5 -54.5 -148.5 -54.5q-78 0 -147.5 55.5t-102.5 143.5l21 10q35 -78 97 -125t132 -47t133 47t98 125l21 -10q-35 -90 -103.5 -144.5zM1053 1108v-1102q0 -143 -64.5 -250.5t-182.5 -167t-274 -59.5q-90 0 -187 36t-165 93l17 18q63 -51 155 -82.5
t178 -31.5q131 0 230.5 55t155 155.5t55.5 229.5v264q-51 -129 -160 -207.5t-240 -78.5q-135 0 -238.5 70.5t-159.5 197.5t-56 295t56 296t159.5 198.5t238.5 70.5q139 0 251 -86t157 -227l53 313h21zM817.5 104.5q106.5 90.5 153.5 235.5v408q-47 145 -153.5 235t-231.5 90
q-113 0 -200 -66.5t-135 -186.5t-48 -277q0 -156 48 -276t135 -186.5t200 -66.5q125 0 231.5 90.5z" />
    <glyph glyph-name="uni0123.aalt" horiz-adv-x="1243" 
d="M685.5 1362.5q19.5 -21.5 19.5 -53.5q0 -35 -20.5 -56.5t-53.5 -21.5q-37 0 -57.5 30.5t-20.5 90.5q0 94 36 184t93 141l16 -20q-51 -49 -82.5 -130t-31.5 -163q20 20 51 20t50.5 -21.5zM1053 1108v-1102q0 -143 -64.5 -250.5t-182.5 -167t-274 -59.5q-90 0 -187 36
t-165 93l17 18q63 -51 155 -82.5t178 -31.5q131 0 230.5 55t155 155.5t55.5 229.5v264q-51 -129 -160 -207.5t-240 -78.5q-135 0 -238.5 70.5t-159.5 197.5t-56 295t56 296t159.5 198.5t238.5 70.5q139 0 251 -86t157 -227l53 313h21zM817.5 104.5q106.5 90.5 153.5 235.5
v408q-47 145 -153.5 235t-231.5 90q-113 0 -200 -66.5t-135 -186.5t-48 -277q0 -156 48 -276t135 -186.5t200 -66.5q125 0 231.5 90.5z" />
    <glyph glyph-name="gdotaccent.aalt" horiz-adv-x="1243" 
d="M679 1428.5q-17 -17.5 -44 -17.5q-29 0 -45.5 17.5t-16.5 44.5t16.5 43t45.5 16t45 -16.5t16 -42.5q0 -27 -17 -44.5zM1053 1108v-1102q0 -143 -64.5 -250.5t-182.5 -167t-274 -59.5q-90 0 -187 36t-165 93l17 18q63 -51 155 -82.5t178 -31.5q131 0 230.5 55t155 155.5
t55.5 229.5v264q-51 -129 -160 -207.5t-240 -78.5q-135 0 -238.5 70.5t-159.5 197.5t-56 295t56 296t159.5 198.5t238.5 70.5q139 0 251 -86t157 -227l53 313h21zM817.5 104.5q106.5 90.5 153.5 235.5v408q-47 145 -153.5 235t-231.5 90q-113 0 -200 -66.5t-135 -186.5
t-48 -277q0 -156 48 -276t135 -186.5t200 -66.5q125 0 231.5 90.5z" />
    <glyph glyph-name="i.aalt" horiz-adv-x="462" 
d="M275.5 1426.5q-17.5 -17.5 -44.5 -17.5q-29 0 -45 17.5t-16 43.5q0 27 16.5 43.5t44.5 16.5q29 0 45.5 -16.5t16.5 -43.5q0 -26 -17.5 -43.5zM190 0v1087h82v-1087h-82z" />
    <glyph glyph-name="glyph410" horiz-adv-x="471" 
d="M104 1270l-16 24l309 213l19 -26zM218.5 -309q-62.5 -94 -177.5 -162l-10 20q82 55 125 149.5t43 221.5v1167h82v-1144q0 -158 -62.5 -252z" />
    <glyph glyph-name="m.aalt" horiz-adv-x="1957" 
d="M1694 1023q84 -85 84 -226v-797h-82v799q0 123 -67.5 197.5t-176.5 74.5q-125 0 -240.5 -85t-185.5 -228v-758h-82v799q0 123 -67.5 197.5t-176.5 74.5q-127 0 -244.5 -87t-183.5 -228v-756h-82v1108h21l55 -305q66 139 190 222t261 83q133 0 217 -79t92 -212
q68 133 188.5 212t255.5 79q140 0 224 -85z" />
    <glyph glyph-name="n.aalt" horiz-adv-x="1224" 
d="M958.5 1020q88.5 -88 88.5 -234v-786h-82v788q0 127 -70 205t-184 78q-131 0 -252 -90t-187 -236v-745h-82v1108h21l55 -315q68 143 194 229t267 86q143 0 231.5 -88z" />
    <glyph glyph-name="nacute.aalt" horiz-adv-x="1224" 
d="M459 1266l-15 26l377 219l17 -28zM958.5 1020q88.5 -88 88.5 -234v-786h-82v788q0 127 -70 205t-184 78q-131 0 -252 -90t-187 -236v-745h-82v1108h21l55 -315q68 143 194 229t267 86q143 0 231.5 -88z" />
    <glyph glyph-name="ncaron.aalt" horiz-adv-x="1224" 
d="M868 1509l15 -16l-271 -238l-268 238l14 16l254 -200zM958.5 1020q88.5 -88 88.5 -234v-786h-82v788q0 127 -70 205t-184 78q-131 0 -252 -90t-187 -236v-745h-82v1108h21l55 -315q68 143 194 229t267 86q143 0 231.5 -88z" />
    <glyph glyph-name="uni0146.aalt" horiz-adv-x="1224" 
d="M667.5 -160.5q20.5 -27.5 20.5 -83.5q0 -70 -35 -133t-94 -100l-16 20q51 33 81.5 88.5t32.5 110.5q-18 -18 -51 -18q-31 0 -50 19t-19 50q0 33 20.5 53.5t52.5 20.5q37 0 57.5 -27.5zM958.5 1020q88.5 -88 88.5 -234v-786h-82v788q0 127 -70 205t-184 78
q-131 0 -252 -90t-187 -236v-745h-82v1108h21l55 -315q68 143 194 229t267 86q143 0 231.5 -88z" />
    <glyph glyph-name="eng.aalt" horiz-adv-x="1224" 
d="M958.5 1020q88.5 -88 88.5 -234v-843q0 -158 -62.5 -252t-177.5 -162l-10 20q82 55 125 150.5t43 222.5v866q0 127 -70 205t-184 78q-131 0 -252 -90t-187 -236v-745h-82v1108h21l55 -315q68 143 194 229t267 86q143 0 231.5 -88z" />
    <glyph glyph-name="ntilde.aalt" horiz-adv-x="1224" 
d="M330 1319l-21 10q49 145 172 146q43 0 75 -18.5t73 -53.5q37 -31 63.5 -46.5t59.5 -15.5q88 0 139 125l22 -12q-18 -63 -61 -104t-111 -41q-43 0 -74.5 18.5t-72.5 52.5q-37 31 -63.5 46.5t-59.5 15.5q-92 0 -141 -123zM958.5 1020q88.5 -88 88.5 -234v-786h-82v788
q0 127 -70 205t-184 78q-131 0 -252 -90t-187 -236v-745h-82v1108h21l55 -315q68 143 194 229t267 86q143 0 231.5 -88z" />
    <glyph glyph-name="p.aalt" horiz-adv-x="1243" 
d="M912.5 1037.5q103.5 -70.5 159.5 -198.5t56 -296t-56 -295t-159.5 -197.5t-238.5 -70.5t-243.5 78.5t-158.5 209.5v-719h-82v1559h21l53 -309q47 141 159 225t251 84q135 0 238.5 -70.5zM857 80.5q87 66.5 135 186.5t48 276q0 158 -48 277.5t-135 186t-200 66.5
q-125 0 -231.5 -90t-153.5 -235v-408q47 -145 153.5 -235.5t231.5 -90.5q113 0 200 66.5z" />
    <glyph glyph-name="q.aalt" horiz-adv-x="1243" 
d="M1053 1108v-1559h-82v717q-51 -129 -160 -207.5t-240 -78.5q-135 0 -238.5 70.5t-159.5 197.5t-56 295t56 296t159.5 198.5t238.5 70.5q139 0 251 -86t157 -227l53 313h21zM817.5 104.5q106.5 90.5 153.5 235.5v408q-47 145 -153.5 235t-231.5 90q-113 0 -200 -66.5
t-135 -186.5t-48 -277q0 -156 48 -276t135 -186.5t200 -66.5q125 0 231.5 90.5z" />
    <glyph glyph-name="r.aalt" horiz-adv-x="774" 
d="M449.5 994q123.5 93 273.5 93v-32q-147 0 -271 -98.5t-180 -260.5v-696h-82v1108h21l55 -363q60 156 183.5 249z" />
    <glyph glyph-name="racute.aalt" horiz-adv-x="774" 
d="M301 1266l-14 26l377 219l16 -28zM449.5 994q123.5 93 273.5 93v-32q-147 0 -271 -98.5t-180 -260.5v-696h-82v1108h21l55 -363q60 156 183.5 249z" />
    <glyph glyph-name="rcaron.aalt" horiz-adv-x="774" 
d="M711 1509l14 -16l-270 -238l-269 238l15 16l254 -200zM449.5 994q123.5 93 273.5 93v-32q-147 0 -271 -98.5t-180 -260.5v-696h-82v1108h21l55 -363q60 156 183.5 249z" />
    <glyph glyph-name="uni0157.aalt" horiz-adv-x="774" 
d="M288.5 -160.5q20.5 -27.5 20.5 -83.5q0 -70 -34.5 -133t-94.5 -100l-16 20q51 33 81.5 88.5t33.5 110.5q-18 -18 -52 -18q-31 0 -50 19t-19 50q0 33 20.5 53.5t52.5 20.5q37 0 57.5 -27.5zM449.5 994q123.5 93 273.5 93v-32q-147 0 -271 -98.5t-180 -260.5v-696h-82v1108
h21l55 -363q60 156 183.5 249z" />
    <glyph glyph-name="u.aalt" horiz-adv-x="1204" 
d="M1014 1087v-1107h-21l-55 305q-66 -139 -189.5 -222t-261.5 -83q-139 0 -224 85t-85 226v796h82v-798q0 -123 67.5 -198t178.5 -75q127 0 244.5 87t181.5 229v755h82z" />
    <glyph glyph-name="uacute.aalt" horiz-adv-x="1204" 
d="M438 1266l-14 26l377 219l16 -28zM1014 1087v-1107h-21l-55 305q-66 -139 -189.5 -222t-261.5 -83q-139 0 -224 85t-85 226v796h82v-798q0 -123 67.5 -198t178.5 -75q127 0 244.5 87t181.5 229v755h82z" />
    <glyph glyph-name="ucircumflex.aalt" horiz-adv-x="1204" 
d="M336 1255l-14 17l268 237l270 -237l-14 -17l-256 201zM1014 1087v-1107h-21l-55 305q-66 -139 -189.5 -222t-261.5 -83q-139 0 -224 85t-85 226v796h82v-798q0 -123 67.5 -198t178.5 -75q127 0 244.5 87t181.5 229v755h82z" />
    <glyph glyph-name="udieresis.aalt" horiz-adv-x="1204" 
d="M437.5 1428.5q-15.5 -15.5 -42.5 -15.5t-43 15.5t-16 41.5q0 27 16.5 42.5t42.5 15.5q27 0 42.5 -15.5t15.5 -42.5q0 -26 -15.5 -41.5zM828.5 1428.5q-15.5 -15.5 -42.5 -15.5t-43 15.5t-16 41.5q0 27 16.5 42.5t42.5 15.5q27 0 42.5 -15.5t15.5 -42.5q0 -26 -15.5 -41.5
zM1014 1087v-1107h-21l-55 305q-66 -139 -189.5 -222t-261.5 -83q-139 0 -224 85t-85 226v796h82v-798q0 -123 67.5 -198t178.5 -75q127 0 244.5 87t181.5 229v755h82z" />
    <glyph glyph-name="ugrave.aalt" horiz-adv-x="1204" 
d="M743 1266l-378 217l16 28l377 -219zM1014 1087v-1107h-21l-55 305q-66 -139 -189.5 -222t-261.5 -83q-139 0 -224 85t-85 226v796h82v-798q0 -123 67.5 -198t178.5 -75q127 0 244.5 87t181.5 229v755h82z" />
    <glyph glyph-name="uhungarumlaut.aalt" horiz-adv-x="1204" 
d="M688 1567l23 -25l-310 -307l-20 22zM1044 1567l23 -25l-309 -307l-21 22zM1014 1087v-1107h-21l-55 305q-66 -139 -189.5 -222t-261.5 -83q-139 0 -224 85t-85 226v796h82v-798q0 -123 67.5 -198t178.5 -75q127 0 244.5 87t181.5 229v755h82z" />
    <glyph glyph-name="umacron.aalt" horiz-adv-x="1204" 
d="M322 1374v33h540v-33h-540zM1014 1087v-1107h-21l-55 305q-66 -139 -189.5 -222t-261.5 -83q-139 0 -224 85t-85 226v796h82v-798q0 -123 67.5 -198t178.5 -75q127 0 244.5 87t181.5 229v755h82z" />
    <glyph glyph-name="uogonek.aalt" horiz-adv-x="1204" 
d="M1026 -434q-29 -18 -67.5 -27.5t-77.5 -9.5q-88 0 -142.5 45t-54.5 121q0 88 84 170t223 129l-53 291q-66 -139 -189.5 -222t-261.5 -83q-139 0 -224 85t-85 226v796h82v-798q0 -123 67.5 -198t178.5 -75q127 0 244.5 87t181.5 229v755h82v-1107q-115 -49 -185.5 -127
t-70.5 -156q0 -59 38 -96t101 -37q74 0 123 22z" />
    <glyph glyph-name="uring.aalt" horiz-adv-x="1204" 
d="M728 1276q-52 -49 -138 -49q-84 0 -137.5 49t-53.5 129q0 82 53.5 131t137.5 49q86 0 138 -49t52 -131q0 -80 -52 -129zM482 1300.5q42 -40.5 108 -40.5q68 0 108.5 39.5t40.5 105.5t-41 106.5t-108 40.5q-66 0 -108 -41t-42 -106q0 -64 42 -104.5zM1014 1087v-1107h-21
l-55 305q-66 -139 -189.5 -222t-261.5 -83q-139 0 -224 85t-85 226v796h82v-798q0 -123 67.5 -198t178.5 -75q127 0 244.5 87t181.5 229v755h82z" />
    <glyph glyph-name="w.aalt" horiz-adv-x="1503" 
d="M1444 1087l-443 -1107h-18l-229 573l-232 -573h-18l-445 1107h86l390 -976l198 493l-192 483h82l163 -413l164 413h41l-184 -462l207 -519l389 981h41z" />
    <glyph glyph-name="wacute.aalt" horiz-adv-x="1503" 
d="M623 1266l-15 26l377 219l16 -28zM1444 1087l-443 -1107h-18l-229 573l-232 -573h-18l-445 1107h86l390 -976l198 493l-192 483h82l163 -413l164 413h41l-184 -462l207 -519l389 981h41z" />
    <glyph glyph-name="wcircumflex.aalt" horiz-adv-x="1503" 
d="M522 1255l-14 17l268 237l271 -237l-15 -17l-256 201zM1444 1087l-443 -1107h-18l-229 573l-232 -573h-18l-445 1107h86l390 -976l198 493l-192 483h82l163 -413l164 413h41l-184 -462l207 -519l389 981h41z" />
    <glyph glyph-name="wdieresis.aalt" horiz-adv-x="1503" 
d="M623.5 1428.5q-15.5 -15.5 -41.5 -15.5q-27 0 -43.5 15.5t-16.5 41.5q0 27 16.5 42.5t43.5 15.5t42 -15.5t15 -42.5q0 -26 -15.5 -41.5zM1014.5 1428.5q-15.5 -15.5 -41.5 -15.5q-27 0 -43.5 15.5t-16.5 41.5q0 27 16.5 42.5t43.5 15.5t42 -15.5t15 -42.5
q0 -26 -15.5 -41.5zM1444 1087l-443 -1107h-18l-229 573l-232 -573h-18l-445 1107h86l390 -976l198 493l-192 483h82l163 -413l164 413h41l-184 -462l207 -519l389 981h41z" />
    <glyph glyph-name="wgrave.aalt" horiz-adv-x="1503" 
d="M928 1266l-379 217l16 28l377 -219zM1444 1087l-443 -1107h-18l-229 573l-232 -573h-18l-445 1107h86l390 -976l198 493l-192 483h82l163 -413l164 413h41l-184 -462l207 -519l389 981h41z" />
    <glyph glyph-name="A_A.dlig" horiz-adv-x="2574" 
d="M719 1556l633 -1556h-92l-189 465h-774l-186 -465h-43l624 1556h27zM2413 0l-189 465h-817l438 1091h27l631 -1556h-90zM2210 498l-375 925l-373 -925h748zM1057 498l-375 923l-371 -923h746z" />
    <glyph glyph-name="A_Aacute.dlig" horiz-adv-x="2574" 
d="M1628 1647l-10 28l516 189l12 -33zM719 1556l633 -1556h-92l-189 465h-774l-186 -465h-43l624 1556h27zM2413 0l-189 465h-817l438 1091h27l631 -1556h-90zM2210 498l-375 925l-373 -925h748zM1057 498l-375 923l-371 -923h746z" />
    <glyph glyph-name="A_Adieresis.dlig" horiz-adv-x="2574" 
d="M1705 1696.5q-15 -15.5 -42 -15.5t-43 15.5t-16 42.5t16 42t43 15t42 -15.5t15 -41.5q0 -27 -15 -42.5zM2096 1696.5q-15 -15.5 -42 -15.5t-43 15.5t-16 42.5t16.5 42t42.5 15q27 0 42 -15.5t15 -41.5q0 -27 -15 -42.5zM719 1556l633 -1556h-92l-189 465h-774l-186 -465
h-43l624 1556h27zM2413 0l-189 465h-817l438 1091h27l631 -1556h-90zM2210 498l-375 925l-373 -925h748zM1057 498l-375 923l-371 -923h746z" />
    <glyph glyph-name="A_Adieresis_Adieresis.dlig" horiz-adv-x="3725" 
d="M1619 1697.5q-15 16.5 -15 41.5q0 27 15 43t42 16t43 -16.5t16 -42.5q0 -25 -16 -41.5t-43 -16.5t-42 16.5zM2010 1697.5q-15 16.5 -15 41.5q0 27 15 43t42 16t43 -16.5t16 -42.5q0 -25 -16 -41.5t-43 -16.5t-42 16.5zM2771 1697.5q-16 16.5 -16 41.5q0 27 16 43t43 16
t43 -16.5t16 -42.5q0 -25 -16 -41.5t-43 -16.5t-43 16.5zM3162 1697.5q-16 16.5 -16 41.5q0 27 16 43t43 16t43.5 -16.5t16.5 -42.5q0 -25 -16.5 -41.5t-43.5 -16.5t-43 16.5zM719 1556l633 -1556h-92l-189 465h-774l-186 -465h-43l624 1556h27zM1872 1556l631 -1556h-90
l-189 465h-817l438 1091h27zM3564 0l-189 465h-817l438 1091h29l631 -1556h-92zM2210 498l-375 925l-373 -925h748zM3361 498l-375 923l-373 -923h748zM1057 498l-375 923l-371 -923h746z" />
    <glyph glyph-name="A_Agrave.dlig" horiz-adv-x="2574" 
d="M2087 1647l-516 184l12 33l514 -189zM719 1556l633 -1556h-92l-189 465h-774l-186 -465h-43l624 1556h27zM2413 0l-189 465h-817l438 1091h27l631 -1556h-90zM2210 498l-375 925l-373 -925h748zM1057 498l-375 923l-371 -923h746z" />
    <glyph glyph-name="A_Amacron.dlig" horiz-adv-x="2574" 
d="M1589 1681v33h541v-33h-541zM719 1556l633 -1556h-92l-189 465h-774l-186 -465h-43l624 1556h27zM2413 0l-189 465h-817l438 1091h27l631 -1556h-90zM2210 498l-375 925l-373 -925h748zM1057 498l-375 923l-371 -923h746z" />
    <glyph glyph-name="A_Aogonek.dlig" horiz-adv-x="2574" 
d="M719 1556l633 -1556h-92l-189 465h-774l-186 -465h-43l624 1556h27zM2515 -434q-27 -18 -67 -27.5t-78 -9.5q-88 0 -141.5 45t-53.5 121q0 86 70.5 169t191.5 136h-24l-189 465h-817l438 1091h27l631 -1556q-113 -51 -183.5 -135t-70.5 -168q0 -59 36.5 -96t100.5 -37
q78 0 123 22zM2210 498l-375 925l-373 -925h748zM1057 498l-375 923l-371 -923h746z" />
    <glyph glyph-name="A_Aring.dlig" horiz-adv-x="2574" 
d="M1994 1672q-52 -48 -139 -48q-86 0 -138 49t-52 129t53.5 129t136.5 49q86 0 138.5 -49t52.5 -129q0 -82 -52 -130zM1748 1697q42 -40 107 -40q68 0 109 40t41 105q0 66 -41 106t-109 40q-66 0 -107.5 -41t-41.5 -105q0 -65 42 -105zM719 1556l633 -1556h-92l-189 465
h-774l-186 -465h-43l624 1556h27zM2413 0l-189 465h-817l438 1091h27l631 -1556h-90zM2210 498l-375 925l-373 -925h748zM1057 498l-375 923l-371 -923h746z" />
    <glyph glyph-name="A_Atilde.dlig" horiz-adv-x="2574" 
d="M1575 1694l-21 10q49 145 172 145q43 0 75 -18t73 -53q37 -31 63 -46q27 -15 60 -16q88 0 139 125l23 -12q-18 -63 -62 -105q-43 -41 -110 -41q-43 0 -75 19q-32 18 -73 53q-37 31 -63 46q-27 15 -60 16q-92 0 -141 -123zM719 1556l633 -1556h-92l-189 465h-774
l-186 -465h-43l624 1556h27zM2413 0l-189 465h-817l438 1091h27l631 -1556h-90zM2210 498l-375 925l-373 -925h748zM1057 498l-375 923l-371 -923h746z" />
    <glyph glyph-name="A_J.dlig" horiz-adv-x="1931" 
d="M1163 465h-866l-186 -465h-43l624 1556h27zM1706 1536v-1268q0 -131 -78 -209.5t-205 -78.5q-61 0 -118.5 21.5t-96.5 59.5l17 21q31 -31 79 -49.5t99 -18.5q96 0 156.5 69t60.5 181v1272h86zM311 498h748l-377 923z" />
    <glyph glyph-name="Aacute_A.dlig" horiz-adv-x="2574" 
d="M477 1647l-10 28l514 189l12 -33zM719 1556l633 -1556h-92l-189 465h-774l-186 -465h-43l624 1556h27zM2413 0l-189 465h-817l438 1091h27l631 -1556h-90zM2210 498l-375 925l-373 -925h748zM1057 498l-375 923l-371 -923h746z" />
    <glyph glyph-name="Aacute_Aacute.dlig" horiz-adv-x="2574" 
d="M477 1647l-10 28l516 189l12 -33zM719 1556l633 -1556h-92l-189 465h-774l-186 -465h-43l624 1556h27zM2413 0l-189 465h-817l438 1091h27l631 -1556h-90zM2210 498l-375 925l-373 -925h748zM1057 498l-375 923l-371 -923h746zM1628 1647l-10 28l516 189l12 -33z" />
    <glyph glyph-name="Aacute_J.dlig" horiz-adv-x="1931" 
d="M477 1647l-10 28l516 189l12 -33zM1163 465h-866l-186 -465h-43l624 1556h27zM1706 1536v-1268q0 -131 -78 -210t-205 -78q-61 0 -118 21q-57 22 -97 60l17 21q31 -31 79 -49t99 -19q96 0 157 69q60 69 60 181v1272h86zM311 498h748l-377 923z" />
    <glyph glyph-name="Abreve_J.dlig" horiz-adv-x="1931" 
d="M877 1736q-80 -54 -172 -55q-92 0 -173 55q-80 54 -118 142l20 10q43 -76 118 -123t153 -47t152 47q75 47 118 123l22 -10q-40 -88 -120 -142zM1163 465h-866l-186 -465h-43l624 1556h27zM1706 1536v-1268q0 -131 -78 -210t-205 -78q-61 0 -118 21q-57 22 -97 60l17 21
q31 -31 79 -49t99 -19q96 0 157 69q60 69 60 181v1272h86zM311 498h748l-377 923z" />
    <glyph glyph-name="Adieresis_A.dlig" horiz-adv-x="2574" 
d="M467 1697.5q-16 16.5 -16 41.5q0 27 16 43t43 16t42 -16.5t15 -42.5q0 -25 -15 -41.5t-42 -16.5t-43 16.5zM858 1697.5q-16 16.5 -16 41.5q0 27 16 43t43 16t42 -16.5t15 -42.5q0 -25 -15 -41.5t-42 -16.5t-43 16.5zM719 1556l633 -1556h-92l-189 465h-774l-186 -465h-43
l624 1556h27zM2413 0l-189 465h-817l438 1091h27l631 -1556h-90zM2210 498l-375 925l-373 -925h748zM1057 498l-375 923l-371 -923h746z" />
    <glyph glyph-name="Adieresis_Adieresis.dlig" horiz-adv-x="2574" 
d="M552 1697q-15 -15 -42 -16q-27 0 -43 16q-16 15 -16 42t16 42t43 15t42 -15t15 -42t-15 -42zM943 1697q-15 -15 -42 -16q-27 0 -43 16q-16 15 -16 42t16 42t43 15t42 -15t15 -42t-15 -42zM719 1556l633 -1556h-92l-189 465h-774l-186 -465h-43l624 1556h27zM2413 0
l-189 465h-817l438 1091h27l631 -1556h-90zM2210 498l-375 925l-373 -925h748zM1057 498l-375 923l-371 -923h746zM1705 1697q-15 -15 -42 -16q-27 0 -43 16q-16 15 -16 42t16 42t43 15t42 -15t15 -42t-15 -42zM2096 1697q-15 -15 -42 -16q-27 0 -43 16q-16 15 -16 42t16 42
t43 15t42 -15t15 -42t-15 -42z" />
    <glyph glyph-name="Adieresis_Adieresis_A.dlig" horiz-adv-x="3725" 
d="M467 1697.5q-16 16.5 -16 41.5q0 27 16 43t43 16t42 -16.5t15 -42.5q0 -25 -15 -41.5t-42 -16.5t-43 16.5zM858 1697.5q-16 16.5 -16 41.5q0 27 16 43t43 16t42 -16.5t15 -42.5q0 -25 -15 -41.5t-42 -16.5t-43 16.5zM1619 1697.5q-15 16.5 -15 41.5q0 27 15 43t42 16
t43 -16.5t16 -42.5q0 -25 -16 -41.5t-43 -16.5t-42 16.5zM2010 1697.5q-15 16.5 -15 41.5q0 27 15 43t42 16t43 -16.5t16 -42.5q0 -25 -16 -41.5t-43 -16.5t-42 16.5zM719 1556l633 -1556h-92l-189 465h-774l-186 -465h-43l624 1556h27zM1872 1556l631 -1556h-90l-189 465
h-817l438 1091h27zM3564 0l-189 465h-817l438 1091h29l631 -1556h-92zM2210 498l-375 925l-373 -925h748zM3361 498l-375 923l-373 -923h748zM1057 498l-375 923l-371 -923h746z" />
    <glyph glyph-name="Adieresis_J.dlig" horiz-adv-x="1931" 
d="M552 1697q-15 -15 -42 -16q-27 0 -43 16q-16 15 -16 42t16 42t43 15t42 -15t15 -42t-15 -42zM943 1697q-15 -15 -42 -16q-27 0 -43 16q-16 15 -16 42t16 42t43 15t42 -15t15 -42t-15 -42zM1163 465h-866l-186 -465h-43l624 1556h27zM1706 1536v-1268q0 -131 -78 -210
t-205 -78q-61 0 -118 21q-57 22 -97 60l17 21q31 -31 79 -49t99 -19q96 0 157 69q60 69 60 181v1272h86zM311 498h748l-377 923z" />
    <glyph glyph-name="Agrave_Agrave.dlig" horiz-adv-x="2574" 
d="M934 1647l-516 184l12 33l514 -189zM719 1556l633 -1556h-92l-189 465h-774l-186 -465h-43l624 1556h27zM2413 0l-189 465h-817l438 1091h27l631 -1556h-90zM2210 498l-375 925l-373 -925h748zM1057 498l-375 923l-371 -923h746zM2087 1647l-516 184l12 33l514 -189z" />
    <glyph glyph-name="Amacron_A.dlig" horiz-adv-x="2574" 
d="M975 1681h-541v33h541v-33zM719 1556l633 -1556h-92l-189 465h-774l-186 -465h-43l624 1556h27zM2413 0l-189 465h-817l438 1091h27l631 -1556h-90zM2210 498l-375 925l-373 -925h748zM1057 498l-375 923l-371 -923h746z" />
    <glyph glyph-name="Amacron_J.dlig" horiz-adv-x="1931" 
d="M436 1681v33h541v-33h-541zM1163 465h-866l-186 -465h-43l624 1556h27zM1706 1536v-1268q0 -131 -78 -210t-205 -78q-61 0 -118 21q-57 22 -97 60l17 21q31 -31 79 -49t99 -19q96 0 157 69q60 69 60 181v1272h86zM311 498h748l-377 923z" />
    <glyph glyph-name="Aring_A.dlig" horiz-adv-x="2574" 
d="M566 1673q-52 49 -52 129t52 129t139 49q86 0 138 -48t52 -130t-52 -130t-138 -48q-87 0 -139 49zM597 1908q-42 -40 -42 -106t42 -105.5t108 -39.5q68 0 108.5 40t40.5 105q0 66 -41 106t-108 40q-66 0 -108 -40zM719 1556l633 -1556h-92l-189 465h-774l-186 -465h-43
l624 1556h27zM2413 0l-189 465h-817l438 1091h27l631 -1556h-90zM2210 498l-375 925l-373 -925h748zM1057 498l-375 923l-371 -923h746z" />
    <glyph glyph-name="Aring_Aring.dlig" horiz-adv-x="2574" 
d="M843 1672q-52 -48 -138 -48t-139 49q-52 49 -52 129t53 129t138 49q86 0 138 -49t52 -129q0 -82 -52 -130zM597 1697q42 -40 108 -40q68 0 108 40q41 40 41 105q0 66 -41 106t-108 40q-66 0 -108 -41t-42 -105q0 -65 42 -105zM719 1556l633 -1556h-92l-189 465h-774
l-186 -465h-43l624 1556h27zM2413 0l-189 465h-817l438 1091h27l631 -1556h-90zM2210 498l-375 925l-373 -925h748zM1057 498l-375 923l-371 -923h746zM1994 1672q-52 -48 -139 -48q-86 0 -138 49t-52 129t53 129t137 49q86 0 139 -49q52 -49 52 -129q0 -82 -52 -130z
M1748 1697q42 -40 107 -40q68 0 109 40t41 105q0 66 -41 106t-109 40q-66 0 -107 -41q-42 -41 -42 -105q0 -65 42 -105z" />
    <glyph glyph-name="Aring_J.dlig" horiz-adv-x="1931" 
d="M843 1672q-52 -48 -138 -48t-139 49q-52 49 -52 129t53 129t138 49q86 0 138 -49t52 -129q0 -82 -52 -130zM597 1697q42 -40 108 -40q68 0 108 40q41 40 41 105q0 66 -41 106t-108 40q-66 0 -108 -41t-42 -105q0 -65 42 -105zM1163 465h-866l-186 -465h-43l624 1556h27z
M1706 1536v-1268q0 -131 -78 -210t-205 -78q-61 0 -118 21q-57 22 -97 60l17 21q31 -31 79 -49t99 -19q96 0 157 69q60 69 60 181v1272h86zM311 498h748l-377 923z" />
    <glyph glyph-name="H_E.dlig" horiz-adv-x="2017" 
d="M1907 33v-33h-723v797h-862v-797h-86v1536h86v-707h862v707h706v-33h-620v-674h528v-32h-528v-764h637z" />
    <glyph glyph-name="H_Eacute.dlig" horiz-adv-x="2017" 
d="M1313 1647l-10 28l516 189l12 -33zM1907 33v-33h-723v797h-862v-797h-86v1536h86v-707h862v707h706v-33h-620v-674h528v-32h-528v-764h637z" />
    <glyph glyph-name="H_Ecircumflex.dlig" horiz-adv-x="2017" 
d="M1245 1622l-14 16l309 220l309 -220l-14 -16l-295 182zM1907 33v-33h-723v797h-862v-797h-86v1536h86v-707h862v707h706v-33h-620v-674h528v-32h-528v-764h637z" />
    <glyph glyph-name="H_Edieresis.dlig" horiz-adv-x="2017" 
d="M1390 1697q-15 -15 -42 -16q-27 0 -43 16q-16 15 -17 42q0 27 17 42q16 15 43 15t42 -15t15 -42t-15 -42zM1781 1697q-15 -15 -42 -16q-27 0 -43 16q-16 15 -17 42q0 27 17 42q16 15 43 15t42 -15t15 -42t-15 -42zM1907 33v-33h-723v797h-862v-797h-86v1536h86v-707h862
v707h706v-33h-620v-674h528v-32h-528v-764h637z" />
    <glyph glyph-name="H_Edotaccent.dlig" horiz-adv-x="2017" 
d="M1584 1698q-17 -16 -44 -17q-27 0 -44 17q-17 16 -17 43q0 29 16 45t45 16q27 0 44 -16t18 -45q-1 -27 -18 -43zM1907 33v-33h-723v797h-862v-797h-86v1536h86v-707h862v707h706v-33h-620v-674h528v-32h-528v-764h637z" />
    <glyph glyph-name="H_Egrave.dlig" horiz-adv-x="2017" 
d="M1769 1647l-516 184l13 33l514 -189zM1907 33v-33h-723v797h-862v-797h-86v1536h86v-707h862v707h706v-33h-620v-674h528v-32h-528v-764h637z" />
    <glyph glyph-name="H_Emacron.dlig" horiz-adv-x="2017" 
d="M1272 1681v33h540v-33h-540zM1907 33v-33h-723v797h-862v-797h-86v1536h86v-707h862v707h706v-33h-620v-674h528v-32h-528v-764h637z" />
    <glyph glyph-name="H_Eogonek.dlig" horiz-adv-x="2017" 
d="M1919 -434q-29 -18 -68 -27.5t-77 -9.5q-90 0 -143.5 45t-53.5 121q0 86 71.5 169t192.5 136h-657v797h-862v-797h-86v1536h86v-707h862v707h706v-33h-620v-674h528v-32h-528v-764h637v-33q-115 -51 -185.5 -135t-70.5 -168q0 -59 37.5 -96t101.5 -37q74 0 123 22z" />
    <glyph glyph-name="K_A.dlig" horiz-adv-x="2439" 
d="M2277 0l-188 465h-817l438 1091h27l633 -1556h-93zM236 1536h86v-1536h-86v1536zM465 842l768 -842h-113l-743 809l723 727h55zM2075 498l-375 925l-371 -925h746z" />
    <glyph glyph-name="K_A_A.dlig" horiz-adv-x="3590" 
d="M1737 1556l633 -1556h-93l-188 465h-817l438 1091h27zM3430 0l-188 465h-817l438 1091h27l631 -1556h-91zM236 1536h86v-1536h-86v1536zM465 842l768 -842h-113l-743 809l723 727h55zM3228 498l-375 925l-373 -925h748zM2075 498l-375 925l-371 -925h746z" />
    <glyph glyph-name="K_Aacute.dlig" horiz-adv-x="2439" 
d="M1495 1647l-10 28l516 189l12 -33zM2277 0l-188 465h-817l438 1091h27l633 -1556h-93zM236 1536h86v-1536h-86v1536zM465 842l768 -842h-113l-743 809l723 727h55zM2075 498l-375 925l-371 -925h746z" />
    <glyph glyph-name="K_Abreve.dlig" horiz-adv-x="2439" 
d="M1894 1736q-80 -54 -172 -55q-92 0 -172 55q-80 54 -118 142l20 10q43 -76 118 -123t152 -47q78 0 153 47t118 123l22 -10q-41 -88 -121 -142zM2277 0l-188 465h-817l438 1091h27l633 -1556h-93zM236 1536h86v-1536h-86v1536zM465 842l768 -842h-113l-743 809l723 727h55
zM2075 498l-375 925l-371 -925h746z" />
    <glyph glyph-name="K_Acircumflex.dlig" horiz-adv-x="2439" 
d="M1427 1622l-14 16l309 220l310 -220l-15 -16l-295 182zM2277 0l-188 465h-817l438 1091h27l633 -1556h-93zM236 1536h86v-1536h-86v1536zM465 842l768 -842h-113l-743 809l723 727h55zM2075 498l-375 925l-371 -925h746z" />
    <glyph glyph-name="K_Adieresis.dlig" horiz-adv-x="2439" 
d="M1570 1697q-15 -15 -42 -16q-27 0 -43 16q-16 15 -17 42q0 27 17 42q16 15 43 15t42 -15t15 -42t-15 -42zM1961 1697q-15 -15 -42 -16q-27 0 -43 16q-16 15 -16 42t16 42t43 15t42 -15t15 -42t-15 -42zM2277 0l-188 465h-817l438 1091h27l633 -1556h-93zM236 1536h86
v-1536h-86v1536zM465 842l768 -842h-113l-743 809l723 727h55zM2075 498l-375 925l-371 -925h746z" />
    <glyph glyph-name="K_Agrave.dlig" horiz-adv-x="2439" 
d="M1952 1647l-516 184l12 33l514 -189zM2277 0l-188 465h-817l438 1091h27l633 -1556h-93zM236 1536h86v-1536h-86v1536zM465 842l768 -842h-113l-743 809l723 727h55zM2075 498l-375 925l-371 -925h746z" />
    <glyph glyph-name="K_Amacron.dlig" horiz-adv-x="2439" 
d="M1454 1681v33h541v-33h-541zM2277 0l-188 465h-817l438 1091h27l633 -1556h-93zM236 1536h86v-1536h-86v1536zM465 842l768 -842h-113l-743 809l723 727h55zM2075 498l-375 925l-371 -925h746z" />
    <glyph glyph-name="K_Aogonek.dlig" horiz-adv-x="2439" 
d="M2382 -434q-29 -18 -68 -27.5t-78 -9.5q-90 0 -143 45t-53 121q0 86 71.5 169t192.5 136h-27l-188 465h-817l438 1091h27l633 -1556q-115 -51 -185.5 -135t-70.5 -168q0 -59 37.5 -96t99.5 -37q76 0 125 22zM236 1536h86v-1536h-86v1536zM465 842l768 -842h-113l-743 809
l723 727h55zM2075 498l-375 925l-371 -925h746z" />
    <glyph glyph-name="K_Aring.dlig" horiz-adv-x="2439" 
d="M1861 1672q-52 -48 -139 -48q-86 0 -138 49t-52 129t53 129t137 49q86 0 139 -49q52 -49 52 -129q0 -82 -52 -130zM1615 1697q42 -40 107 -40q68 0 109 40t41 105q0 66 -41 106t-109 40q-66 0 -107 -41q-42 -41 -42 -105q0 -65 42 -105zM2277 0l-188 465h-817l438 1091
h27l633 -1556h-93zM236 1536h86v-1536h-86v1536zM465 842l768 -842h-113l-743 809l723 727h55zM2075 498l-375 925l-371 -925h746z" />
    <glyph glyph-name="uni0136_Amacron.dlig" horiz-adv-x="2439" 
d="M729 -161q20 -28 21 -83q0 -70 -35 -133t-94 -100l-17 20q51 33 82 88t33 111q-18 -18 -51 -18q-31 0 -51 19q-19 19 -19 50q0 33 20 53t54 21q37 0 57 -28zM2277 0l-188 465h-817l438 1091h27l633 -1556h-93zM236 1536h86v-1536h-86v1536zM465 842l768 -842h-113
l-743 809l723 727h55zM2075 498l-375 925l-371 -925h746zM1454 1681v33h541v-33h-541z" />
    <glyph glyph-name="L_A.dlig" horiz-adv-x="2015" 
d="M1853 0l-188 465h-817l438 1091h29l631 -1556h-93zM322 33h647v-33h-733v1536h86v-1503zM1651 498l-375 923l-371 -923h746z" />
    <glyph glyph-name="L_A_A.dlig" horiz-adv-x="3168" 
d="M1315 1556l631 -1556h-93l-188 465h-817l438 1091h29zM3006 0l-188 465h-817l438 1091h27l631 -1556h-91zM322 33h647v-33h-733v1536h86v-1503zM2804 498l-375 925l-371 -925h746zM1651 498l-375 923l-371 -923h746z" />
    <glyph glyph-name="L_Aacute.dlig" horiz-adv-x="2015" 
d="M1071 1647l-10 28l516 189l12 -33zM1853 0l-188 465h-817l438 1091h29l631 -1556h-93zM322 33h647v-33h-733v1536h86v-1503zM1651 498l-375 923l-371 -923h746z" />
    <glyph glyph-name="L_Abreve.dlig" horiz-adv-x="2015" 
d="M1473 1736q-80 -54 -173 -55q-92 0 -172 55q-80 54 -118 142l20 10q43 -76 118 -123t152 -47q78 0 153 47t118 123l22 -10q-40 -88 -120 -142zM1853 0l-188 465h-817l438 1091h29l631 -1556h-93zM322 33h647v-33h-733v1536h86v-1503zM1651 498l-375 923l-371 -923h746z
" />
    <glyph glyph-name="L_Acircumflex.dlig" horiz-adv-x="2015" 
d="M1004 1622l-15 16l309 220l310 -220l-15 -16l-295 182zM1853 0l-188 465h-817l438 1091h29l631 -1556h-93zM322 33h647v-33h-733v1536h86v-1503zM1651 498l-375 923l-371 -923h746z" />
    <glyph glyph-name="L_Adieresis.dlig" horiz-adv-x="2015" 
d="M1148 1697q-15 -15 -42 -16q-27 0 -43 16q-16 15 -16 42t16 42t43 15t42 -15t15 -42t-15 -42zM1539 1697q-15 -15 -42 -16q-27 0 -43 16q-16 15 -16 42t16 42t43 15t42 -15t15 -42t-15 -42zM1853 0l-188 465h-817l438 1091h29l631 -1556h-93zM322 33h647v-33h-733v1536
h86v-1503zM1651 498l-375 923l-371 -923h746z" />
    <glyph glyph-name="L_Adieresis_A.dlig" horiz-adv-x="3168" 
d="M1060.5 1697.5q-16.5 16.5 -16.5 41.5q0 27 16.5 43t43.5 16t43 -16.5t16 -42.5q0 -25 -16.5 -41.5t-42.5 -16.5q-27 0 -43.5 16.5zM1452 1697.5q-16 16.5 -16 41.5q0 27 16 43t43 16t43 -16.5t16 -42.5q0 -25 -16 -41.5t-43 -16.5t-43 16.5zM1315 1556l631 -1556h-93
l-188 465h-817l438 1091h29zM3006 0l-188 465h-817l438 1091h27l631 -1556h-91zM322 33h647v-33h-733v1536h86v-1503zM2804 498l-375 925l-371 -925h746zM1651 498l-375 923l-371 -923h746z" />
    <glyph glyph-name="L_Agrave.dlig" horiz-adv-x="2015" 
d="M1528 1647l-516 184l12 33l514 -189zM1853 0l-188 465h-817l438 1091h29l631 -1556h-93zM322 33h647v-33h-733v1536h86v-1503zM1651 498l-375 923l-371 -923h746z" />
    <glyph glyph-name="L_Amacron.dlig" horiz-adv-x="2015" 
d="M1030 1681v33h541v-33h-541zM1853 0l-188 465h-817l438 1091h29l631 -1556h-93zM322 33h647v-33h-733v1536h86v-1503zM1651 498l-375 923l-371 -923h746z" />
    <glyph glyph-name="L_Aogonek.dlig" horiz-adv-x="2015" 
d="M1958 -434q-29 -18 -68 -27.5t-78 -9.5q-88 0 -142 45t-54 121q0 86 71.5 169t192.5 136h-27l-188 465h-817l438 1091h29l631 -1556q-115 -51 -185.5 -135t-70.5 -168q0 -59 37.5 -96t101.5 -37q74 0 123 22zM322 33h647v-33h-733v1536h86v-1503zM1651 498l-375 923
l-371 -923h746z" />
    <glyph glyph-name="L_Aring.dlig" horiz-adv-x="2015" 
d="M1437 1672q-52 -48 -139 -48q-86 0 -138 49t-52 129t53 129t137 49q86 0 139 -49q52 -49 52 -129q0 -82 -52 -130zM1191 1697q42 -40 107 -40q68 0 109 40t41 105q0 66 -41 106t-109 40q-66 0 -107 -41q-42 -41 -42 -105q0 -65 42 -105zM1853 0l-188 465h-817l438 1091
h29l631 -1556h-93zM322 33h647v-33h-733v1536h86v-1503zM1651 498l-375 923l-371 -923h746z" />
    <glyph glyph-name="L_Atilde.dlig" horiz-adv-x="2015" 
d="M1018 1694l-21 10q49 145 172 145q43 0 75 -18t73 -53q37 -31 63 -46q27 -15 60 -16q88 0 139 125l23 -12q-18 -63 -62 -105q-43 -41 -110 -41q-43 0 -75 19q-32 18 -73 53q-37 31 -63 46q-27 15 -60 16q-92 0 -141 -123zM1853 0l-188 465h-817l438 1091h29l631 -1556
h-93zM322 33h647v-33h-733v1536h86v-1503zM1651 498l-375 923l-371 -923h746z" />
    <glyph glyph-name="L_L.dlig" horiz-adv-x="1433" 
d="M322 33h892v-33h-978v1536h86v-1503zM1413 436v-33h-625v1133h86v-1100h539z" />
    <glyph glyph-name="uni013B_Amacron.dlig" horiz-adv-x="2015" 
d="M662 -161q20 -28 20 -83q0 -70 -35 -133t-94 -100l-16 20q51 33 81 88q31 55 33 111q-18 -18 -51 -18q-31 0 -50 19t-20 50q0 33 21 53q20 20 53 21q38 0 58 -28zM1853 0l-188 465h-817l438 1091h29l631 -1556h-93zM322 33h647v-33h-733v1536h86v-1503zM1651 498
l-375 923l-371 -923h746zM1030 1681v33h541v-33h-541z" />
    <glyph glyph-name="uni013B_L.dlig" horiz-adv-x="1433" 
d="M748 -161q20 -28 20 -83q0 -70 -35 -133t-94 -100l-16 20q51 33 82 88t32 111q-18 -18 -51 -18q-31 0 -50 19t-20 50q0 33 21 53q20 20 53 21q38 0 58 -28zM322 33h892v-33h-978v1536h86v-1503zM1413 436v-33h-625v1133h86v-1100h539z" />
    <glyph glyph-name="N_N.dlig" horiz-adv-x="2500" 
d="M2265 1536v-1556h-27l-968 1415v-1415h-27l-967 1415v-1395h-40v1556h26l967 -1417v1417h28l967 -1417v1397h41z" />
    <glyph glyph-name="uni0145_N.dlig" horiz-adv-x="2500" 
d="M811 -160.5q20 -27.5 20 -83.5q0 -70 -34.5 -133t-94.5 -100l-16 20q51 33 82 88.5t33 110.5q-18 -18 -51 -18q-31 0 -50.5 19t-19.5 50q0 33 20.5 53.5t53.5 20.5q37 0 57 -27.5zM2265 1536v-1556h-27l-968 1415v-1415h-27l-967 1415v-1395h-40v1556h26l967 -1417v1417
h28l967 -1417v1397h41z" />
    <glyph glyph-name="uni0145_uni0145.dlig" horiz-adv-x="2500" 
d="M1804 -161q20 -28 21 -83q0 -70 -35 -133t-94 -100l-17 20q51 33 82 88t33 111q-18 -18 -51 -18q-31 0 -50 19t-20 50q0 33 21 53q20 20 53 21q37 0 57 -28zM2265 1536v-1556h-27l-968 1415v-1415h-27l-967 1415v-1395h-40v1556h26l967 -1417v1417h28l967 -1417v1397h41z
M811 -161q20 -28 20 -83q0 -70 -34 -133q-35 -63 -95 -100l-16 20q51 33 82 88t33 111q-18 -18 -51 -18q-31 0 -51 19q-19 19 -19 50q0 33 20 53t54 21q37 0 57 -28z" />
    <glyph glyph-name="O_O.dlig" horiz-adv-x="2598" 
d="M2100 1458q173 -98 268.5 -277.5t95.5 -412.5t-95.5 -412.5t-268.5 -277.5t-398 -98q-227 0 -402 104q-174 -104 -403 -104q-225 0 -398 98t-268.5 277.5t-95.5 412.5t95.5 412.5t268.5 277.5t398 98q229 0 403 -104q174 104 402 104q225 0 398 -98zM1264 109
q-145 100 -226.5 271t-81.5 388t81 388t227 271q-156 92 -359 93q-201 0 -353.5 -94.5t-236.5 -264.5t-84 -393t84 -393t237 -264.5t353 -94.5q203 1 359 93zM2047 110.5q153 94.5 236.5 264.5t83.5 393t-83.5 393t-236.5 264.5t-353 94.5q-203 0 -359 -93
q145 -100 226 -271t81 -388t-80.5 -388t-226.5 -271q156 -92 359 -93q200 0 353 94.5zM1079 1144q-78 -165 -78 -376t78 -376t221 -261q141 96 219 261t78 376t-77.5 376t-219.5 261q-143 -96 -221 -261z" />
    <glyph glyph-name="O_Oacute.dlig" horiz-adv-x="2598" 
d="M1475 1647l-11 28l514 189l13 -33zM2100 1458q173 -98 268.5 -277.5t95.5 -412.5t-95.5 -412.5t-268.5 -277.5t-398 -98q-227 0 -402 104q-174 -104 -403 -104q-225 0 -398 98t-268.5 277.5t-95.5 412.5t95.5 412.5t268.5 277.5t398 98q229 0 403 -104q174 104 402 104
q225 0 398 -98zM1264 109q-145 100 -226.5 271t-81.5 388t81 388t227 271q-156 92 -359 93q-201 0 -353.5 -94.5t-236.5 -264.5t-84 -393t84 -393t237 -264.5t353 -94.5q203 1 359 93zM2047 110.5q153 94.5 236.5 264.5t83.5 393t-83.5 393t-236.5 264.5t-353 94.5
q-203 0 -359 -93q145 -100 226 -271t81 -388t-80.5 -388t-226.5 -271q156 -92 359 -93q200 0 353 94.5zM1079 1144q-78 -165 -78 -376t78 -376t221 -261q141 96 219 261t78 376t-77.5 376t-219.5 261q-143 -96 -221 -261z" />
    <glyph glyph-name="O_Odieresis.dlig" horiz-adv-x="2598" 
d="M1464.5 1697.5q-16.5 16.5 -16.5 41.5q0 27 16.5 43t42.5 16q27 0 42.5 -16.5t15.5 -42.5q0 -25 -15.5 -41.5t-42.5 -16.5q-26 0 -42.5 16.5zM1855.5 1697.5q-16.5 16.5 -16.5 41.5q0 27 16.5 43t42.5 16q27 0 43.5 -16.5t16.5 -42.5q0 -25 -16.5 -41.5t-43.5 -16.5
q-26 0 -42.5 16.5zM2100 1458q173 -98 268.5 -277.5t95.5 -412.5t-95.5 -412.5t-268.5 -277.5t-398 -98q-227 0 -402 104q-174 -104 -403 -104q-225 0 -398 98t-268.5 277.5t-95.5 412.5t95.5 412.5t268.5 277.5t398 98q229 0 403 -104q174 104 402 104q225 0 398 -98z
M1264 109q-145 100 -226.5 271t-81.5 388t81 388t227 271q-156 92 -359 93q-201 0 -353.5 -94.5t-236.5 -264.5t-84 -393t84 -393t237 -264.5t353 -94.5q203 1 359 93zM2047 110.5q153 94.5 236.5 264.5t83.5 393t-83.5 393t-236.5 264.5t-353 94.5q-203 0 -359 -93
q145 -100 226 -271t81 -388t-80.5 -388t-226.5 -271q156 -92 359 -93q200 0 353 94.5zM1079 1144q-78 -165 -78 -376t78 -376t221 -261q141 96 219 261t78 376t-77.5 376t-219.5 261q-143 -96 -221 -261z" />
    <glyph glyph-name="O_Ograve.dlig" horiz-adv-x="2598" 
d="M1931 1647l-518 184l12 33l517 -189zM2100 1458q173 -98 268.5 -277.5t95.5 -412.5t-95.5 -412.5t-268.5 -277.5t-398 -98q-227 0 -402 104q-174 -104 -403 -104q-225 0 -398 98t-268.5 277.5t-95.5 412.5t95.5 412.5t268.5 277.5t398 98q229 0 403 -104q174 104 402 104
q225 0 398 -98zM1264 109q-145 100 -226.5 271t-81.5 388t81 388t227 271q-156 92 -359 93q-201 0 -353.5 -94.5t-236.5 -264.5t-84 -393t84 -393t237 -264.5t353 -94.5q203 1 359 93zM2047 110.5q153 94.5 236.5 264.5t83.5 393t-83.5 393t-236.5 264.5t-353 94.5
q-203 0 -359 -93q145 -100 226 -271t81 -388t-80.5 -388t-226.5 -271q156 -92 359 -93q200 0 353 94.5zM1079 1144q-78 -165 -78 -376t78 -376t221 -261q141 96 219 261t78 376t-77.5 376t-219.5 261q-143 -96 -221 -261z" />
    <glyph glyph-name="O_Otilde.dlig" horiz-adv-x="2598" 
d="M1421 1694l-20 10q49 147 172 147q43 0 74.5 -18t72.5 -53q35 -31 62.5 -47.5t60.5 -16.5q88 0 139 125l23 -12q-49 -145 -172 -146q-43 0 -75 18.5t-72 53.5q-39 33 -65 48.5t-58 15.5q-91 0 -142 -125zM2100 1458q173 -98 268.5 -277.5t95.5 -412.5t-95.5 -412.5
t-268.5 -277.5t-398 -98q-227 0 -402 104q-174 -104 -403 -104q-225 0 -398 98t-268.5 277.5t-95.5 412.5t95.5 412.5t268.5 277.5t398 98q229 0 403 -104q174 104 402 104q225 0 398 -98zM1264 109q-145 100 -226.5 271t-81.5 388t81 388t227 271q-156 92 -359 93
q-201 0 -353.5 -94.5t-236.5 -264.5t-84 -393t84 -393t237 -264.5t353 -94.5q203 1 359 93zM2047 110.5q153 94.5 236.5 264.5t83.5 393t-83.5 393t-236.5 264.5t-353 94.5q-203 0 -359 -93q145 -100 226 -271t81 -388t-80.5 -388t-226.5 -271q156 -92 359 -93
q200 0 353 94.5zM1079 1144q-78 -165 -78 -376t78 -376t221 -261q141 96 219 261t78 376t-77.5 376t-219.5 261q-143 -96 -221 -261z" />
    <glyph glyph-name="O_dieresis_Otilde.dlig" horiz-adv-x="2598" 
d="M1421 1694l-20 10q49 145 172 145q43 0 75 -18t72 -53q37 -31 64 -46t59 -16q88 0 139 125l23 -12q-18 -63 -61 -105q-43 -41 -111 -41q-43 0 -75 19q-32 18 -72 53q-37 31 -64 46t-59 16q-93 0 -142 -123zM2100 1458q173 -98 269 -277q95 -179 95 -413q0 -233 -95 -413
q-95 -179 -269 -277q-173 -98 -398 -98q-227 0 -402 104q-174 -104 -403 -104q-225 0 -398 98t-269 277q-95 179 -95 413q0 233 95 413q95 179 269 277q173 98 398 98q229 0 403 -104q174 104 402 104q225 0 398 -98zM1264 109q-145 100 -227 271q-81 171 -81 388t81 388
t227 271q-156 92 -359 93q-201 0 -353 -95q-153 -94 -237 -264t-84 -393t84 -393t237 -264t353 -95q203 1 359 93zM2047 111q153 94 237 264t83 393q0 223 -83 393q-84 170 -237 264t-353 95q-203 0 -359 -93q145 -100 227 -271q81 -171 80 -388q0 -217 -80 -388
q-81 -171 -227 -271q156 -92 359 -93q200 1 353 95zM1079 1144q-78 -165 -78 -376t78 -376t221 -261q141 96 220 261q78 165 77 376q0 211 -77 376q-78 165 -220 261q-143 -96 -221 -261zM744 1697q-15 -15 -42 -16q-27 0 -43 16q-16 15 -16 42t16 42t43 15t42 -15t16 -42
q-1 -27 -16 -42zM1136 1697q-15 -15 -42 -16q-27 0 -43 16q-16 15 -17 42q0 27 17 42q16 15 43 15t42 -15t15 -42t-15 -42z" />
    <glyph glyph-name="Oacute_O.dlig" horiz-adv-x="2598" 
d="M668 1647l-11 28l517 189l12 -33zM2100 1458q173 -98 268.5 -277.5t95.5 -412.5t-95.5 -412.5t-268.5 -277.5t-398 -98q-227 0 -402 104q-174 -104 -403 -104q-225 0 -398 98t-268.5 277.5t-95.5 412.5t95.5 412.5t268.5 277.5t398 98q229 0 403 -104q174 104 402 104
q225 0 398 -98zM1264 109q-145 100 -226.5 271t-81.5 388t81 388t227 271q-156 92 -359 93q-201 0 -353.5 -94.5t-236.5 -264.5t-84 -393t84 -393t237 -264.5t353 -94.5q203 1 359 93zM2047 110.5q153 94.5 236.5 264.5t83.5 393t-83.5 393t-236.5 264.5t-353 94.5
q-203 0 -359 -93q145 -100 226 -271t81 -388t-80.5 -388t-226.5 -271q156 -92 359 -93q200 0 353 94.5zM1079 1144q-78 -165 -78 -376t78 -376t221 -261q141 96 219 261t78 376t-77.5 376t-219.5 261q-143 -96 -221 -261z" />
    <glyph glyph-name="Oacute_Oacute.dlig" horiz-adv-x="2598" 
d="M1475 1647l-11 28l516 189l13 -33zM2100 1458q173 -98 269 -277q95 -179 95 -413q0 -233 -95 -413q-95 -179 -269 -277q-173 -98 -398 -98q-227 0 -402 104q-174 -104 -403 -104q-225 0 -398 98t-269 277q-95 179 -95 413q0 233 95 413q95 179 269 277q173 98 398 98
q229 0 403 -104q174 104 402 104q225 0 398 -98zM1264 109q-145 100 -227 271q-81 171 -81 388t81 388t227 271q-156 92 -359 93q-201 0 -353 -95q-153 -94 -237 -264t-84 -393t84 -393t237 -264t353 -95q203 1 359 93zM2047 111q153 94 237 264t83 393q0 223 -83 393
q-84 170 -237 264t-353 95q-203 0 -359 -93q145 -100 227 -271q81 -171 80 -388q0 -217 -80 -388q-81 -171 -227 -271q156 -92 359 -93q200 1 353 95zM1079 1144q-78 -165 -78 -376t78 -376t221 -261q141 96 220 261q78 165 77 376q0 211 -77 376q-78 165 -220 261
q-143 -96 -221 -261zM668 1647l-11 28l517 189l12 -33z" />
    <glyph glyph-name="Oacute_Odieresis.dlig" horiz-adv-x="2598" 
d="M1549 1697q-15 -15 -42 -16q-27 0 -43 16q-16 15 -16 42t16 42t43 15t42 -15t16 -42q-1 -27 -16 -42zM1940 1697q-15 -15 -42 -16q-27 0 -43 16q-16 15 -16 42t16 42t43 15t42 -15t16 -42q-1 -27 -16 -42zM2100 1458q173 -98 269 -277q95 -179 95 -413q0 -233 -95 -413
q-95 -179 -269 -277q-173 -98 -398 -98q-227 0 -402 104q-174 -104 -403 -104q-225 0 -398 98t-269 277q-95 179 -95 413q0 233 95 413q95 179 269 277q173 98 398 98q229 0 403 -104q174 104 402 104q225 0 398 -98zM1264 109q-145 100 -227 271q-81 171 -81 388t81 388
t227 271q-156 92 -359 93q-201 0 -353 -95q-153 -94 -237 -264t-84 -393t84 -393t237 -264t353 -95q203 1 359 93zM2047 111q153 94 237 264t83 393q0 223 -83 393q-84 170 -237 264t-353 95q-203 0 -359 -93q145 -100 227 -271q81 -171 80 -388q0 -217 -80 -388
q-81 -171 -227 -271q156 -92 359 -93q200 1 353 95zM1079 1144q-78 -165 -78 -376t78 -376t221 -261q141 96 220 261q78 165 77 376q0 211 -77 376q-78 165 -220 261q-143 -96 -221 -261zM668 1647l-11 28l517 189l12 -33z" />
    <glyph glyph-name="Ocircumflex_O.dlig" horiz-adv-x="2598" 
d="M602 1622l-14 16l309 220l309 -220l-14 -16l-295 182zM2100 1458q173 -98 269 -277q95 -179 95 -413q0 -233 -95 -413q-95 -179 -269 -277q-173 -98 -398 -98q-227 0 -402 104q-174 -104 -403 -104q-225 0 -398 98t-269 277q-95 179 -95 413q0 233 95 413q95 179 269 277
q173 98 398 98q229 0 403 -104q174 104 402 104q225 0 398 -98zM1264 109q-145 100 -227 271q-81 171 -81 388t81 388t227 271q-156 92 -359 93q-201 0 -353 -95q-153 -94 -237 -264t-84 -393t84 -393t237 -264t353 -95q203 1 359 93zM2047 111q153 94 237 264t83 393
q0 223 -83 393q-84 170 -237 264t-353 95q-203 0 -359 -93q145 -100 227 -271q81 -171 80 -388q0 -217 -80 -388q-81 -171 -227 -271q156 -92 359 -93q200 1 353 95zM1079 1144q-78 -165 -78 -376t78 -376t221 -261q141 96 220 261q78 165 77 376q0 211 -77 376
q-78 165 -220 261q-143 -96 -221 -261z" />
    <glyph glyph-name="Odieresis_O.dlig" horiz-adv-x="2598" 
d="M744.5 1696.5q-15.5 -15.5 -42.5 -15.5t-43 15.5t-16 42.5t16.5 42t42.5 15q27 0 42.5 -15.5t15.5 -41.5q0 -27 -15.5 -42.5zM1135.5 1696.5q-15.5 -15.5 -41.5 -15.5q-27 0 -43.5 15.5t-16.5 42.5t16.5 42t43.5 15t42 -15.5t15 -41.5q0 -27 -15.5 -42.5zM2100 1458
q173 -98 268.5 -277.5t95.5 -412.5t-95.5 -412.5t-268.5 -277.5t-398 -98q-227 0 -402 104q-174 -104 -403 -104q-225 0 -398 98t-268.5 277.5t-95.5 412.5t95.5 412.5t268.5 277.5t398 98q229 0 403 -104q174 104 402 104q225 0 398 -98zM1264 109q-145 100 -226.5 271
t-81.5 388t81 388t227 271q-156 92 -359 93q-201 0 -353.5 -94.5t-236.5 -264.5t-84 -393t84 -393t237 -264.5t353 -94.5q203 1 359 93zM2047 110.5q153 94.5 236.5 264.5t83.5 393t-83.5 393t-236.5 264.5t-353 94.5q-203 0 -359 -93q145 -100 226 -271t81 -388t-80.5 -388
t-226.5 -271q156 -92 359 -93q200 0 353 94.5zM1079 1144q-78 -165 -78 -376t78 -376t221 -261q141 96 219 261t78 376t-77.5 376t-219.5 261q-143 -96 -221 -261z" />
    <glyph glyph-name="Odieresis_Odieresis.dlig" horiz-adv-x="2598" 
d="M1549 1697q-15 -15 -42 -16q-27 0 -43 16q-16 15 -16 42t16 42t43 15t42 -15t16 -42q-1 -27 -16 -42zM1940 1697q-15 -15 -42 -16q-27 0 -43 16q-16 15 -16 42t16 42t43 15t42 -15t16 -42q-1 -27 -16 -42zM2100 1458q173 -98 269 -277q95 -179 95 -413q0 -233 -95 -413
q-95 -179 -269 -277q-173 -98 -398 -98q-227 0 -402 104q-174 -104 -403 -104q-225 0 -398 98t-269 277q-95 179 -95 413q0 233 95 413q95 179 269 277q173 98 398 98q229 0 403 -104q174 104 402 104q225 0 398 -98zM1264 109q-145 100 -227 271q-81 171 -81 388t81 388
t227 271q-156 92 -359 93q-201 0 -353 -95q-153 -94 -237 -264t-84 -393t84 -393t237 -264t353 -95q203 1 359 93zM2047 111q153 94 237 264t83 393q0 223 -83 393q-84 170 -237 264t-353 95q-203 0 -359 -93q145 -100 227 -271q81 -171 80 -388q0 -217 -80 -388
q-81 -171 -227 -271q156 -92 359 -93q200 1 353 95zM1079 1144q-78 -165 -78 -376t78 -376t221 -261q141 96 220 261q78 165 77 376q0 211 -77 376q-78 165 -220 261q-143 -96 -221 -261zM744 1697q-15 -15 -42 -16q-27 0 -43 16q-16 15 -16 42t16 42t43 15t42 -15t16 -42
q-1 -27 -16 -42zM1136 1697q-15 -15 -42 -16q-27 0 -43 16q-16 15 -17 42q0 27 17 42q16 15 43 15t42 -15t15 -42t-15 -42z" />
    <glyph glyph-name="Ohungarumlaut_O.dlig" horiz-adv-x="2598" 
d="M1001 1976l21 -28l-453 -312l-16 25zM1413 1976l21 -28l-453 -312l-16 25zM2100 1458q173 -98 268.5 -277.5t95.5 -412.5t-95.5 -412.5t-268.5 -277.5t-398 -98q-227 0 -402 104q-174 -104 -403 -104q-225 0 -398 98t-268.5 277.5t-95.5 412.5t95.5 412.5t268.5 277.5
t398 98q229 0 403 -104q174 104 402 104q225 0 398 -98zM1264 109q-145 100 -226.5 271t-81.5 388t81 388t227 271q-156 92 -359 93q-201 0 -353.5 -94.5t-236.5 -264.5t-84 -393t84 -393t237 -264.5t353 -94.5q203 1 359 93zM2047 110.5q153 94.5 236.5 264.5t83.5 393
t-83.5 393t-236.5 264.5t-353 94.5q-203 0 -359 -93q145 -100 226 -271t81 -388t-80.5 -388t-226.5 -271q156 -92 359 -93q200 0 353 94.5zM1079 1144q-78 -165 -78 -376t78 -376t221 -261q141 96 219 261t78 376t-77.5 376t-219.5 261q-143 -96 -221 -261z" />
    <glyph glyph-name="Ohungarumlaut_Oacute.dlig" horiz-adv-x="2598" 
d="M1475 1647l-11 28l516 189l13 -33zM2100 1458q173 -98 269 -277q95 -179 95 -413q0 -233 -95 -413q-95 -179 -269 -277q-173 -98 -398 -98q-227 0 -402 104q-174 -104 -403 -104q-225 0 -398 98t-269 277q-95 179 -95 413q0 233 95 413q95 179 269 277q173 98 398 98
q229 0 403 -104q174 104 402 104q225 0 398 -98zM1264 109q-145 100 -227 271q-81 171 -81 388t81 388t227 271q-156 92 -359 93q-201 0 -353 -95q-153 -94 -237 -264t-84 -393t84 -393t237 -264t353 -95q203 1 359 93zM2047 111q153 94 237 264t83 393q0 223 -83 393
q-84 170 -237 264t-353 95q-203 0 -359 -93q145 -100 227 -271q81 -171 80 -388q0 -217 -80 -388q-81 -171 -227 -271q156 -92 359 -93q200 1 353 95zM1079 1144q-78 -165 -78 -376t78 -376t221 -261q141 96 220 261q78 165 77 376q0 211 -77 376q-78 165 -220 261
q-143 -96 -221 -261zM1001 1976l21 -28l-453 -312l-16 25zM1413 1976l21 -28l-453 -312l-16 25z" />
    <glyph glyph-name="Ohungarumlaut_Ohungarumlaut.dlig" horiz-adv-x="2598" 
d="M1806 1976l21 -28l-453 -312l-16 25zM2218 1976l20 -28l-452 -312l-17 25zM2100 1458q173 -98 269 -277q95 -179 95 -413q0 -233 -95 -413q-95 -179 -269 -277q-173 -98 -398 -98q-227 0 -402 104q-174 -104 -403 -104q-225 0 -398 98t-269 277q-95 179 -95 413
q0 233 95 413q95 179 269 277q173 98 398 98q229 0 403 -104q174 104 402 104q225 0 398 -98zM1264 109q-145 100 -227 271q-81 171 -81 388t81 388t227 271q-156 92 -359 93q-201 0 -353 -95q-153 -94 -237 -264t-84 -393t84 -393t237 -264t353 -95q203 1 359 93zM2047 111
q153 94 237 264t83 393q0 223 -83 393q-84 170 -237 264t-353 95q-203 0 -359 -93q145 -100 227 -271q81 -171 80 -388q0 -217 -80 -388q-81 -171 -227 -271q156 -92 359 -93q200 1 353 95zM1079 1144q-78 -165 -78 -376t78 -376t221 -261q141 96 220 261q78 165 77 376
q0 211 -77 376q-78 165 -220 261q-143 -96 -221 -261zM1001 1976l21 -28l-453 -312l-16 25zM1413 1976l21 -28l-453 -312l-16 25z" />
    <glyph glyph-name="Otilde_O.dlig" horiz-adv-x="2598" 
d="M614 1694l-20 10q49 145 172 145q43 0 74.5 -18.5t72.5 -52.5q37 -31 64 -46.5t59 -15.5q88 0 140 125l22 -12q-18 -63 -61 -104.5t-111 -41.5q-43 0 -74.5 18.5t-72.5 53.5q-37 31 -64 46.5t-59 15.5q-93 0 -142 -123zM2100 1458q173 -98 268.5 -277.5t95.5 -412.5
t-95.5 -412.5t-268.5 -277.5t-398 -98q-227 0 -402 104q-174 -104 -403 -104q-225 0 -398 98t-268.5 277.5t-95.5 412.5t95.5 412.5t268.5 277.5t398 98q229 0 403 -104q174 104 402 104q225 0 398 -98zM1264 109q-145 100 -226.5 271t-81.5 388t81 388t227 271
q-156 92 -359 93q-201 0 -353.5 -94.5t-236.5 -264.5t-84 -393t84 -393t237 -264.5t353 -94.5q203 1 359 93zM2047 110.5q153 94.5 236.5 264.5t83.5 393t-83.5 393t-236.5 264.5t-353 94.5q-203 0 -359 -93q145 -100 226 -271t81 -388t-80.5 -388t-226.5 -271
q156 -92 359 -93q200 0 353 94.5zM1079 1144q-78 -165 -78 -376t78 -376t221 -261q141 96 219 261t78 376t-77.5 376t-219.5 261q-143 -96 -221 -261z" />
    <glyph glyph-name="Otilde_Otilde.dlig" horiz-adv-x="2598" 
d="M1421 1694l-20 10q49 145 172 145q43 0 75 -18t72 -53q37 -31 64 -46t59 -16q88 0 139 125l23 -12q-18 -63 -61 -105q-43 -41 -111 -41q-43 0 -75 19q-32 18 -72 53q-37 31 -64 46t-59 16q-93 0 -142 -123zM2100 1458q173 -98 269 -277q95 -179 95 -413q0 -233 -95 -413
q-95 -179 -269 -277q-173 -98 -398 -98q-227 0 -402 104q-174 -104 -403 -104q-225 0 -398 98t-269 277q-95 179 -95 413q0 233 95 413q95 179 269 277q173 98 398 98q229 0 403 -104q174 104 402 104q225 0 398 -98zM1264 109q-145 100 -227 271q-81 171 -81 388t81 388
t227 271q-156 92 -359 93q-201 0 -353 -95q-153 -94 -237 -264t-84 -393t84 -393t237 -264t353 -95q203 1 359 93zM2047 111q153 94 237 264t83 393q0 223 -83 393q-84 170 -237 264t-353 95q-203 0 -359 -93q145 -100 227 -271q81 -171 80 -388q0 -217 -80 -388
q-81 -171 -227 -271q156 -92 359 -93q200 1 353 95zM1079 1144q-78 -165 -78 -376t78 -376t221 -261q141 96 220 261q78 165 77 376q0 211 -77 376q-78 165 -220 261q-143 -96 -221 -261zM614 1694l-20 10q49 145 172 145q43 0 75 -18t72 -53q37 -31 64 -46t59 -16
q88 0 140 125l22 -12q-18 -63 -61 -105q-43 -41 -111 -41q-43 0 -75 19q-32 18 -72 53q-37 31 -64 46t-59 16q-93 0 -142 -123z" />
    <glyph glyph-name="R_A.dlig" horiz-adv-x="2551" 
d="M2392 0l-188 465h-818l439 1091h26l631 -1556h-90zM434 737l752 -737h-113l-747 737h-4v-737h-86v1536h352q147 0 258.5 -49t173 -139.5t61.5 -208.5q0 -119 -61.5 -210t-173 -141.5t-258.5 -50.5h-154zM578 770q182 0 294.5 101.5t112.5 267.5q0 164 -112.5 264
t-294.5 100h-256v-733h256zM2189 498l-374 925l-373 -925h747z" />
    <glyph glyph-name="R_A_A.dlig" horiz-adv-x="3704" 
d="M1851 1556l631 -1556h-90l-188 465h-818l439 1091h26zM3543 0l-188 465h-818l439 1091h28l631 -1556h-92zM434 737l752 -737h-113l-747 737h-4v-737h-86v1536h352q147 0 258.5 -49t173 -139.5t61.5 -208.5q0 -119 -61.5 -210t-173 -141.5t-258.5 -50.5h-154zM578 770
q182 0 294.5 101.5t112.5 267.5q0 164 -112.5 264t-294.5 100h-256v-733h256zM2189 498l-374 925l-373 -925h747zM3342 498l-374 925l-373 -925h747z" />
    <glyph glyph-name="R_A_Aring.dlig" horiz-adv-x="3704" 
d="M3126 1672q-52 -48 -138 -48t-138 49t-52 129t53 129t137 49q86 0 138 -49t52 -129q0 -82 -52 -130zM2881 1697q42 -40 107 -40q68 0 109 40t41 105q0 66 -41 106t-109 40q-66 0 -107 -41q-42 -41 -42 -105q0 -65 42 -105zM1851 1556l631 -1556h-90l-188 465h-818
l439 1091h26zM3543 0l-188 465h-818l439 1091h28l631 -1556h-92zM434 737l752 -737h-113l-747 737h-4v-737h-86v1536h352q147 0 259 -49t173 -139t61 -209t-61 -210t-173 -142q-112 -50 -259 -50h-154zM578 770q182 0 294 101q113 101 113 268q0 164 -113 264t-294 100h-256
v-733h256zM2189 498l-374 925l-373 -925h747zM3342 498l-374 925l-373 -925h747z" />
    <glyph glyph-name="R_A_Atilde.dlig" horiz-adv-x="3704" 
d="M2707 1694l-20 10q49 145 172 145q43 0 75 -18t72 -53q37 -31 64 -46t59 -16q88 0 140 125l22 -12q-18 -63 -61 -105q-43 -41 -111 -41q-43 0 -75 19q-32 18 -72 53q-37 31 -64 46t-59 16q-93 0 -142 -123zM1851 1556l631 -1556h-90l-188 465h-818l439 1091h26zM3543 0
l-188 465h-818l439 1091h28l631 -1556h-92zM434 737l752 -737h-113l-747 737h-4v-737h-86v1536h352q147 0 259 -49t173 -139t61 -209t-61 -210t-173 -142q-112 -50 -259 -50h-154zM578 770q182 0 294 101q113 101 113 268q0 164 -113 264t-294 100h-256v-733h256zM2189 498
l-374 925l-373 -925h747zM3342 498l-374 925l-373 -925h747z" />
    <glyph glyph-name="R_Aacute.dlig" horiz-adv-x="2551" 
d="M1608 1647l-11 28l517 189l12 -33zM2392 0l-188 465h-818l439 1091h26l631 -1556h-90zM434 737l752 -737h-113l-747 737h-4v-737h-86v1536h352q147 0 258.5 -49t173 -139.5t61.5 -208.5q0 -119 -61.5 -210t-173 -141.5t-258.5 -50.5h-154zM578 770q182 0 294.5 101.5
t112.5 267.5q0 164 -112.5 264t-294.5 100h-256v-733h256zM2189 498l-374 925l-373 -925h747z" />
    <glyph glyph-name="R_Abreve.dlig" horiz-adv-x="2551" 
d="M2009 1736q-80 -54 -172 -55q-92 0 -172 55q-80 54 -119 142l21 10q43 -76 117 -123q75 -47 153 -47t153 47t117 123l23 -10q-41 -88 -121 -142zM2392 0l-188 465h-818l439 1091h26l631 -1556h-90zM434 737l752 -737h-113l-747 737h-4v-737h-86v1536h352q147 0 259 -49
t173 -139t61 -209t-61 -210t-173 -142q-112 -50 -259 -50h-154zM578 770q182 0 294 101q113 101 113 268q0 164 -113 264t-294 100h-256v-733h256zM2189 498l-374 925l-373 -925h747z" />
    <glyph glyph-name="R_Acircumflex.dlig" horiz-adv-x="2551" 
d="M1542 1622l-14 16l309 220l309 -220l-14 -16l-295 182zM2392 0l-188 465h-818l439 1091h26l631 -1556h-90zM434 737l752 -737h-113l-747 737h-4v-737h-86v1536h352q147 0 259 -49t173 -139t61 -209t-61 -210t-173 -142q-112 -50 -259 -50h-154zM578 770q182 0 294 101
q113 101 113 268q0 164 -113 264t-294 100h-256v-733h256zM2189 498l-374 925l-373 -925h747z" />
    <glyph glyph-name="R_Adieresis.dlig" horiz-adv-x="2551" 
d="M1684 1697q-15 -15 -42 -16q-27 0 -43 16q-16 15 -16 42t16 42t43 15t42 -15t16 -42q-1 -27 -16 -42zM2076 1697q-15 -15 -42 -16q-27 0 -43 16q-16 15 -17 42q0 27 17 42q16 15 43 15t42 -15t15 -42t-15 -42zM2392 0l-188 465h-818l439 1091h26l631 -1556h-90zM434 737
l752 -737h-113l-747 737h-4v-737h-86v1536h352q147 0 259 -49t173 -139t61 -209t-61 -210t-173 -142q-112 -50 -259 -50h-154zM578 770q182 0 294 101q113 101 113 268q0 164 -113 264t-294 100h-256v-733h256zM2189 498l-374 925l-373 -925h747z" />
    <glyph glyph-name="R_Adieresis_Adieresis.dlig" horiz-adv-x="3704" 
d="M1598.5 1697.5q-15.5 16.5 -15.5 41.5q0 27 15.5 43t41.5 16q27 0 43.5 -16.5t16.5 -42.5q0 -25 -16.5 -41.5t-43.5 -16.5q-26 0 -41.5 16.5zM1989.5 1697.5q-15.5 16.5 -15.5 41.5q0 27 15.5 43t42.5 16t43 -16.5t16 -42.5q0 -25 -16.5 -41.5t-42.5 -16.5
q-27 0 -42.5 16.5zM2750.5 1697.5q-16.5 16.5 -16.5 41.5q0 27 16.5 43t42.5 16q27 0 43.5 -16.5t16.5 -42.5q0 -25 -16.5 -41.5t-43.5 -16.5q-26 0 -42.5 16.5zM3141.5 1697.5q-16.5 16.5 -16.5 41.5q0 27 16.5 43t43.5 16t43 -16.5t16 -42.5q0 -25 -16.5 -41.5
t-42.5 -16.5q-27 0 -43.5 16.5zM1851 1556l631 -1556h-90l-188 465h-818l439 1091h26zM3543 0l-188 465h-818l439 1091h28l631 -1556h-92zM434 737l752 -737h-113l-747 737h-4v-737h-86v1536h352q147 0 258.5 -49t173 -139.5t61.5 -208.5q0 -119 -61.5 -210t-173 -141.5
t-258.5 -50.5h-154zM578 770q182 0 294.5 101.5t112.5 267.5q0 164 -112.5 264t-294.5 100h-256v-733h256zM2189 498l-374 925l-373 -925h747zM3342 498l-374 925l-373 -925h747z" />
    <glyph glyph-name="R_Agrave.dlig" horiz-adv-x="2551" 
d="M2066 1647l-516 184l13 33l514 -189zM2392 0l-188 465h-818l439 1091h26l631 -1556h-90zM434 737l752 -737h-113l-747 737h-4v-737h-86v1536h352q147 0 259 -49t173 -139t61 -209t-61 -210t-173 -142q-112 -50 -259 -50h-154zM578 770q182 0 294 101q113 101 113 268
q0 164 -113 264t-294 100h-256v-733h256zM2189 498l-374 925l-373 -925h747z" />
    <glyph glyph-name="R_Amacron.dlig" horiz-adv-x="2551" 
d="M1569 1681v33h540v-33h-540zM2392 0l-188 465h-818l439 1091h26l631 -1556h-90zM434 737l752 -737h-113l-747 737h-4v-737h-86v1536h352q147 0 259 -49t173 -139t61 -209t-61 -210t-173 -142q-112 -50 -259 -50h-154zM578 770q182 0 294 101q113 101 113 268
q0 164 -113 264t-294 100h-256v-733h256zM2189 498l-374 925l-373 -925h747z" />
    <glyph glyph-name="R_Aogonek.dlig" horiz-adv-x="2551" 
d="M2494 -434q-27 -18 -65.5 -27.5t-77.5 -9.5q-90 0 -143.5 45t-53.5 121q0 86 72 169t193 136h-27l-188 465h-818l439 1091h26l631 -1556q-113 -51 -183.5 -135t-70.5 -168q0 -59 37 -96t100 -37q78 0 123 22zM434 737l752 -737h-113l-747 737h-4v-737h-86v1536h352
q147 0 258.5 -49t173 -139.5t61.5 -208.5q0 -119 -61.5 -210t-173 -141.5t-258.5 -50.5h-154zM578 770q182 0 294.5 101.5t112.5 267.5q0 164 -112.5 264t-294.5 100h-256v-733h256zM2189 498l-374 925l-373 -925h747z" />
    <glyph glyph-name="R_Aring.dlig" horiz-adv-x="2551" 
d="M1973 1672q-52 -48 -138 -48t-138 49t-52 129t53 129t137 49q86 0 138 -49t52 -129q0 -82 -52 -130zM1727 1697q42 -40 108 -40q68 0 109 40t41 105q0 66 -41 106t-109 40q-66 0 -108 -41t-41 -105q-1 -65 41 -105zM2392 0l-188 465h-818l439 1091h26l631 -1556h-90z
M434 737l752 -737h-113l-747 737h-4v-737h-86v1536h352q147 0 259 -49t173 -139t61 -209t-61 -210t-173 -142q-112 -50 -259 -50h-154zM578 770q182 0 294 101q113 101 113 268q0 164 -113 264t-294 100h-256v-733h256zM2189 498l-374 925l-373 -925h747z" />
    <glyph glyph-name="R_Atilde.dlig" horiz-adv-x="2551" 
d="M1554 1694l-20 10q49 145 172 145q43 0 75 -18t72 -53q37 -31 64 -46t59 -16q88 0 140 125l22 -12q-18 -63 -61 -105q-43 -41 -111 -41q-43 0 -75 19q-32 18 -72 53q-37 31 -64 46t-59 16q-93 0 -142 -123zM2392 0l-188 465h-818l439 1091h26l631 -1556h-90zM434 737
l752 -737h-113l-747 737h-4v-737h-86v1536h352q147 0 259 -49t173 -139t61 -209t-61 -210t-173 -142q-112 -50 -259 -50h-154zM578 770q182 0 294 101q113 101 113 268q0 164 -113 264t-294 100h-256v-733h256zM2189 498l-374 925l-373 -925h747z" />
    <glyph glyph-name="Rcaron_Aacute.dlig" horiz-adv-x="2551" 
d="M891 1858l14 -17l-309 -219l-309 219l14 17l295 -183zM2392 0l-188 465h-818l439 1091h26l631 -1556h-90zM434 737l752 -737h-113l-747 737h-4v-737h-86v1536h352q147 0 259 -49t173 -139t61 -209t-61 -210t-173 -142q-112 -50 -259 -50h-154zM578 770q182 0 294 101
q113 101 113 268q0 164 -113 264t-294 100h-256v-733h256zM2189 498l-374 925l-373 -925h747zM1608 1647l-11 28l517 189l12 -33z" />
    <glyph glyph-name="T_T.dlig" horiz-adv-x="2230" 
d="M2195 1503h-546v-1503h-86v1503h-895v-1503h-86v1503h-549v33h2162v-33z" />
    <glyph glyph-name="T_Y.dlig" horiz-adv-x="2447" 
d="M1798 690v-690h-88v690l-565 813h-477v-1503h-86v1503h-549v33h1196l551 -803l522 803h47z" />
    <glyph glyph-name="T_Y.dlig.ss03" horiz-adv-x="2361" 
d="M2357 1536l-809 -1536h-47l242 459l-594 1044h-481v-1503h-86v1503h-549v33h1196l559 -989l522 989h47z" />
    <glyph glyph-name="T_Yacute.dlig" horiz-adv-x="2447" 
d="M1530 1647l-10 28l516 189l12 -33zM1798 690v-690h-88v690l-565 813h-477v-1503h-86v1503h-549v33h1196l551 -803l522 803h47z" />
    <glyph glyph-name="T_Yacute.dlig.ss03" horiz-adv-x="2361" 
d="M1546 1647l-10 28l516 189l12 -33zM2357 1536l-809 -1536h-47l242 459l-594 1044h-481v-1503h-86v1503h-549v33h1196l559 -989l522 989h47z" />
    <glyph glyph-name="T_h.dlig" horiz-adv-x="2332" 
d="M2067 1020q87 -88 87 -234v-786h-81v788q0 127 -70 205t-184 78q-131 0 -252 -90t-187 -236v-745h-82v1503h-630v-1503h-86v1503h-549v33h1347v-729q70 137 194 219t261 82q145 0 232 -88z" />
    <glyph glyph-name="Tcaron_T.dlig" horiz-adv-x="2230" 
d="M918 1858l14 -17l-309 -219l-310 219l15 17l295 -183zM2195 1503h-546v-1503h-86v1503h-895v-1503h-86v1503h-549v33h2162v-33z" />
    <glyph glyph-name="U_N.dlig" horiz-adv-x="2504" 
d="M2269 1536v-1556h-26l-967 1413v-840q0 -170 -65.5 -300t-186.5 -201.5t-279 -71.5t-277.5 71.5t-185 202.5t-65.5 303v979h86v-983q0 -160 55.5 -281.5t156.5 -189.5t235 -68q145 0 254.5 66.5t170 189.5t60.5 283v1003h27l14 -20l952 -1395v1395h41z" />
    <glyph glyph-name="U_Nacute.dlig" horiz-adv-x="2504" 
d="M1532 1647l-10 28l516 189l12 -33zM2269 1536v-1556h-26l-967 1413v-840q0 -170 -66 -300t-186 -202q-121 -72 -279 -71q-158 0 -277 71q-120 72 -185 203q-66 131 -66 303v979h86v-983q0 -160 55 -282t157 -189q101 -68 235 -68q145 0 255 67t170 189q60 123 60 283
v1003h27l14 -20l952 -1395v1395h41z" />
    <glyph glyph-name="U_Ncaron.dlig" horiz-adv-x="2504" 
d="M2054 1858l14 -17l-309 -219l-309 219l14 17l295 -183zM2269 1536v-1556h-26l-967 1413v-840q0 -170 -65.5 -300t-186.5 -201.5t-279 -71.5t-277.5 71.5t-185 202.5t-65.5 303v979h86v-983q0 -160 55.5 -281.5t156.5 -189.5t235 -68q145 0 254.5 66.5t170 189.5t60.5 283
v1003h27l14 -20l952 -1395v1395h41z" />
    <glyph glyph-name="U_uni0145.dlig" horiz-adv-x="2504" 
d="M1810.5 -160.5q20.5 -27.5 20.5 -83.5q0 -70 -35 -133t-94 -100l-16 20q51 33 81.5 88.5t32.5 110.5q-18 -18 -51 -18q-31 0 -50.5 19t-19.5 50q0 33 20.5 53.5t53.5 20.5q37 0 57.5 -27.5zM2269 1536v-1556h-26l-967 1413v-840q0 -170 -65.5 -300t-186.5 -201.5
t-279 -71.5t-277.5 71.5t-185 202.5t-65.5 303v979h86v-983q0 -160 55.5 -281.5t156.5 -189.5t235 -68q145 0 254.5 66.5t170 189.5t60.5 283v1003h27l14 -20l952 -1395v1395h41z" />
    <glyph glyph-name="U_Ntilde.dlig" horiz-adv-x="2504" 
d="M1479 1694l-21 10q49 145 172 145q43 0 75 -18.5t73 -52.5q37 -31 63.5 -46.5t59.5 -15.5q88 0 139 125l22 -12q-18 -63 -61 -104.5t-111 -41.5q-43 0 -74.5 18.5t-72.5 53.5q-37 31 -63.5 46.5t-59.5 15.5q-92 0 -141 -123zM2269 1536v-1556h-26l-967 1413v-840
q0 -170 -65.5 -300t-186.5 -201.5t-279 -71.5t-277.5 71.5t-185 202.5t-65.5 303v979h86v-983q0 -160 55.5 -281.5t156.5 -189.5t235 -68q145 0 254.5 66.5t170 189.5t60.5 283v1003h27l14 -20l952 -1395v1395h41z" />
    <glyph glyph-name="Uacute_N.dlig" horiz-adv-x="2504" 
d="M543 1647l-11 28l515 189l12 -33zM2269 1536v-1556h-26l-967 1413v-840q0 -170 -65.5 -300t-186.5 -201.5t-279 -71.5t-277.5 71.5t-185 202.5t-65.5 303v979h86v-983q0 -160 55.5 -281.5t156.5 -189.5t235 -68q145 0 254.5 66.5t170 189.5t60.5 283v1003h27l14 -20
l952 -1395v1395h41z" />
    <glyph glyph-name="Uacute_Ncaron.dlig" horiz-adv-x="2504" 
d="M543 1647l-11 28l517 189l12 -33zM2269 1536v-1556h-26l-967 1413v-840q0 -170 -66 -300t-186 -202q-121 -72 -279 -71q-158 0 -277 71q-120 72 -185 203q-66 131 -66 303v979h86v-983q0 -160 55 -282t157 -189q101 -68 235 -68q145 0 255 67t170 189q60 123 60 283v1003
h27l14 -20l952 -1395v1395h41zM2054 1858l14 -17l-309 -219l-309 219l14 17l295 -183z" />
    <glyph glyph-name="Uacute_Ntilde.dlig" horiz-adv-x="2504" 
d="M543 1647l-11 28l517 189l12 -33zM2269 1536v-1556h-26l-967 1413v-840q0 -170 -66 -300t-186 -202q-121 -72 -279 -71q-158 0 -277 71q-120 72 -185 203q-66 131 -66 303v979h86v-983q0 -160 55 -282t157 -189q101 -68 235 -68q145 0 255 67t170 189q60 123 60 283v1003
h27l14 -20l952 -1395v1395h41zM1479 1694l-21 10q49 145 172 145q43 0 75 -18t73 -53q37 -31 63 -46q27 -15 60 -16q88 0 139 125l22 -12q-18 -63 -61 -105q-43 -41 -111 -41q-43 0 -74 19q-32 18 -73 53q-37 31 -64 46t-59 16q-92 0 -141 -123z" />
    <glyph glyph-name="Udieresis_N.dlig" horiz-adv-x="2504" 
d="M532.5 1697.5q-16.5 16.5 -16.5 41.5q0 27 16.5 43t42.5 16q27 0 43.5 -16.5t16.5 -42.5q0 -25 -16.5 -41.5t-43.5 -16.5q-26 0 -42.5 16.5zM923.5 1697.5q-16.5 16.5 -16.5 41.5q0 27 16.5 43t43.5 16t43 -16.5t16 -42.5q0 -25 -16.5 -41.5t-42.5 -16.5
q-27 0 -43.5 16.5zM2269 1536v-1556h-26l-967 1413v-840q0 -170 -65.5 -300t-186.5 -201.5t-279 -71.5t-277.5 71.5t-185 202.5t-65.5 303v979h86v-983q0 -160 55.5 -281.5t156.5 -189.5t235 -68q145 0 254.5 66.5t170 189.5t60.5 283v1003h27l14 -20l952 -1395v1395h41z
" />
    <glyph glyph-name="Uhungarumlaut_Ntilde.dlig" horiz-adv-x="2504" 
d="M874 1976l21 -28l-453 -312l-16 25zM1286 1976l21 -28l-453 -312l-16 25zM2269 1536v-1556h-26l-967 1413v-840q0 -170 -66 -300t-186 -202q-121 -72 -279 -71q-158 0 -277 71q-120 72 -185 203q-66 131 -66 303v979h86v-983q0 -160 55 -282t157 -189q101 -68 235 -68
q145 0 255 67t170 189q60 123 60 283v1003h27l14 -20l952 -1395v1395h41zM1479 1694l-21 10q49 145 172 145q43 0 75 -18t73 -53q37 -31 63 -46q27 -15 60 -16q88 0 139 125l22 -12q-18 -63 -61 -105q-43 -41 -111 -41q-43 0 -74 19q-32 18 -73 53q-37 31 -64 46t-59 16
q-92 0 -141 -123z" />
    <glyph glyph-name="Umacron_N.dlig" horiz-adv-x="2504" 
d="M1042 1681h-542v33h542v-33zM2269 1536v-1556h-26l-967 1413v-840q0 -170 -65.5 -300t-186.5 -201.5t-279 -71.5t-277.5 71.5t-185 202.5t-65.5 303v979h86v-983q0 -160 55.5 -281.5t156.5 -189.5t235 -68q145 0 254.5 66.5t170 189.5t60.5 283v1003h27l14 -20l952 -1395
v1395h41z" />
    <glyph glyph-name="Umacron_uni0145.dlig" horiz-adv-x="2504" 
d="M502 1681v33h540v-33h-540zM2269 1536v-1556h-26l-967 1413v-840q0 -170 -66 -300t-186 -202q-121 -72 -279 -71q-158 0 -277 71q-120 72 -185 203q-66 131 -66 303v979h86v-983q0 -160 55 -282t157 -189q101 -68 235 -68q145 0 255 67t170 189q60 123 60 283v1003h27
l14 -20l952 -1395v1395h41zM1810 -161q20 -28 21 -83q0 -70 -35 -133t-94 -100l-16 20q51 33 81 88q31 55 33 111q-18 -18 -51 -18q-31 0 -50 19t-20 50q0 33 21 53q20 20 53 21q37 0 57 -28z" />
    <glyph glyph-name="Uring_N.dlig" horiz-adv-x="2504" 
d="M632 1673q-52 49 -52 129t52 129t138 49t138.5 -48t52.5 -130t-52.5 -130t-138.5 -48t-138 49zM663 1908q-42 -40 -42 -106t42 -105.5t107 -39.5q68 0 109 40t41 105q0 66 -41 106t-109 40q-65 0 -107 -40zM2269 1536v-1556h-26l-967 1413v-840q0 -170 -65.5 -300
t-186.5 -201.5t-279 -71.5t-277.5 71.5t-185 202.5t-65.5 303v979h86v-983q0 -160 55.5 -281.5t156.5 -189.5t235 -68q145 0 254.5 66.5t170 189.5t60.5 283v1003h27l14 -20l952 -1395v1395h41z" />
    <glyph glyph-name="f_b.dlig" horiz-adv-x="2009" 
d="M334 1087h409v-32h-409v-1055h-82v1055h-215v32h215v220q0 139 86 225t225 86q45 0 92 -13.5t82 -37.5l-8 -17q-31 14 -75 23.5t-81 9.5q-109 0 -174 -74.5t-65 -195.5v-226zM1676.5 1037.5q103.5 -70.5 159.5 -198.5t56 -296t-56 -295t-159.5 -197.5t-238.5 -70.5
t-246 81.5t-160 217.5l-12 -279h-64v1597h82v-772q53 129 161 206t239 77q135 0 238.5 -70.5zM1623 80.5q87 66.5 135 186.5t48 276q0 158 -48 277.5t-135 186t-200 66.5q-125 0 -231.5 -90t-153.5 -235v-408q47 -145 153.5 -235.5t231.5 -90.5q113 0 200 66.5z" />
    <glyph glyph-name="f_b.dlig.salt" horiz-adv-x="2009" 
d="M334 1087h409v-32h-409v-1055h-82v1055h-215v32h215v220q0 139 86 225t225 86q45 0 92 -13.5t82 -37.5l-8 -17q-31 14 -75 23.5t-81 9.5q-109 0 -174 -74.5t-65 -195.5v-226zM1676.5 1037.5q103.5 -70.5 159.5 -198.5t56 -296t-56 -295t-159.5 -197.5t-238.5 -70.5
q-137 0 -250 85t-160 224l-51 -309h-21v1617h82v-772q53 129 161 206t239 77q135 0 238.5 -70.5zM1623 80.5q87 66.5 135 186.5t48 276q0 158 -48 277.5t-135 186t-200 66.5q-125 0 -231.5 -90t-153.5 -235v-408q47 -145 153.5 -235.5t231.5 -90.5q113 0 200 66.5z" />
    <glyph glyph-name="f_f_b.dlig" horiz-adv-x="2697" 
d="M1024 1087h408v-32h-408v-1055h-82v1055h-608v-1055h-82v1055h-215v32h215v220q0 139 86 225t225 86q53 0 108.5 -18.5t94.5 -51.5l-8 -16q-37 23 -89.5 37t-95.5 14q-109 0 -174 -74.5t-65 -195.5v-226h608v220q0 139 85 225t226 86q45 0 92.5 -13.5t79.5 -37.5l-8 -17
q-29 14 -74 23.5t-81 9.5q-106 0 -172 -74.5t-66 -195.5v-226zM2364.5 1037.5q103.5 -70.5 159.5 -198.5t56 -296t-56 -295t-159.5 -197.5t-238.5 -70.5q-137 0 -248 82.5t-158 220.5l-12 -283h-63v1597h81v-776q51 129 160 208t240 79q135 0 238.5 -70.5zM2311 80.5
q87 66.5 135 186.5t48 276q0 158 -48 277.5t-135 186t-200 66.5q-125 0 -231 -90t-154 -235v-408q47 -145 154 -235.5t231 -90.5q113 0 200 66.5z" />
    </font>
</defs>
</svg>
