<?xml version="1.0" standalone="no"?>
<!DOCTYPE svg PUBLIC "-//W3C//DTD SVG 1.1//EN" "http://www.w3.org/Graphics/SVG/1.1/DTD/svg11.dtd" >
<svg xmlns="http://www.w3.org/2000/svg" xmlns:xlink="http://www.w3.org/1999/xlink" version="1.1">
<metadata>
Created by FontForge 20201107 at Fri May 11 09:43:33 2018
 By 
Copyright (c) 2018 by Moritz Kleinsorge &#38; Alberto Romanos. All rights reserved.
</metadata>
<defs>
<font id="bwvivantblack-bwvivantblack" horiz-adv-x="0" >
  <font-face 
    font-family="bw-vivant-black"
    font-weight="900"
    font-stretch="normal"
    units-per-em="2048"
    panose-1="0 0 10 0 0 0 0 0 0 0"
    ascent="1597"
    descent="-451"
    x-height="1116"
    cap-height="1536"
    bbox="-1747 -573 5460 2050"
    underline-thickness="0"
    underline-position="0"
    unicode-range="U+000D-FB02"
  />
<missing-glyph horiz-adv-x="2541" 
d="M1694 -6q-14 -14 -35 -14q-27 0 -34 13t-7 34v663l-694 -696q-14 -14 -35 -14q-27 0 -34 13t-7 34v663l-696 -696q-14 -14 -35 -14q-14 0 -24.5 10t-10.5 26q0 20 10 31l701 698h-664q-47 0 -47 39q0 18 14 33l697 701h-670q-18 0 -29.5 10t-11.5 28v3q0 18 11 28t30 10
h758q20 0 33.5 -7t13.5 -34q0 -18 -17 -34l-698 -697h676q16 0 28.5 -12t12.5 -29v-669l694 692q16 16 35 16q37 0 37 -45v-663l696 692q16 16 33 16q14 0 24.5 -11t10.5 -28q0 -16 -13 -28z" />
    <glyph glyph-name="uniFB01" unicode="fi" horiz-adv-x="1581" 
d="M1101.5 1290.5q-57.5 55.5 -57.5 145.5t58.5 144t152.5 54t152.5 -54t58.5 -144t-57 -145.5t-154 -55.5q-96 0 -153.5 55.5zM588 1116h293v-33h-293v-1083h-381v1083h-195v33h195v109q0 117 53 206t149.5 138t221.5 49q66 0 133 -18.5t115 -49.5l-9 -18
q-20 10 -48.5 18.5t-53.5 8.5q-82 0 -131 -70t-49 -186v-187zM1065 1116h381v-1116h-381v1116z" />
    <glyph glyph-name="uniFB02" unicode="fl" horiz-adv-x="1581" 
d="M588 1116h293v-33h-293v-1083h-381v1083h-195v33h195v109q0 117 53 206t149.5 138t221.5 49q66 0 133 -18.5t115 -49.5l-9 -18q-20 10 -48.5 18.5t-53.5 8.5q-82 0 -131 -70t-49 -186v-187zM1446 1597v-1597h-381v1597h381z" />
    <glyph glyph-name="f_f.liga" unicode="ff" horiz-adv-x="1757" 
d="M1492 1488q-54 -71 -54 -185v-187h313v-33h-313v-1083h-381v1083h-469v-1083h-381v1083h-195v33h195v109q0 117 53 206t149.5 138t221.5 49q80 0 160.5 -25.5t140.5 -68.5l-8 -21q-31 25 -74 40.5t-82 15.5q-82 0 -131 -70t-49 -186v-187h469v109q0 117 53 206t148.5 138
t220.5 49q100 0 193 -32t151 -83l-13 -16q-39 33 -86 52.5t-88 19.5q-90 0 -144 -71z" />
    <glyph glyph-name="f_f_i.liga" unicode="ffi" horiz-adv-x="2430" 
d="M1951.5 1290.5q-57.5 55.5 -57.5 145.5t57.5 144t153.5 54q94 0 152.5 -54t58.5 -144t-57 -145.5t-154 -55.5q-96 0 -153.5 55.5zM1438 1116h293v-33h-293v-1083h-381v1083h-469v-1083h-381v1083h-195v33h195v109q0 117 53 206t149.5 138t221.5 49q80 0 160.5 -25.5
t140.5 -68.5l-8 -21q-31 25 -74 40.5t-82 15.5q-82 0 -131 -70t-49 -186v-187h469v109q0 117 53 206t148.5 138t220.5 49q66 0 133 -18.5t117 -49.5l-9 -18q-20 10 -49 18.5t-53 8.5q-82 0 -131 -70t-49 -186v-187zM1915 1116h381v-1116h-381v1116z" />
    <glyph glyph-name="f_f_l.liga" unicode="ffl" horiz-adv-x="2430" 
d="M1438 1116h293v-33h-293v-1083h-381v1083h-469v-1083h-381v1083h-195v33h195v109q0 117 53 206t149.5 138t221.5 49q80 0 160.5 -25.5t140.5 -68.5l-8 -21q-31 25 -74 40.5t-82 15.5q-82 0 -131 -70t-49 -186v-187h469v109q0 117 53 206t148.5 138t220.5 49
q66 0 133 -18.5t117 -49.5l-9 -18q-20 10 -49 18.5t-53 8.5q-82 0 -131 -70t-49 -186v-187zM2296 1597v-1597h-381v1597h381z" />
    <glyph glyph-name=".notdef" horiz-adv-x="2541" 
d="M1694 -6q-14 -14 -35 -14q-27 0 -34 13t-7 34v663l-694 -696q-14 -14 -35 -14q-27 0 -34 13t-7 34v663l-696 -696q-14 -14 -35 -14q-14 0 -24.5 10t-10.5 26q0 20 10 31l701 698h-664q-47 0 -47 39q0 18 14 33l697 701h-670q-18 0 -29.5 10t-11.5 28v3q0 18 11 28t30 10
h758q20 0 33.5 -7t13.5 -34q0 -18 -17 -34l-698 -697h676q16 0 28.5 -12t12.5 -29v-669l694 692q16 16 35 16q37 0 37 -45v-663l696 692q16 16 33 16q14 0 24.5 -11t10.5 -28q0 -16 -13 -28z" />
    <glyph glyph-name="glyph1" 
 />
    <glyph glyph-name="uni000D" unicode="&#xd;" horiz-adv-x="483" 
 />
    <glyph glyph-name="space" unicode=" " horiz-adv-x="483" 
 />
    <glyph glyph-name="exclam" unicode="!" horiz-adv-x="602" 
d="M289 444q0 188 -37 336t-100 314q-35 98 -48.5 142t-13.5 83q0 104 55.5 170.5t155.5 66.5t155.5 -66.5t55.5 -170.5q0 -39 -13.5 -83t-47.5 -142q-63 -166 -100.5 -313.5t-37.5 -336.5h-24zM442.5 31q-53.5 -51 -141.5 -51t-141.5 50t-53.5 134t52.5 134t142.5 50
q88 0 141.5 -50t53.5 -134q0 -82 -53.5 -133z" />
    <glyph glyph-name="quotedbl" unicode="&#x22;" horiz-adv-x="839" 
d="M610 1077l-125 361q-8 23 -8 45q0 57 44 96t108 39q63 0 108 -41t45 -98q0 -20 -10 -47l-133 -355h-29zM193 1077l-125 361q-8 23 -9 45q0 57 44 96t108 39q63 0 108 -41t46 -98q0 -20 -11 -47l-133 -355h-28z" />
    <glyph glyph-name="numbersign" unicode="#" horiz-adv-x="1460" 
d="M1069 840l-86 -406h320l-7 -33h-321l-84 -401h-41l84 401h-510l-84 -401h-41l84 401h-320l7 33h321l86 406h-319l6 32h319l82 385h41l-82 -385h510l82 385h41l-82 -385h320l-6 -32h-320zM1028 840h-510l-86 -406h510z" />
    <glyph glyph-name="dollar" unicode="$" horiz-adv-x="1220" 
d="M1070 184.5q-71 -102.5 -188.5 -152.5t-263.5 -52v-185h-40v185q-152 8 -288 69.5t-233 165.5l21 25q74 -86 182.5 -136.5t214.5 -50.5q125 0 201 70t76 186q0 80 -38 139.5t-93.5 102.5t-151.5 102q-115 72 -182.5 126.5t-115.5 140.5t-48 204q0 195 128 311.5
t337 120.5v185h41v-185q131 -4 251.5 -50t198.5 -117l-16 -25q-70 53 -157 86t-161 33q-106 0 -171.5 -62.5t-65.5 -167.5q0 -76 37 -134t92 -100t149 -99q115 -70 185.5 -127.5t120 -146.5t49.5 -212q0 -147 -71 -249.5z" />
    <glyph glyph-name="percent" unicode="%" horiz-adv-x="1945" 
d="M1777.5 108.5q-102.5 -118.5 -270.5 -118.5q-111 0 -196.5 54t-133 151.5t-47.5 226.5t47.5 227.5t133.5 152.5t196 54q168 0 270.5 -120t102.5 -314q0 -195 -102.5 -313.5zM1431.5 125q28.5 -113 75.5 -113q45 0 73 113t28 297t-28 298t-73 114q-47 0 -75.5 -113
t-28.5 -299q0 -184 28.5 -297zM375 0l1151 1536h45l-1151 -1536h-45zM710.5 801q-102.5 -119 -270.5 -119q-111 0 -196.5 54.5t-133 151.5t-47.5 226t47.5 227.5t133.5 152.5t196 54q168 0 270.5 -119.5t102.5 -314.5q0 -194 -102.5 -313zM364.5 817.5
q28.5 -112.5 75.5 -112.5q45 0 73 112.5t28 296.5t-28 298t-73 114q-47 0 -75.5 -113t-28.5 -299q0 -184 28.5 -296.5z" />
    <glyph glyph-name="ampersand" unicode="&#x26;" horiz-adv-x="1597" 
d="M1171 0l-141 147q-109 -82 -235.5 -124.5t-257.5 -42.5q-209 0 -335 102t-126 276q0 129 72.5 239t226.5 241q-162 209 -162 366q0 106 61.5 186t171 123t252.5 43q127 0 254 -40.5t203 -108.5l-14 -23q-74 49 -161 78t-169 29q-100 0 -160.5 -59.5t-60.5 -157.5
q0 -96 64.5 -198.5t185.5 -231.5l391 -414q70 115 109.5 255t41.5 292h29q0 -328 -154 -576l379 -401h-465zM993 186l-532 551q-20 20 -58 66q-63 -115 -63 -258q0 -104 59.5 -202.5t158.5 -160t212 -61.5q114 -1 223 65z" />
    <glyph glyph-name="quotesingle" unicode="'" horiz-adv-x="421" 
d="M193 1077l-125 361q-8 23 -9 45q0 57 44 96t108 39q63 0 108.5 -41t45.5 -98q0 -20 -11 -47l-133 -355h-28z" />
    <glyph glyph-name="parenleft" unicode="(" horiz-adv-x="473" 
d="M180.5 57q-100.5 301 -100.5 588q0 307 100.5 608t263.5 488h31q-158 -186 -254 -488.5t-96 -607.5q0 -281 96 -583t254 -513h-31q-163 207 -263.5 508z" />
    <glyph glyph-name="parenright" unicode=")" horiz-adv-x="473" 
d="M295 1253q100 -301 100 -608q0 -287 -100 -588t-264 -508h-31q158 211 254 513.5t96 582.5q0 305 -96 607t-254 489h31q164 -187 264 -488z" />
    <glyph glyph-name="asterisk" unicode="*" horiz-adv-x="747" 
d="M403 1430l166 -222l-32 -24l-162 229l-162 -229l-33 24l166 222l-264 83l12 39l264 -90l-4 279h41l-4 -279l264 90l13 -39z" />
    <glyph glyph-name="plus" unicode="+" horiz-adv-x="970" 
d="M844 557h-338v-332h-41v332h-338v33h338v332h41v-332h338v-33z" />
    <glyph glyph-name="comma" unicode="," horiz-adv-x="636" 
d="M484.5 348q66.5 -82 66.5 -215q0 -180 -99.5 -327.5t-261.5 -208.5l-14 26q141 68 226 192t94 273q-29 -51 -83.5 -79.5t-123.5 -28.5q-92 0 -149.5 62t-57.5 163q0 100 62.5 162.5t164.5 62.5q109 0 175.5 -82z" />
    <glyph glyph-name="hyphen" unicode="-" horiz-adv-x="978" 
d="M102 557v33h772v-33h-772z" />
    <glyph glyph-name="period" unicode="." horiz-adv-x="620" 
d="M475.5 42q-63.5 -62 -166.5 -62q-102 0 -164.5 62t-62.5 163q0 100 62.5 162.5t164.5 62.5t166 -62.5t64 -162.5q0 -101 -63.5 -163z" />
    <glyph glyph-name="slash" unicode="/" horiz-adv-x="1077" 
d="M37 -451l958 2192h45l-958 -2192h-45z" />
    <glyph glyph-name="zero" unicode="0" horiz-adv-x="1511" 
d="M1328 355q-81 -179 -228 -277t-342 -98t-343 98t-231 277q-82 179 -82 413q0 233 82 413q82 179 231 277q148 98 343 98t342 -98t228 -277t81 -413t-81 -413zM550 372q30 -171 83 -266q53 -94 125 -94q70 0 123 94t83 267q30 172 29 395q0 223 -29 395q-30 172 -83 267
q-53 94 -123 94q-72 0 -125 -94t-83 -266q-30 -171 -30 -396t30 -396z" />
    <glyph glyph-name="one" unicode="1" horiz-adv-x="997" 
d="M823 1556v-1556h-393v1329l-395 -207l-15 27l773 407h30z" />
    <glyph glyph-name="two" unicode="2" horiz-adv-x="1259" 
d="M1190 33v-33h-1153v25q319 326 505 621q185 296 185 511q0 139 -76 232q-76 92 -200 92q-80 0 -176 -39q-95 -39 -166 -99l-15 23q92 86 231 138q138 52 285 52q156 0 278 -58t189 -163q68 -104 68 -241q0 -221 -173 -504t-462 -557h680z" />
    <glyph glyph-name="three" unicode="3" horiz-adv-x="1337" 
d="M1106 682q135 -111 135 -274q0 -127 -75 -225q-75 -97 -211 -150t-316 -53q-166 0 -327 56t-255 146l21 25q78 -70 181 -112t198 -42q166 0 266 103q100 102 100 270t-104 270t-275 103h-32v32h22q150 0 242 94q92 93 92 244q0 141 -81 228q-81 86 -214 86
q-90 0 -185 -36t-157 -95l-18 24q88 80 221 130t262 50q176 0 309 -46t207 -130t74 -192q0 -145 -120 -244q-120 -98 -325 -125q230 -26 365 -137z" />
    <glyph glyph-name="four" unicode="4" horiz-adv-x="1347" 
d="M1290 342h-188v-342h-391v342h-688v25l1050 1189h29v-1181h188v-33zM711 375v717l-633 -717h633z" />
    <glyph glyph-name="five" unicode="5" horiz-adv-x="1280" 
d="M913 936q139 -63 215 -178t76 -264q0 -152 -81 -269t-227 -181q-146 -65 -339 -64q-147 0 -285 55q-137 55 -217 149l17 21q63 -68 153 -109t172 -41q117 0 205 55q88 54 137 153t49 231q0 129 -46 227t-131 151t-195 54q-61 0 -127 -23t-113 -61l-14 24l96 670h887v-33
h-502l-72 -504h21q182 0 321 -63z" />
    <glyph glyph-name="six" unicode="6" horiz-adv-x="1415" 
d="M1084 914q118 -58 183 -165q65 -108 64 -247q0 -156 -77 -274t-216 -183q-139 -66 -323 -65q-182 0 -322 93q-139 93 -216 264t-77 394q0 244 93 431q92 187 259 291q167 103 386 103q123 0 245 -39q123 -40 205 -106l-10 -22q-57 39 -140 63q-83 25 -161 25
q-121 0 -216 -78t-156 -220q-60 -142 -79 -335q53 61 128 95t159 34q153 -1 271 -59zM859 142q54 130 54 341q0 193 -54 310t-144 116q-49 0 -102 -36q-52 -36 -93 -97q-2 -33 -2 -102q0 -197 25 -346q25 -150 68 -233q44 -83 104 -83q90 0 144 130z" />
    <glyph glyph-name="seven" unicode="7" horiz-adv-x="1214" 
d="M1174 1536v-25l-582 -1511h-406l580 1503h-739v33h1147z" />
    <glyph glyph-name="eight" unicode="8" horiz-adv-x="1464" 
d="M1235 678q135 -111 135 -275q0 -127 -80 -223t-224 -148t-335 -52q-188 0 -333 52q-144 52 -224 148t-80 223q0 164 135 275t363 137q-203 27 -321 122t-117 237q0 113 71 199q72 87 203 135t303 48t303 -48t204 -135t73 -199q0 -141 -118 -237q-118 -95 -323 -122
q230 -26 365 -137zM615 1427q-44 -96 -44 -253q0 -156 44 -250t116 -95q74 0 118 95q44 94 44 250q0 158 -44 253q-44 96 -118 97q-72 -1 -116 -97zM892 120q60 108 60 283q0 178 -60 286t-161 108q-98 0 -160 -108q-61 -108 -61 -286q0 -176 61 -283q61 -108 160 -108
q101 0 161 108z" />
    <glyph glyph-name="nine" unicode="9" horiz-adv-x="1413" 
d="M1011 1458q144 -98 223 -277t79 -415q0 -233 -87 -412q-87 -178 -246 -276t-364 -98q-139 0 -274 39q-135 40 -217 106l12 22q61 -43 148 -69q86 -27 166 -27q125 0 222 87t154 247t66 371q-51 -72 -128 -112t-165 -40q-154 0 -271 56q-118 56 -183 159q-65 102 -64 236
q0 150 74 263q74 114 209 176t313 62q189 0 333 -98zM801 709q53 41 94 112v2q0 207 -28 366t-76 247q-49 88 -113 88q-82 0 -130 -124t-48 -327q0 -182 54 -294t142 -111q52 0 105 41z" />
    <glyph glyph-name="colon" unicode=":" horiz-adv-x="671" 
d="M502 749q-63 -62 -166 -63q-102 0 -165 63q-62 62 -62 162t62 163q62 62 165 63q102 0 166 -63q63 -62 63 -163q0 -100 -63 -162zM502 42q-63 -62 -166 -62q-102 0 -165 62q-62 62 -62 163q0 100 62 163q62 62 165 62q102 0 166 -62q63 -62 63 -163t-63 -163z" />
    <glyph glyph-name="semicolon" unicode=";" horiz-adv-x="681" 
d="M502 749q-63 -62 -166 -63q-102 0 -165 63q-62 62 -62 162t62 163q62 62 165 63q102 0 166 -63q63 -62 63 -163q0 -100 -63 -162zM511 348q67 -82 67 -215q0 -180 -100 -328q-99 -147 -261 -208l-14 26q141 68 226 192t93 273q-29 -51 -83 -80t-124 -28q-92 0 -149 62
t-57 163q0 100 62 163q62 62 165 62q108 0 175 -82z" />
    <glyph glyph-name="less" unicode="&#x3c;" horiz-adv-x="970" 
d="M88 590l717 287v-37l-664 -267l664 -245v-37l-717 266v33z" />
    <glyph glyph-name="equal" unicode="=" horiz-adv-x="970" 
d="M127 705v32h717v-32h-717zM127 410v32h717v-32h-717z" />
    <glyph glyph-name="greater" unicode="&#x3e;" horiz-adv-x="970" 
d="M166 291v37l663 245l-663 267v37l717 -287v-33z" />
    <glyph glyph-name="question" unicode="?" horiz-adv-x="1155" 
d="M469 444v19q0 141 29.5 240.5t85.5 222.5q43 92 63.5 154.5t20.5 136.5q0 121 -71 193.5t-187 72.5q-86 0 -181.5 -39t-162.5 -103l-17 25q98 86 237.5 138t274.5 52q156 0 273.5 -45t183 -126.5t65.5 -188.5q0 -90 -45 -164t-110.5 -129t-169.5 -127
q-92 -63 -143.5 -106t-86 -95.5t-34.5 -111.5v-19h-25zM620.5 31q-53.5 -51 -139.5 -51q-88 0 -141 51t-53 133q0 84 53 134t141 50q86 0 139.5 -51t53.5 -133t-53.5 -133z" />
    <glyph glyph-name="at" unicode="@" horiz-adv-x="2170" 
d="M1573 1047v-766q0 -84 37 -134.5t100 -50.5q90 0 166 72t121 202t45 296q0 256 -120 450.5t-338 301t-503 106.5q-287 0 -504 -122t-336.5 -344t-119.5 -515q0 -291 119.5 -513.5t338 -345t502.5 -122.5q152 0 316 42t280 111l11 -20q-121 -76 -293 -121t-332 -45
q-293 0 -517 127t-347 356.5t-123 530.5t125 531.5t353 356t527 125.5t526.5 -110.5t353.5 -312t126 -467.5q0 -299 -127 -473.5t-369 -174.5q-145 0 -242.5 60.5t-136.5 171.5q-27 -104 -104.5 -168t-175.5 -64q-127 0 -225.5 66t-151.5 184.5t-53 274.5t53 274.5
t151.5 184t225.5 65.5q98 0 176 -64.5t104 -168.5l23 213h338zM1131.5 153.5q37.5 51.5 60.5 135.5v506q-23 84 -60.5 135t-78.5 51q-68 0 -109 -121t-41 -317q0 -197 41 -319t109 -122q41 0 78.5 51.5z" />
    <glyph glyph-name="A" unicode="A" horiz-adv-x="1419" 
d="M850 375h-643l-160 -375h-43l664 1556h30l729 -1556h-403zM834 408l-320 686l-293 -686h613z" />
    <glyph glyph-name="B" unicode="B" horiz-adv-x="1396" 
d="M1183.5 680.5q139.5 -105.5 139.5 -264.5q0 -123 -83 -217.5t-232.5 -146.5t-348.5 -52h-489v1536h489q174 0 306.5 -46t206 -131t73.5 -194q0 -139 -118.5 -232t-321.5 -120q239 -27 378.5 -132.5zM765.5 1410q-63.5 93 -165.5 93h-37v-674h37q102 0 165.5 92.5
t63.5 243.5q0 152 -63.5 245zM822 138.5q85 105.5 85 277.5t-84 276.5t-223 104.5h-37v-764h37q137 0 222 105.5z" />
    <glyph glyph-name="C" unicode="C" horiz-adv-x="1468" 
d="M1205.5 43q-158.5 -63 -316.5 -63q-238 0 -419 98t-280.5 277.5t-99.5 412.5t99.5 412.5t280.5 277.5t419 98q156 0 306.5 -52t242.5 -138l-19 -23q-76 61 -181 99.5t-200 38.5q-158 0 -278.5 -89t-186 -250t-65.5 -374q0 -211 66.5 -373t187.5 -251t280 -89
q98 0 209 48.5t195 129.5l18 -24q-100 -103 -258.5 -166z" />
    <glyph glyph-name="D" unicode="D" horiz-adv-x="1703" 
d="M1202.5 1439.5q196.5 -96.5 305 -270.5t108.5 -401t-108.5 -401t-305 -270.5t-454.5 -96.5h-578v1536h578q258 0 454.5 -96.5zM955.5 124q115.5 91 179 258t63.5 386t-63.5 386t-179 258t-267.5 91h-125v-1470h125q152 0 267.5 91z" />
    <glyph glyph-name="E" unicode="E" horiz-adv-x="1138" 
d="M1090 33v-33h-920v1536h907v-33h-514v-674h418v-32h-418v-764h527z" />
    <glyph glyph-name="F" unicode="F" horiz-adv-x="1136" 
d="M563 1503v-694h441v-33h-441v-776h-393v1536h942v-33h-549z" />
    <glyph glyph-name="G" unicode="G" horiz-adv-x="1632" 
d="M1528 815v-637q-106 -88 -282.5 -143t-356.5 -55q-238 0 -419 98t-280.5 277.5t-99.5 412.5t99.5 412.5t280.5 277.5t419 98q170 0 335 -56t259 -148l-15 -21q-88 68 -206.5 109t-223.5 41q-158 0 -278.5 -89t-186 -250t-65.5 -374q0 -211 66.5 -373t187.5 -251t280 -89
q45 0 95 6v754h391z" />
    <glyph glyph-name="H" unicode="H" horiz-adv-x="1572" 
d="M1401 1536v-1536h-391v797h-447v-797h-393v1536h393v-707h447v707h391z" />
    <glyph glyph-name="I" unicode="I" horiz-adv-x="733" 
d="M170 0v1536h393v-1536h-393z" />
    <glyph glyph-name="J" unicode="J" horiz-adv-x="960" 
d="M744.5 166q-54.5 -88 -152.5 -137t-227 -49q-111 0 -199 29.5t-141 84.5l16 23q33 -33 81 -53.5t97 -20.5q84 0 135.5 68.5t51.5 179.5v1245h393v-1165q0 -117 -54.5 -205z" />
    <glyph glyph-name="K" unicode="K" horiz-adv-x="1509" 
d="M170 1536h393v-1536h-393v1536zM1548 0h-448l-508 809l788 727h52l-537 -496z" />
    <glyph glyph-name="L" unicode="L" horiz-adv-x="1116" 
d="M1094 33v-33h-924v1536h393v-1503h531z" />
    <glyph glyph-name="M" unicode="M" horiz-adv-x="1955" 
d="M1454 0l-88 936l-512 -956h-31l-579 960l-105 -940h-43l176 1556h33l711 -1198l637 1198h33l174 -1556h-406z" />
    <glyph glyph-name="N" unicode="N" horiz-adv-x="1572" 
d="M170 0v1556h33l1157 -1060v1040h41v-1556h-33l-1157 1060v-1040h-41z" />
    <glyph glyph-name="O" unicode="O" horiz-adv-x="1841" 
d="M1649.5 355.5q-103.5 -179.5 -292 -277.5t-435.5 -98q-248 0 -437.5 98t-293 277.5t-103.5 412.5t103.5 412.5t293 277.5t437.5 98t436 -98t291.5 -277.5t103.5 -412.5t-103.5 -412.5zM558 373q52 -172 146.5 -266.5t217.5 -94.5t217 94.5t146 266.5t52 395t-52 395
t-146.5 266.5t-216.5 94.5q-123 0 -217.5 -94.5t-146.5 -266.5t-52 -395t52 -395z" />
    <glyph glyph-name="P" unicode="P" horiz-adv-x="1368" 
d="M1013.5 1480.5q145.5 -55.5 226.5 -154.5t81 -228t-81 -228.5t-226.5 -153.5t-335.5 -54h-115v-662h-393v1536h508q190 0 335.5 -55.5zM825 806q80 112 80 292q0 182 -80 293.5t-207 111.5h-55v-809h55q127 0 207 112z" />
    <glyph glyph-name="Q" unicode="Q" horiz-adv-x="1841" 
d="M1638.5 335q-114.5 -185 -321.5 -278l301 -290l-29 -29l-313 303q-166 -61 -354 -61q-248 0 -437.5 98t-293 277.5t-103.5 412.5t103.5 412.5t293 277.5t437.5 98t436 -98t291.5 -277.5t103.5 -412.5q0 -248 -114.5 -433zM1171 143l-319 310l29 28l315 -305
q68 100 104.5 252t36.5 340q0 223 -52 395t-146.5 266.5t-216.5 94.5q-123 0 -217.5 -94.5t-146.5 -266.5t-52 -395t52 -395t146.5 -266.5t217.5 -94.5q143 0 249 131z" />
    <glyph glyph-name="R" unicode="R" horiz-adv-x="1480" 
d="M1466 0h-446l-453 705h-4v-705h-393v1536h518q188 0 331.5 -51t222.5 -145.5t79 -217.5q0 -135 -93 -234.5t-257 -146.5zM629 737q125 0 200.5 105.5t75.5 279.5q0 172 -75.5 276.5t-200.5 104.5h-66v-766h66z" />
    <glyph glyph-name="S" unicode="S" horiz-adv-x="1200" 
d="M1061 182.5q-72 -102.5 -191.5 -152.5t-265.5 -50q-164 0 -309 62t-246 173l21 25q74 -86 182 -136.5t213 -50.5q125 0 201.5 70t76.5 186q0 80 -37.5 139.5t-93 102.5t-151.5 102q-115 72 -182.5 126.5t-115.5 140.5t-48 204q0 199 132 315.5t351 116.5q135 0 263 -46
t210 -121l-16 -25q-70 53 -157 86t-163 33q-104 0 -169.5 -62.5t-65.5 -167.5q0 -76 36.5 -134t92 -100t149.5 -99q115 -70 185.5 -127.5t120 -146.5t49.5 -212q0 -149 -72 -251.5z" />
    <glyph glyph-name="T" unicode="T" horiz-adv-x="1406" 
d="M1393 1503h-494v-1503h-393v1503h-494v33h1381v-33z" />
    <glyph glyph-name="U" unicode="U" horiz-adv-x="1550" 
d="M1248.5 119q-142.5 -139 -398.5 -139q-201 0 -358.5 72.5t-246.5 205.5t-89 305v973h393v-1053q0 -133 45 -234.5t128 -156.5t191 -55q129 0 228.5 55t154 156.5t54.5 234.5v1053h41v-1042q0 -236 -142.5 -375z" />
    <glyph glyph-name="V" unicode="V" horiz-adv-x="1402" 
d="M1397 1536l-654 -1556h-30l-719 1556h403l498 -1092l459 1092h43z" />
    <glyph glyph-name="W" unicode="W" horiz-adv-x="1904" 
d="M1898 1536l-548 -1556h-33l-359 997l-352 -997h-33l-565 1556h404l354 -985l352 1005h33l358 -1003l346 983h43z" />
    <glyph glyph-name="X" unicode="X" horiz-adv-x="1449" 
d="M1028 0l-440 649l-516 -649h-52l543 686l-575 850h440l428 -633l510 633h53l-538 -668l587 -868h-440z" />
    <glyph glyph-name="Y" unicode="Y" horiz-adv-x="1447" 
d="M942 684v-684h-393v657l-526 879h438l465 -805l460 805h44z" />
    <glyph glyph-name="Z" unicode="Z" horiz-adv-x="1286" 
d="M14 0v25l817 1478h-745v33h1176v-23l-840 -1480h833v-33h-1241z" />
    <glyph glyph-name="bracketleft" unicode="[" horiz-adv-x="579" 
d="M201 1708v-2126h395v-33h-436v2192h436v-33h-395z" />
    <glyph glyph-name="backslash" unicode="\" horiz-adv-x="1077" 
d="M37 1741h45l958 -2192h-45z" />
    <glyph glyph-name="bracketright" unicode="]" horiz-adv-x="579" 
d="M420 1741v-2192h-436v33h395v2126h-395v33h436z" />
    <glyph glyph-name="asciicircum" unicode="^" horiz-adv-x="970" 
d="M57 870l414 666h29l413 -666h-43l-385 619l-385 -619h-43z" />
    <glyph glyph-name="underscore" unicode="_" horiz-adv-x="1017" 
d="M-27 -242v33h1071v-33h-1071z" />
    <glyph glyph-name="grave" unicode="`" horiz-adv-x="1228" 
d="M696 1174l-540 313l16 29l539 -316z" />
    <glyph glyph-name="a" unicode="a" horiz-adv-x="1243" 
d="M883.5 1089.5q111.5 -47.5 173 -133.5t61.5 -200v-756h-342l-20 190q-39 -94 -139.5 -152t-223.5 -58q-160 0 -257 88t-97 233q0 88 60.5 155.5t171 105.5t253.5 38h213v178q0 137 -73.5 218t-194.5 81q-78 0 -167 -33.5t-159 -89.5l-14 19q86 74 222 119t276 45
q145 0 256.5 -47.5zM662.5 118q46.5 42 74.5 111v338h-127q-78 0 -124 -68.5t-46 -181.5q0 -109 35 -175t92 -66q49 0 95.5 42z" />
    <glyph glyph-name="b" unicode="b" horiz-adv-x="1368" 
d="M1063 1065q111 -72 171 -203t60 -303t-60 -303t-171 -203.5t-254 -72.5q-111 0 -197 61t-116 160l-19 -201h-342v1597h381v-632q41 80 120 126t173 46q143 0 254 -72zM837.5 196.5q55.5 137.5 55.5 362.5t-55.5 361.5t-147.5 136.5q-51 0 -98 -48t-76 -128v-645
q25 -80 72 -128.5t102 -48.5q92 0 147.5 137.5z" />
    <glyph glyph-name="c" unicode="c" horiz-adv-x="1073" 
d="M863.5 23q-115.5 -43 -242.5 -43q-164 0 -288 71.5t-191.5 203.5t-67.5 304t67.5 303t191.5 203t288 72q113 0 221 -38t174 -98l-12 -16q-47 41 -108.5 66.5t-115.5 25.5q-92 0 -160.5 -64.5t-106.5 -182t-38 -271.5t39 -272.5t110.5 -183t166.5 -64.5q55 0 121.5 33.5
t115.5 83.5l14 -21q-63 -69 -178.5 -112z" />
    <glyph glyph-name="d" unicode="d" horiz-adv-x="1368" 
d="M1233 1597v-1597h-340l-21 201q-31 -100 -117.5 -160.5t-195.5 -60.5q-143 0 -252.5 72.5t-170 203.5t-60.5 303t60.5 303t170 203t252.5 72q96 0 174 -46.5t119 -123.5v630h381zM778 107.5q47 48.5 74 128.5v645q-23 80 -71 128t-103 48q-90 0 -145.5 -136.5
t-55.5 -361.5t55.5 -362.5t145.5 -137.5q53 0 100 48.5z" />
    <glyph glyph-name="e" unicode="e" horiz-adv-x="1263" 
d="M475 584v-25q0 -156 43 -273.5t122 -182t181 -64.5q74 0 160 31.5t154 89.5l12 -19q-78 -74 -209 -117.5t-270 -43.5q-176 0 -311.5 72.5t-209 203.5t-73.5 303t70.5 303t200.5 203t302 72q168 0 296 -69t198.5 -191.5t70.5 -284.5v-8h-737zM527 972q-46 -132 -52 -356
h336q0 219 -45 353.5t-119 134.5t-120 -132z" />
    <glyph glyph-name="f" unicode="f" horiz-adv-x="907" 
d="M642 1489q-54 -70 -54 -186v-187h313v-33h-313v-1083h-381v1083h-195v33h195v109q0 117 53 206t149.5 138t221.5 49q98 0 192.5 -31t151.5 -84l-14 -16q-37 31 -84.5 51.5t-88.5 20.5q-92 0 -146 -70z" />
    <glyph glyph-name="g" unicode="g" horiz-adv-x="1368" 
d="M1233 1116v-1079q0 -152 -82 -266.5t-232.5 -178t-347.5 -63.5q-113 0 -230.5 39t-193.5 102l15 23q63 -51 155.5 -83t178.5 -32q162 0 259 104.5t97 276.5v193q-39 -80 -118 -126t-175 -46q-143 0 -252.5 72.5t-170 203.5t-60.5 303t60.5 303t170 203t252.5 72
q113 0 199 -60.5t114 -161.5l21 201h340zM778 107.5q47 48.5 74 128.5v645q-23 80 -71 128t-103 48q-90 0 -145.5 -136.5t-55.5 -361.5t55.5 -362.5t145.5 -137.5q53 0 100 48.5z" />
    <glyph glyph-name="h" unicode="h" horiz-adv-x="1347" 
d="M1125.5 1041.5q95.5 -95.5 95.5 -253.5v-788h-381v905q0 66 -32 107t-81 41q-59 0 -117.5 -48.5t-93.5 -127.5v-877h-381v1597h381v-645q51 84 147.5 134.5t210.5 50.5q156 0 251.5 -95.5z" />
    <glyph glyph-name="i" unicode="i" horiz-adv-x="651" 
d="M479.5 1290.5q-57.5 -55.5 -153.5 -55.5t-153.5 55.5t-57.5 145.5t58 144t153 54q94 0 152.5 -54t58.5 -144t-57.5 -145.5zM135 0v1116h381v-1116h-381z" />
    <glyph glyph-name="j" unicode="j" horiz-adv-x="651" 
d="M479.5 1290.5q-57.5 -55.5 -153.5 -55.5t-153.5 55.5t-57.5 145.5t58 144t153 54q94 0 152.5 -54t58.5 -144t-57.5 -145.5zM401.5 -269q-114.5 -124 -335.5 -202l-11 20q80 80 80 398v1169h381v-1048q0 -213 -114.5 -337z" />
    <glyph glyph-name="k" unicode="k" horiz-adv-x="1298" 
d="M135 1597h381v-1597h-381v1597zM1331 0h-424l-364 606l637 510h53l-387 -309z" />
    <glyph glyph-name="l" unicode="l" horiz-adv-x="651" 
d="M135 0v1597h381v-1597h-381z" />
    <glyph glyph-name="m" unicode="m" horiz-adv-x="2009" 
d="M1790 1043.5q92 -93.5 92 -244.5v-799h-381v915q0 61 -28.5 99.5t-73.5 38.5q-57 0 -113.5 -48.5t-91.5 -130.5q6 -37 6 -75v-799h-381v915q0 61 -28.5 99.5t-73.5 38.5q-57 0 -112.5 -45t-88.5 -121v-887h-381v1116h342l19 -194q41 96 142 155.5t226 59.5
q117 0 198 -54.5t116 -152.5q47 94 147 150.5t221 56.5q152 0 244 -93.5z" />
    <glyph glyph-name="n" unicode="n" horiz-adv-x="1347" 
d="M1125.5 1041.5q95.5 -95.5 95.5 -253.5v-788h-381v905q0 66 -32 107t-81 41q-59 0 -117.5 -48.5t-93.5 -127.5v-877h-381v1116h342l19 -205q43 102 147.5 164t230.5 62q156 0 251.5 -95.5z" />
    <glyph glyph-name="o" unicode="o" horiz-adv-x="1351" 
d="M1204 256q-76 -131 -212 -203.5t-316 -72.5t-316.5 72.5t-212 203.5t-75.5 303t75.5 303t212 203t316.5 72t316 -72t212 -203t76 -303t-76 -303zM528.5 162.5q55.5 -150.5 147.5 -150.5t147.5 150.5t55.5 396.5t-55.5 395.5t-147.5 149.5t-147.5 -149.5t-55.5 -395.5
t55.5 -396.5z" />
    <glyph glyph-name="p" unicode="p" horiz-adv-x="1368" 
d="M1063 1065q111 -72 171 -203t60 -303t-60 -303t-171 -203.5t-254 -72.5q-96 0 -174 46t-119 126v-603h-381v1567h342l19 -201q33 100 117.5 161t195.5 61q143 0 254 -72zM837.5 196.5q55.5 137.5 55.5 362.5t-55.5 361.5t-147.5 136.5q-51 0 -98 -48t-76 -128v-645
q25 -80 72 -128.5t102 -48.5q92 0 147.5 137.5z" />
    <glyph glyph-name="q" unicode="q" horiz-adv-x="1368" 
d="M1233 1116v-1567h-381v603q-39 -80 -118 -126t-175 -46q-143 0 -252.5 72.5t-170 203.5t-60.5 303t60.5 303t170 203t252.5 72q113 0 199 -60.5t114 -161.5l21 201h340zM778 107.5q47 48.5 74 128.5v645q-23 80 -71 128t-103 48q-90 0 -145.5 -136.5t-55.5 -361.5
t55.5 -362.5t145.5 -137.5q53 0 100 48.5z" />
    <glyph glyph-name="r" unicode="r" horiz-adv-x="890" 
d="M632.5 1043.5q100.5 72.5 227.5 72.5v-33q-121 0 -216 -73.5t-128 -192.5v-817h-381v1116h342l19 -266q36 121 136.5 193.5z" />
    <glyph glyph-name="s" unicode="s" horiz-adv-x="1067" 
d="M954.5 157q-61.5 -85 -172 -131t-254.5 -46q-145 0 -272 47t-205 129l17 18q63 -63 159.5 -102t190.5 -39q104 0 165.5 44t61.5 122q0 55 -31.5 96t-79 67.5t-131.5 67.5q-102 47 -166.5 87t-109.5 105.5t-45 161.5q0 104 56.5 184.5t158.5 124.5t235 44q131 0 244 -42
t178 -112l-12 -18q-59 55 -137 87.5t-156 32.5q-82 0 -140 -37.5t-58 -113.5q0 -53 30.5 -91t77.5 -65.5t129 -64.5q104 -47 170 -87t112 -106.5t46 -165.5q0 -112 -61.5 -197z" />
    <glyph glyph-name="t" unicode="t" horiz-adv-x="935" 
d="M965 94q-59 -51 -150.5 -82.5t-191.5 -31.5q-125 0 -220.5 49t-148.5 137t-53 205v712h-189v33h189l356 389h25v-389h342v-33h-342v-792q0 -115 51 -183.5t137 -68.5q49 0 99.5 20.5t82.5 53.5z" />
    <glyph glyph-name="u" unicode="u" horiz-adv-x="1327" 
d="M1190 1116v-1116h-340l-21 195q-41 -96 -141 -155.5t-225 -59.5q-152 0 -244 93t-92 244v799h381v-913q0 -63 27.5 -101.5t74.5 -38.5q57 0 111.5 45.5t87.5 120.5v887h381z" />
    <glyph glyph-name="v" unicode="v" horiz-adv-x="1159" 
d="M1165 1116l-565 -1136h-31l-575 1136h418l360 -706l352 706h41z" />
    <glyph glyph-name="w" unicode="w" horiz-adv-x="1589" 
d="M1585 1116l-465 -1136h-28l-297 673l-271 -673h-30l-500 1136h395l293 -649l262 670h35l303 -672l262 651h41z" />
    <glyph glyph-name="x" unicode="x" horiz-adv-x="1183" 
d="M750 0l-316 471l-381 -471h-49l410 504l-410 612h449l295 -440l352 440h47l-379 -473l430 -643h-448z" />
    <glyph glyph-name="y" unicode="y" horiz-adv-x="1161" 
d="M1163 1116l-706 -1569h-41l164 367l-582 1202h418l360 -770l346 770h41z" />
    <glyph glyph-name="z" unicode="z" horiz-adv-x="1032" 
d="M12 0v20l588 1063h-534v33h942v-22l-584 -1061h577v-33h-989z" />
    <glyph glyph-name="braceleft" unicode="{" horiz-adv-x="499" 
d="M313.5 -372q59.5 -79 157.5 -79l-4 -20q-115 0 -184.5 84t-69.5 223v578q0 96 -48 155.5t-126 59.5h-10v33h10q78 0 126 59t48 156v577q0 139 69.5 223t184.5 84l4 -20q-98 0 -157.5 -79t-59.5 -208v-577q0 -90 -39 -150.5t-109 -81.5q70 -20 109 -81.5t39 -149.5v-578
q0 -129 59.5 -208z" />
    <glyph glyph-name="bar" unicode="|" horiz-adv-x="362" 
d="M160 -451v2192h41v-2192h-41z" />
    <glyph glyph-name="braceright" unicode="}" horiz-adv-x="499" 
d="M471 662v-33h-10q-78 0 -126 -59.5t-48 -155.5v-578q0 -139 -70 -223t-184 -84l-4 20q98 0 157.5 79t59.5 208v578q0 88 39 149.5t108 81.5q-70 20 -108.5 80.5t-38.5 151.5v577q0 129 -59.5 208t-157.5 79l4 20q115 0 184.5 -84t69.5 -223v-577q0 -96 48 -155.5
t126 -59.5h10z" />
    <glyph glyph-name="asciitilde" unicode="~" horiz-adv-x="970" 
d="M51 479q0 102 61.5 166t161.5 64q66 0 114 -29t110 -84q61 -53 104 -78.5t103 -25.5q84 0 136 54t52 142h29q0 -102 -61.5 -165.5t-162.5 -63.5q-66 0 -113.5 28.5t-109.5 83.5q-61 53 -104 79t-103 26q-84 0 -136 -54.5t-52 -142.5h-29z" />
    <glyph glyph-name="uni00A0" unicode="&#xa0;" horiz-adv-x="483" 
 />
    <glyph glyph-name="exclamdown" unicode="&#xa1;" horiz-adv-x="585" 
d="M434 820q-53 -50 -141 -50t-141.5 50t-53.5 134q0 82 53.5 132.5t141.5 50.5t141 -50.5t53 -132.5q0 -84 -53 -134zM448.5 -404.5q-55.5 -66.5 -155.5 -66.5t-155.5 66.5t-55.5 171.5q0 43 14.5 91t48.5 144q63 174 99.5 324.5t36.5 345.5h24q0 -195 36 -345.5t99 -324.5
q35 -96 49.5 -144t14.5 -91q0 -105 -55.5 -171.5z" />
    <glyph glyph-name="cent" unicode="&#xa2;" horiz-adv-x="1128" 
d="M891.5 233q-109.5 -43 -229.5 -45v-188h-41v188q-158 4 -277 78t-184.5 204t-65.5 298t65.5 298t184.5 203.5t277 78.5v188h41v-188q106 -2 209.5 -40t164.5 -96l-12 -18q-47 41 -108.5 66.5t-114.5 25.5q-92 0 -162 -64.5t-107.5 -182t-37.5 -271.5t39.5 -271.5
t111.5 -182t166 -64.5q57 0 122.5 32.5t115.5 82.5l14 -21q-62 -68 -171.5 -111z" />
    <glyph glyph-name="sterling" unicode="&#xa3;" horiz-adv-x="1294" 
d="M1231 33v-33h-1118v18q94 39 153.5 148.5t59.5 245.5q0 182 -56 344h-196v32h186l-14 41q-33 88 -49.5 151.5t-16.5 141.5q0 129 65.5 227.5t183.5 152.5t273 54q133 0 273.5 -52t238.5 -138l-16 -23q-68 61 -165 98.5t-189 37.5q-111 0 -179.5 -71t-68.5 -185
q0 -102 18.5 -181t55.5 -192l20 -62h354v-32h-344q41 -150 41 -285q0 -154 -96 -271.5t-258 -166.5h844z" />
    <glyph glyph-name="currency" unicode="&#xa4;" horiz-adv-x="1286" 
d="M1163 223l-229 228q-106 -106 -293 -107q-182 0 -289 102l-227 -227l-29 29l228 227q-90 109 -91 291q0 182 93 291l-228 227l29 29l225 -226q106 100 289 101q182 0 291 -105l229 230l29 -29l-229 -229q88 -111 88 -289q0 -176 -86 -287l229 -227zM909.5 480.5
q96.5 103.5 96.5 285.5t-96.5 285.5t-268.5 103.5t-268.5 -103.5t-96.5 -285.5t96.5 -285.5t268.5 -103.5t268.5 103.5z" />
    <glyph glyph-name="yen" unicode="&#xa5;" horiz-adv-x="1501" 
d="M969 694h270v-32h-276v-230h276v-33h-276v-399h-392v399h-266v33h266v221l-4 9h-262v32h242l-504 842h440l463 -805l461 805h43z" />
    <glyph glyph-name="brokenbar" unicode="&#xa6;" horiz-adv-x="362" 
d="M160 825v916h41v-916h-41zM160 -451v916h41v-916h-41z" />
    <glyph glyph-name="section" unicode="&#xa7;" horiz-adv-x="1400" 
d="M1286 384q-49 -95 -141 -163q57 -121 57 -256q0 -131 -64.5 -229t-183 -152.5t-272.5 -54.5q-137 0 -274.5 46t-221.5 122l15 22q72 -53 162 -84.5t165 -31.5q125 0 202 66.5t77 174.5q0 78 -25.5 138.5t-74.5 113.5h-7q-188 0 -332.5 62.5t-224.5 175t-80 260.5
q0 115 48.5 208t138.5 161q-53 96 -53 233q0 127 65.5 222t183 147.5t273.5 52.5q137 0 273 -46t222 -122l-16 -23q-76 53 -171 85t-177 32q-117 0 -187.5 -62.5t-70.5 -164.5q0 -129 92 -225h16q188 0 333 -62.5t223.5 -175.5t78.5 -260q0 -115 -49 -210zM540.5 257
q59.5 -128 159.5 -128q98 0 159 129t61 336t-60.5 336t-159.5 129q-100 0 -159.5 -128t-59.5 -337t59.5 -337z" />
    <glyph glyph-name="dieresis" unicode="&#xa8;" horiz-adv-x="1228" 
d="M394 1288q-46 -43 -120 -43q-76 0 -121 43q-46 43 -47 111q0 70 47 112q46 43 121 43q74 0 120 -43t46 -112q0 -68 -46 -111zM816 1288q-46 -43 -122 -43q-74 0 -120 43t-46 111q0 70 45 112q45 43 121 43t122 -43t46 -112q0 -68 -46 -111z" />
    <glyph glyph-name="copyright" unicode="&#xa9;" horiz-adv-x="1785" 
d="M1595.5 355.5q-100.5 -179.5 -283 -277.5t-419.5 -98q-238 0 -420 98t-282.5 277.5t-100.5 412.5q0 236 100.5 414t282.5 276t420 98t420 -98t282.5 -276t100.5 -414q0 -233 -100.5 -412.5zM229.5 374q94.5 -171 266.5 -266.5t397 -95.5t397 95.5t266.5 266.5t94.5 394
q0 225 -94.5 397t-266.5 265.5t-397 93.5t-397 -93.5t-266.5 -265.5t-94.5 -397q0 -223 94.5 -394zM1111 326.5q-101 -35.5 -212 -35.5q-137 0 -241.5 59.5t-162 168t-57.5 249.5q0 143 57.5 251.5t162 168t241.5 59.5q98 0 191.5 -30.5t152.5 -79.5l-12 -19
q-35 29 -79 44.5t-89 15.5q-100 0 -161.5 -113t-61.5 -297q0 -182 64.5 -294t168.5 -112q47 0 95.5 20.5t84.5 53.5l13 -16q-54 -58 -155 -93.5z" />
    <glyph glyph-name="ordfeminine" unicode="&#xaa;" horiz-adv-x="782" 
d="M592 1498q74 -58 74 -157v-421h-181l-10 112q-23 -55 -80 -90t-127 -35q-88 0 -143 50.5t-55 129.5q0 76 74.5 123t195.5 47h123v99q0 74 -41 117t-111 43q-45 0 -94 -17.5t-88 -46.5l-10 12q49 41 124.5 66.5t151.5 25.5q123 0 197 -58zM417.5 990.5
q28.5 25.5 45.5 64.5v180h-78q-45 0 -73.5 -38t-28.5 -99q0 -57 21.5 -95t55.5 -38q29 0 57.5 25.5z" />
    <glyph glyph-name="guillemotleft" unicode="&#xab;" horiz-adv-x="817" 
d="M80 567v13l307 387l21 -13l-254 -381l254 -380l-21 -13zM373 567v13l307 387l20 -13l-254 -381l254 -380l-20 -13z" />
    <glyph glyph-name="logicalnot" unicode="&#xac;" horiz-adv-x="970" 
d="M844 410h-41v278h-676v33h717v-311z" />
    <glyph glyph-name="uni00AD" unicode="&#xad;" horiz-adv-x="978" 
d="M102 557v33h772v-33h-772z" />
    <glyph glyph-name="registered" unicode="&#xae;" horiz-adv-x="1071" 
d="M776.5 1604.5q104.5 -54.5 161.5 -154.5t57 -231q0 -129 -57 -229.5t-161.5 -156t-239.5 -55.5q-137 0 -242 55.5t-162 156t-57 229.5q0 131 57 231t161.5 154.5t242.5 54.5q135 0 239.5 -54.5zM764 852q98 53 152.5 148.5t54.5 218.5q0 125 -54.5 220t-152.5 147
t-227 52t-228.5 -52t-154 -147.5t-54.5 -219.5q0 -123 54.5 -219.5t154 -148.5t228.5 -52t227 53zM659 1219l158 -256h-172l-135 221h-6h-25v-221h-168v522h193q104 0 168.5 -41t64.5 -109q0 -73 -78 -116zM479 1202q35 2 57.5 39t22.5 94t-22.5 93t-57.5 38v-264z" />
    <glyph glyph-name="macron" unicode="&#xaf;" horiz-adv-x="1228" 
d="M125 1315v33h668v-33h-668z" />
    <glyph glyph-name="degree" unicode="&#xb0;" horiz-adv-x="681" 
d="M537.5 1133.5q-74.5 -76.5 -197.5 -76.5q-121 0 -195.5 76.5t-74.5 203.5q0 125 74.5 203t195.5 78q123 0 197.5 -77t74.5 -204t-74.5 -203.5zM174.5 1157.5q63.5 -67.5 165.5 -67.5q104 0 167.5 67.5t63.5 179.5q0 111 -63.5 179.5t-167.5 68.5q-102 0 -165.5 -68.5
t-63.5 -179.5q0 -112 63.5 -179.5z" />
    <glyph glyph-name="plusminus" unicode="&#xb1;" horiz-adv-x="970" 
d="M844 725v-33h-338v-291h-41v291h-338v33h338v291h41v-291h338zM127 264h717v-33h-717v33z" />
    <glyph glyph-name="acute" unicode="&#xb4;" horiz-adv-x="1228" 
d="M135 1174l-14 26l536 316l17 -29z" />
    <glyph glyph-name="paragraph" unicode="&#xb6;" horiz-adv-x="1130" 
d="M149.5 1498q96.5 99 251.5 99h172v-2048h-41v1323h-131q-156 0 -252 99.5t-96 263.5t96.5 263zM934 1597v-2048h-41v2048h41z" />
    <glyph glyph-name="periodcentered" unicode="&#xb7;" horiz-adv-x="636" 
d="M483 501q-63 -62 -166 -63q-102 0 -164 63q-62 62 -63 163q0 100 63 162q62 62 164 63q102 0 166 -63q63 -62 64 -162q-1 -101 -64 -163z" />
    <glyph glyph-name="cedilla" unicode="&#xb8;" horiz-adv-x="1228" 
d="M487 -177q82 -44 82 -114q0 -82 -128 -131t-337 -49l5 20q94 0 151 42t57 110q0 47 -26 86q-27 39 -72 53l64 191l32 -31l-47 -131q137 -2 219 -46z" />
    <glyph glyph-name="ordmasculine" unicode="&#xba;" horiz-adv-x="813" 
d="M649 999.5q-92 -90.5 -241 -90.5q-150 0 -243 90.5t-93 235.5q0 143 92 232t244 89q150 0 241.5 -88t91.5 -233t-92 -235.5zM318.5 1015q33.5 -83 89.5 -83q53 0 86.5 83t33.5 220q0 135 -33.5 217t-86.5 82q-55 0 -89 -82t-34 -217q0 -137 33.5 -220z" />
    <glyph glyph-name="guillemotright" unicode="&#xbb;" horiz-adv-x="817" 
d="M410 193l254 380l-254 381l20 13l307 -387v-13l-307 -387zM117 193l254 380l-254 381l20 13l307 -387v-13l-307 -387z" />
    <glyph glyph-name="onequarter" unicode="&#xbc;" horiz-adv-x="1689" 
d="M1618 182h-94v-182h-258v182h-351v13l592 659h17v-649h94v-23zM1266 205v344l-312 -344h312zM174 0l1151 1536h45l-1151 -1536h-45zM518 1546v-854h-258v705l-194 -99l-11 21l447 227h16z" />
    <glyph glyph-name="onehalf" unicode="&#xbd;" horiz-adv-x="1642" 
d="M1567 23v-23h-658v14q164 180 260 346t97 275q0 76 -39 122t-107 46q-41 0 -88 -19q-47 -18 -82 -47l-10 17q53 47 132 74q79 28 161 28q137 0 221 -72t84 -188q0 -115 -89 -266q-89 -152 -241 -307h359zM174 0l1151 1536h45l-1151 -1536h-45zM518 1546v-854h-258v705
l-194 -99l-11 21l447 227h16z" />
    <glyph glyph-name="threequarters" unicode="&#xbe;" horiz-adv-x="1808" 
d="M1745 182h-94v-182h-258v182h-351v13l592 659h17v-649h94v-23zM1393 205v344l-312 -344h312zM303 0l1151 1536h45l-1151 -1536h-45zM666 1066q74 -58 73 -144q0 -109 -94 -174q-94 -66 -248 -66q-94 0 -187 31t-149 80l13 18q45 -33 97 -54q52 -22 95 -22q90 0 146 56
q55 55 55 145q0 86 -53 139t-142 53h-16v23h12q76 0 122 48t46 126t-45 124t-121 46q-43 0 -89 -18t-77 -45l-12 16q49 45 125 73t148 27q156 0 250 -57q95 -57 96 -152q0 -78 -67 -130t-179 -68q127 -17 201 -75z" />
    <glyph glyph-name="questiondown" unicode="&#xbf;" horiz-adv-x="1140" 
d="M809 821q-53 -51 -141 -51q-86 0 -139.5 51t-53.5 133t53.5 132.5t139.5 50.5q88 0 141 -50.5t53 -132.5t-53 -133zM862 -419q-139 -52 -274 -52q-156 0 -273.5 45t-183 127t-65.5 188q0 94 45 169t109.5 131.5t170.5 132.5q90 66 142.5 108.5t87 97t34.5 115.5v29h25
v-29q0 -145 -29.5 -247.5t-85.5 -229.5q-43 -90 -63.5 -155.5t-20.5 -141.5q0 -121 71 -193.5t187 -72.5q86 0 181.5 39t162.5 102l17 -25q-99 -86 -238 -138z" />
    <glyph glyph-name="Agrave" unicode="&#xc0;" horiz-adv-x="1419" 
d="M987 1622l-647 231l12 33l645 -235zM850 375h-643l-160 -375h-43l664 1556h30l729 -1556h-403zM834 408l-320 686l-293 -686h613z" />
    <glyph glyph-name="Aacute" unicode="&#xc1;" horiz-adv-x="1419" 
d="M387 1622l-10 29l643 235l12 -33zM850 375h-643l-160 -375h-43l664 1556h30l729 -1556h-403zM834 408l-320 686l-293 -686h613z" />
    <glyph glyph-name="Acircumflex" unicode="&#xc2;" horiz-adv-x="1419" 
d="M299 1630l-14 17l401 325l401 -325l-14 -17l-387 285zM850 375h-643l-160 -375h-43l664 1556h30l729 -1556h-403zM834 408l-320 686l-293 -686h613z" />
    <glyph glyph-name="Atilde" unicode="&#xc3;" horiz-adv-x="1419" 
d="M386 1825q-48 -43 -91 -125l-23 10q86 190 244 191q55 0 96 -25t93 -72q45 -43 79.5 -64.5t77.5 -21.5q74 0 122 42t91 122l23 -10q-84 -188 -244 -189q-55 0 -96 25t-94 74q-47 43 -81 64.5t-77 21.5q-72 0 -120 -43zM850 375h-643l-160 -375h-43l664 1556h30l729 -1556
h-403zM834 408l-320 686l-293 -686h613z" />
    <glyph glyph-name="Adieresis" unicode="&#xc4;" horiz-adv-x="1419" 
d="M595 1701q-46 -42 -120 -42q-76 0 -122 42t-46 111q0 70 46 112t122 42q74 0 120 -42t46 -112q0 -69 -46 -111zM1017 1701q-46 -42 -122 -42t-121 42t-45 111q0 70 45 112t121 42t122 -42t46 -112q0 -69 -46 -111zM850 375h-643l-160 -375h-43l664 1556h30l729 -1556
h-403zM834 408l-320 686l-293 -686h613z" />
    <glyph glyph-name="Aring" unicode="&#xc5;" horiz-adv-x="1419" 
d="M844.5 1680.5q-60.5 -58.5 -160.5 -58.5q-98 0 -158.5 58.5t-60.5 152.5t60.5 152.5t158.5 58.5q100 0 160.5 -58.5t60.5 -152.5t-60.5 -152.5zM555 1703q49 -48 129 -48q82 0 131 48t49 130t-49 130t-131 48q-80 0 -129 -48t-49 -130t49 -130zM850 375h-643l-160 -375
h-43l664 1556h30l729 -1556h-403zM834 408l-320 686l-293 -686h613z" />
    <glyph glyph-name="AE" unicode="&#xc6;" horiz-adv-x="1951" 
d="M1905 33v-33h-922l-61 467h-662l-237 -467h-46l783 1536h1130v-33h-708l90 -672h524v-32h-520l102 -766h527zM918 500l-134 997l-508 -997h642z" />
    <glyph glyph-name="Ccedilla" unicode="&#xc7;" horiz-adv-x="1468" 
d="M1210.5 46.5q-153.5 -62.5 -309.5 -66.5l-39 -111q137 -2 220 -46t83 -114q0 -82 -128 -131t-337 -49l5 20q94 0 151 42t57 110q0 47 -27.5 86t-72.5 53l47 140q-229 6 -403 105t-270.5 276.5t-96.5 406.5q0 233 99.5 412.5t280.5 277.5t419 98q156 0 306.5 -52
t242.5 -138l-19 -23q-76 61 -181 99.5t-200 38.5q-158 0 -278.5 -89t-186 -250t-65.5 -374q0 -211 66.5 -373t187.5 -251t280 -89q98 0 209 48.5t195 129.5l18 -24q-100 -100 -253.5 -162.5z" />
    <glyph glyph-name="Egrave" unicode="&#xc8;" horiz-adv-x="1138" 
d="M936 1622l-647 231l12 33l645 -235zM1090 33v-33h-920v1536h907v-33h-514v-674h418v-32h-418v-764h527z" />
    <glyph glyph-name="Eacute" unicode="&#xc9;" horiz-adv-x="1138" 
d="M336 1622l-10 29l643 235l12 -33zM1090 33v-33h-920v1536h907v-33h-514v-674h418v-32h-418v-764h527z" />
    <glyph glyph-name="Ecircumflex" unicode="&#xca;" horiz-adv-x="1138" 
d="M250 1630l-14 17l401 325l401 -325l-14 -17l-387 285zM1090 33v-33h-920v1536h907v-33h-514v-674h418v-32h-418v-764h527z" />
    <glyph glyph-name="Edieresis" unicode="&#xcb;" horiz-adv-x="1138" 
d="M546 1701q-46 -42 -120 -42q-76 0 -122 42t-46 111q0 70 46 112t122 42q74 0 120 -42t46 -112q0 -69 -46 -111zM968 1701q-46 -42 -122 -42t-121 42t-45 111q0 70 45 112t121 42t122 -42t46 -112q0 -69 -46 -111zM1090 33v-33h-920v1536h907v-33h-514v-674h418v-32h-418
v-764h527z" />
    <glyph glyph-name="Igrave" unicode="&#xcc;" horiz-adv-x="733" 
d="M643 1622l-641 231l12 33l639 -235zM170 0v1536h393v-1536h-393z" />
    <glyph glyph-name="Iacute" unicode="&#xcd;" horiz-adv-x="733" 
d="M90 1622l-10 29l639 235l12 -33zM170 0v1536h393v-1536h-393z" />
    <glyph glyph-name="Icircumflex" unicode="&#xce;" horiz-adv-x="733" 
d="M41 1630l-14 17l338 325l340 -325l-15 -17l-325 283zM170 0v1536h393v-1536h-393z" />
    <glyph glyph-name="Idieresis" unicode="&#xcf;" horiz-adv-x="733" 
d="M298 1701q-46 -42 -120 -42q-76 0 -122 42t-46 111q0 70 46 112t122 42q74 0 120 -42t46 -112q0 -69 -46 -111zM678 1701q-47 -42 -121 -42q-76 0 -121 42t-45 111q0 70 45 112t121 42q74 0 121 -42t47 -112q0 -69 -47 -111zM170 0v1536h393v-1536h-393z" />
    <glyph glyph-name="Eth" unicode="&#xd0;" horiz-adv-x="1724" 
d="M1222.5 1439.5q196.5 -96.5 305 -270.5t108.5 -401t-108.5 -401t-305 -270.5t-454.5 -96.5h-578v799h-172v32h172v705h578q258 0 454.5 -96.5zM976 124q116 91 179.5 258t63.5 386t-63.5 386t-179.5 258t-267 91h-125v-672h315v-32h-315v-766h125q151 0 267 91z" />
    <glyph glyph-name="Ntilde" unicode="&#xd1;" horiz-adv-x="1572" 
d="M507 1825q-48 -43 -91 -125l-23 10q86 190 244 191q55 0 96 -25t92 -72q45 -43 80 -64.5t78 -21.5q74 0 122 42t91 122l23 -10q-84 -188 -244 -189q-55 0 -96 25t-95 74q-47 43 -80.5 64.5t-76.5 21.5q-72 0 -120 -43zM170 0v1556h33l1157 -1060v1040h41v-1556h-33
l-1157 1060v-1040h-41z" />
    <glyph glyph-name="Ograve" unicode="&#xd2;" horiz-adv-x="1841" 
d="M1223 1622l-648 231l13 33l645 -235zM1649.5 355.5q-103.5 -179.5 -292 -277.5t-435.5 -98q-248 0 -437.5 98t-293 277.5t-103.5 412.5t103.5 412.5t293 277.5t437.5 98t436 -98t291.5 -277.5t103.5 -412.5t-103.5 -412.5zM558 373q52 -172 146.5 -266.5t217.5 -94.5
t217 94.5t146 266.5t52 395t-52 395t-146.5 266.5t-216.5 94.5q-123 0 -217.5 -94.5t-146.5 -266.5t-52 -395t52 -395z" />
    <glyph glyph-name="Oacute" unicode="&#xd3;" horiz-adv-x="1841" 
d="M623 1622l-11 29l643 235l13 -33zM1649.5 355.5q-103.5 -179.5 -292 -277.5t-435.5 -98q-248 0 -437.5 98t-293 277.5t-103.5 412.5t103.5 412.5t293 277.5t437.5 98t436 -98t291.5 -277.5t103.5 -412.5t-103.5 -412.5zM558 373q52 -172 146.5 -266.5t217.5 -94.5
t217 94.5t146 266.5t52 395t-52 395t-146.5 266.5t-216.5 94.5q-123 0 -217.5 -94.5t-146.5 -266.5t-52 -395t52 -395z" />
    <glyph glyph-name="Ocircumflex" unicode="&#xd4;" horiz-adv-x="1841" 
d="M535 1630l-15 17l402 325l401 -325l-14 -17l-387 285zM1649.5 355.5q-103.5 -179.5 -292 -277.5t-435.5 -98q-248 0 -437.5 98t-293 277.5t-103.5 412.5t103.5 412.5t293 277.5t437.5 98t436 -98t291.5 -277.5t103.5 -412.5t-103.5 -412.5zM558 373q52 -172 146.5 -266.5
t217.5 -94.5t217 94.5t146 266.5t52 395t-52 395t-146.5 266.5t-216.5 94.5q-123 0 -217.5 -94.5t-146.5 -266.5t-52 -395t52 -395z" />
    <glyph glyph-name="Otilde" unicode="&#xd5;" horiz-adv-x="1841" 
d="M621.5 1825q-48.5 -43 -91.5 -125l-22 10q86 190 244 191q55 0 96 -25t92 -72q45 -43 80 -64.5t78 -21.5q74 0 122 42t91 122l22 -10q-84 -188 -243 -189q-55 0 -96.5 25t-94.5 74q-47 43 -81 64.5t-77 21.5q-71 0 -119.5 -43zM1649.5 355.5q-103.5 -179.5 -292 -277.5
t-435.5 -98q-248 0 -437.5 98t-293 277.5t-103.5 412.5t103.5 412.5t293 277.5t437.5 98t436 -98t291.5 -277.5t103.5 -412.5t-103.5 -412.5zM558 373q52 -172 146.5 -266.5t217.5 -94.5t217 94.5t146 266.5t52 395t-52 395t-146.5 266.5t-216.5 94.5q-123 0 -217.5 -94.5
t-146.5 -266.5t-52 -395t52 -395z" />
    <glyph glyph-name="Odieresis" unicode="&#xd6;" horiz-adv-x="1841" 
d="M830.5 1701q-46.5 -42 -119.5 -42q-76 0 -122 42t-46 111q0 70 46 112t122 42q74 0 120 -42t46 -112q0 -69 -46.5 -111zM1252 1701q-46 -42 -122 -42t-120.5 42t-44.5 111q0 70 45 112t120 42q76 0 122 -42t46 -112q0 -69 -46 -111zM1649.5 355.5
q-103.5 -179.5 -292 -277.5t-435.5 -98q-248 0 -437.5 98t-293 277.5t-103.5 412.5t103.5 412.5t293 277.5t437.5 98t436 -98t291.5 -277.5t103.5 -412.5t-103.5 -412.5zM558 373q52 -172 146.5 -266.5t217.5 -94.5t217 94.5t146 266.5t52 395t-52 395t-146.5 266.5
t-216.5 94.5q-123 0 -217.5 -94.5t-146.5 -266.5t-52 -395t52 -395z" />
    <glyph glyph-name="multiply" unicode="&#xd7;" horiz-adv-x="970" 
d="M752 285l-267 264l-272 -273l-29 29l273 273l-267 266l29 30l268 -266l256 256l29 -28l-256 -256l264 -267z" />
    <glyph glyph-name="Oslash" unicode="&#xd8;" horiz-adv-x="1841" 
d="M1673 1135.5q80 -162.5 80 -367.5q0 -233 -103.5 -412.5t-292 -277.5t-435.5 -98q-287 0 -494 131l-158 -201l-30 27l153 196q-145 104 -225 267t-80 368q0 233 103.5 412.5t293 277.5t437.5 98q285 0 491 -131l156 199l30 -27l-153 -194q147 -105 227 -267.5zM565 350
l697 883q-55 139 -142.5 215t-197.5 76q-123 0 -217.5 -94.5t-146.5 -266.5t-52 -395q0 -244 59 -418zM1138.5 106.5q94.5 94.5 146.5 266.5t52 395q0 246 -59 420l-696 -883q55 -139 142 -216t198 -77q122 0 216.5 94.5z" />
    <glyph glyph-name="Ugrave" unicode="&#xd9;" horiz-adv-x="1550" 
d="M1204 1622l-647 231l12 33l645 -235zM1248.5 119q-142.5 -139 -398.5 -139q-201 0 -358.5 72.5t-246.5 205.5t-89 305v973h393v-1053q0 -133 45 -234.5t128 -156.5t191 -55q129 0 228.5 55t154 156.5t54.5 234.5v1053h41v-1042q0 -236 -142.5 -375z" />
    <glyph glyph-name="Uacute" unicode="&#xda;" horiz-adv-x="1550" 
d="M606 1622l-10 29l643 235l12 -33zM1248.5 119q-142.5 -139 -398.5 -139q-201 0 -358.5 72.5t-246.5 205.5t-89 305v973h393v-1053q0 -133 45 -234.5t128 -156.5t191 -55q129 0 228.5 55t154 156.5t54.5 234.5v1053h41v-1042q0 -236 -142.5 -375z" />
    <glyph glyph-name="Ucircumflex" unicode="&#xdb;" horiz-adv-x="1550" 
d="M518 1630l-14 17l401 325l402 -325l-15 -17l-387 285zM1248.5 119q-142.5 -139 -398.5 -139q-201 0 -358.5 72.5t-246.5 205.5t-89 305v973h393v-1053q0 -133 45 -234.5t128 -156.5t191 -55q129 0 228.5 55t154 156.5t54.5 234.5v1053h41v-1042q0 -236 -142.5 -375z" />
    <glyph glyph-name="Udieresis" unicode="&#xdc;" horiz-adv-x="1550" 
d="M814 1701q-46 -42 -120 -42q-76 0 -122 42t-46 111q0 70 46 112t122 42q74 0 120 -42t46 -112q0 -69 -46 -111zM1236 1701q-46 -42 -122 -42t-121 42t-45 111q0 70 45 112t121 42t122 -42t46 -112q0 -69 -46 -111zM1248.5 119q-142.5 -139 -398.5 -139
q-201 0 -358.5 72.5t-246.5 205.5t-89 305v973h393v-1053q0 -133 45 -234.5t128 -156.5t191 -55q129 0 228.5 55t154 156.5t54.5 234.5v1053h41v-1042q0 -236 -142.5 -375z" />
    <glyph glyph-name="Yacute" unicode="&#xdd;" horiz-adv-x="1447" 
d="M553 1622l-10 29l643 235l12 -33zM942 684v-684h-393v657l-526 879h438l465 -805l460 805h44z" />
    <glyph glyph-name="Thorn" unicode="&#xde;" horiz-adv-x="1392" 
d="M1013.5 1195q145.5 -54 226.5 -153.5t81 -228.5t-81 -228.5t-226.5 -154.5t-335.5 -55h-115v-375h-393v1534h393v-285h115q190 0 335.5 -54zM826.5 518.5q78.5 110.5 78.5 294.5q0 182 -78.5 293t-208.5 111h-55v-809h55q130 0 208.5 110.5z" />
    <glyph glyph-name="germandbls" unicode="&#xdf;" horiz-adv-x="1400" 
d="M1229 76q-117 -96 -307 -96q-100 0 -185.5 26.5t-126.5 69.5l11 16q33 -23 80 -38t85 -15q72 0 115 50t43 134q0 80 -36 138.5t-105 132.5q-63 66 -95 114.5t-32 114.5q0 74 43 128t129 122q96 80 145 144.5t49 160.5q0 117 -76.5 199t-197.5 82q-115 0 -183.5 -79
t-68.5 -208v-1272h-381v1194q0 125 64.5 221t181.5 149.5t266 53.5q201 0 320.5 -94t119.5 -248q0 -61 -17 -109.5t-50 -115.5q-25 -47 -36 -76t-11 -57q0 -51 35.5 -95.5t111.5 -109.5q106 -92 166 -175t60 -202q0 -164 -117 -260z" />
    <glyph glyph-name="agrave" unicode="&#xe0;" horiz-adv-x="1243" 
d="M911 1231l-540 313l16 29l539 -316zM883.5 1089.5q111.5 -47.5 173 -133.5t61.5 -200v-756h-342l-20 190q-39 -94 -139.5 -152t-223.5 -58q-160 0 -257 88t-97 233q0 88 60.5 155.5t171 105.5t253.5 38h213v178q0 137 -73.5 218t-194.5 81q-78 0 -167 -33.5t-159 -89.5
l-14 19q86 74 222 119t276 45q145 0 256.5 -47.5zM662.5 118q46.5 42 74.5 111v338h-127q-78 0 -124 -68.5t-46 -181.5q0 -109 35 -175t92 -66q49 0 95.5 42z" />
    <glyph glyph-name="aacute" unicode="&#xe1;" horiz-adv-x="1243" 
d="M367 1231l-15 26l537 316l16 -29zM883.5 1089.5q111.5 -47.5 173 -133.5t61.5 -200v-756h-342l-20 190q-39 -94 -139.5 -152t-223.5 -58q-160 0 -257 88t-97 233q0 88 60.5 155.5t171 105.5t253.5 38h213v178q0 137 -73.5 218t-194.5 81q-78 0 -167 -33.5t-159 -89.5
l-14 19q86 74 222 119t276 45q145 0 256.5 -47.5zM662.5 118q46.5 42 74.5 111v338h-127q-78 0 -124 -68.5t-46 -181.5q0 -109 35 -175t92 -66q49 0 95.5 42z" />
    <glyph glyph-name="acircumflex" unicode="&#xe2;" horiz-adv-x="1243" 
d="M313 1253l-14 17l340 346l342 -346l-14 -17l-328 306zM883.5 1089.5q111.5 -47.5 173 -133.5t61.5 -200v-756h-342l-20 190q-39 -94 -139.5 -152t-223.5 -58q-160 0 -257 88t-97 233q0 88 60.5 155.5t171 105.5t253.5 38h213v178q0 137 -73.5 218t-194.5 81
q-78 0 -167 -33.5t-159 -89.5l-14 19q86 74 222 119t276 45q145 0 256.5 -47.5zM662.5 118q46.5 42 74.5 111v338h-127q-78 0 -124 -68.5t-46 -181.5q0 -109 35 -175t92 -66q49 0 95.5 42z" />
    <glyph glyph-name="atilde" unicode="&#xe3;" horiz-adv-x="1243" 
d="M338 1448q-49 -43 -90 -123l-23 10q84 188 244 189q55 0 96 -24.5t92 -72.5q45 -43 80 -64.5t78 -21.5q74 0 122 42t91 122l23 -10q-86 -188 -244 -188q-55 0 -96 24.5t-95 73.5q-47 43 -80.5 64.5t-76.5 21.5q-72 0 -121 -43zM883.5 1089.5q111.5 -47.5 173 -133.5
t61.5 -200v-756h-342l-20 190q-39 -94 -139.5 -152t-223.5 -58q-160 0 -257 88t-97 233q0 88 60.5 155.5t171 105.5t253.5 38h213v178q0 137 -73.5 218t-194.5 81q-78 0 -167 -33.5t-159 -89.5l-14 19q86 74 222 119t276 45q145 0 256.5 -47.5zM662.5 118q46.5 42 74.5 111
v338h-127q-78 0 -124 -68.5t-46 -181.5q0 -109 35 -175t92 -66q49 0 95.5 42z" />
    <glyph glyph-name="adieresis" unicode="&#xe4;" horiz-adv-x="1243" 
d="M548 1346q-46 -43 -120 -43q-76 0 -122 43t-46 110q0 70 46 113t122 43q74 0 120 -43t46 -113q0 -67 -46 -110zM970 1346q-46 -43 -122 -43q-74 0 -120 43t-46 110q0 70 45 113t121 43t122 -43t46 -113q0 -67 -46 -110zM883.5 1089.5q111.5 -47.5 173 -133.5t61.5 -200
v-756h-342l-20 190q-39 -94 -139.5 -152t-223.5 -58q-160 0 -257 88t-97 233q0 88 60.5 155.5t171 105.5t253.5 38h213v178q0 137 -73.5 218t-194.5 81q-78 0 -167 -33.5t-159 -89.5l-14 19q86 74 222 119t276 45q145 0 256.5 -47.5zM662.5 118q46.5 42 74.5 111v338h-127
q-78 0 -124 -68.5t-46 -181.5q0 -109 35 -175t92 -66q49 0 95.5 42z" />
    <glyph glyph-name="aring" unicode="&#xe5;" horiz-adv-x="1243" 
d="M797.5 1305.5q-60.5 -58.5 -160.5 -58.5q-98 0 -158.5 58.5t-60.5 152.5t60.5 152.5t158.5 58.5q100 0 160.5 -58.5t60.5 -152.5t-60.5 -152.5zM508 1329q49 -49 129 -49q82 0 131 49t49 129q0 82 -49 130t-131 48q-80 0 -129 -48t-49 -130q0 -80 49 -129zM883.5 1089.5
q111.5 -47.5 173 -133.5t61.5 -200v-756h-342l-20 190q-39 -94 -139.5 -152t-223.5 -58q-160 0 -257 88t-97 233q0 88 60.5 155.5t171 105.5t253.5 38h213v178q0 137 -73.5 218t-194.5 81q-78 0 -167 -33.5t-159 -89.5l-14 19q86 74 222 119t276 45q145 0 256.5 -47.5z
M662.5 118q46.5 42 74.5 111v338h-127q-78 0 -124 -68.5t-46 -181.5q0 -109 35 -175t92 -66q49 0 95.5 42z" />
    <glyph glyph-name="ae" unicode="&#xe6;" horiz-adv-x="1888" 
d="M1110 584v-27q0 -154 43 -271.5t119 -182t176 -64.5q74 0 159 31.5t152 89.5l15 -19q-78 -74 -209 -117.5t-271 -43.5q-164 0 -290.5 68.5t-196.5 193.5q-55 -121 -166 -191.5t-246 -70.5q-160 0 -257 91t-97 238q0 92 60.5 163t170 110t254.5 39h203v157
q0 137 -73.5 218t-198.5 81q-78 0 -163 -32.5t-149 -88.5l-14 17q82 76 215 120t268 44q106 0 191.5 -35t140.5 -98q61 63 146.5 98t183.5 35q168 0 295 -69t196.5 -191.5t69.5 -284.5v-8h-727zM1161 972q-45 -132 -51 -356h326q0 221 -43 354.5t-117 133.5q-70 0 -115 -132
zM687 131q58 55 99 148q-57 125 -57 274v35h-117q-76 0 -123 -72t-47 -188q0 -113 35 -182.5t92 -69.5q60 0 118 55z" />
    <glyph glyph-name="ccedilla" unicode="&#xe7;" horiz-adv-x="1073" 
d="M867.5 24q-111.5 -42 -236.5 -44l-39 -111q137 -2 220 -46t83 -114q0 -82 -128 -131t-337 -49l4 20q94 0 151.5 42t57.5 110q0 47 -27.5 86t-72.5 53l49 140q-156 6 -272.5 80.5t-181 202.5t-64.5 296q0 172 67.5 303t191.5 203t288 72q113 0 221 -38t174 -98l-12 -16
q-47 41 -108.5 66.5t-115.5 25.5q-92 0 -160.5 -64.5t-106.5 -182t-38 -271.5t39 -272.5t110.5 -183t166.5 -64.5q55 0 121.5 33.5t115.5 83.5l14 -21q-63 -69 -174.5 -111z" />
    <glyph glyph-name="egrave" unicode="&#xe8;" horiz-adv-x="1263" 
d="M920 1231l-541 313l16 29l539 -316zM475 584v-25q0 -156 43 -273.5t122 -182t181 -64.5q74 0 160 31.5t154 89.5l12 -19q-78 -74 -209 -117.5t-270 -43.5q-176 0 -311.5 72.5t-209 203.5t-73.5 303t70.5 303t200.5 203t302 72q168 0 296 -69t198.5 -191.5t70.5 -284.5v-8
h-737zM527 972q-46 -132 -52 -356h336q0 219 -45 353.5t-119 134.5t-120 -132z" />
    <glyph glyph-name="eacute" unicode="&#xe9;" horiz-adv-x="1263" 
d="M375 1231l-15 26l537 316l16 -29zM475 584v-25q0 -156 43 -273.5t122 -182t181 -64.5q74 0 160 31.5t154 89.5l12 -19q-78 -74 -209 -117.5t-270 -43.5q-176 0 -311.5 72.5t-209 203.5t-73.5 303t70.5 303t200.5 203t302 72q168 0 296 -69t198.5 -191.5t70.5 -284.5v-8
h-737zM527 972q-46 -132 -52 -356h336q0 219 -45 353.5t-119 134.5t-120 -132z" />
    <glyph glyph-name="ecircumflex" unicode="&#xea;" horiz-adv-x="1263" 
d="M322 1253l-15 17l340 346l342 -346l-14 -17l-328 306zM475 584v-25q0 -156 43 -273.5t122 -182t181 -64.5q74 0 160 31.5t154 89.5l12 -19q-78 -74 -209 -117.5t-270 -43.5q-176 0 -311.5 72.5t-209 203.5t-73.5 303t70.5 303t200.5 203t302 72q168 0 296 -69
t198.5 -191.5t70.5 -284.5v-8h-737zM527 972q-46 -132 -52 -356h336q0 219 -45 353.5t-119 134.5t-120 -132z" />
    <glyph glyph-name="edieresis" unicode="&#xeb;" horiz-adv-x="1263" 
d="M556 1346q-46 -43 -120 -43q-76 0 -122 43t-46 110q0 70 46 113t122 43q74 0 120 -43t46 -113q0 -67 -46 -110zM978 1346q-46 -43 -122 -43q-74 0 -120 43t-46 110q0 70 45 113t121 43t122 -43t46 -113q0 -67 -46 -110zM475 584v-25q0 -156 43 -273.5t122 -182t181 -64.5
q74 0 160 31.5t154 89.5l12 -19q-78 -74 -209 -117.5t-270 -43.5q-176 0 -311.5 72.5t-209 203.5t-73.5 303t70.5 303t200.5 203t302 72q168 0 296 -69t198.5 -191.5t70.5 -284.5v-8h-737zM527 972q-46 -132 -52 -356h336q0 219 -45 353.5t-119 134.5t-120 -132z" />
    <glyph glyph-name="igrave" unicode="&#xec;" horiz-adv-x="651" 
d="M602 1235l-541 307l17 29l538 -309zM135 0v1116h381v-1116h-381z" />
    <glyph glyph-name="iacute" unicode="&#xed;" horiz-adv-x="651" 
d="M53 1235l-14 27l536 309l17 -29zM135 0v1116h381v-1116h-381z" />
    <glyph glyph-name="icircumflex" unicode="&#xee;" horiz-adv-x="651" 
d="M2 1253l-14 17l338 346l340 -346l-15 -17l-325 303zM135 0v1116h381v-1116h-381z" />
    <glyph glyph-name="idieresis" unicode="&#xef;" horiz-adv-x="651" 
d="M257 1346q-46 -43 -120 -43q-76 0 -122 43t-46 110q0 70 46 113t122 43q74 0 120 -43t46 -113q0 -67 -46 -110zM637 1346q-47 -43 -121 -43t-120 43t-46 110q0 70 45 113t121 43q74 0 121 -43t47 -113q0 -67 -47 -110zM135 0v1116h381v-1116h-381z" />
    <glyph glyph-name="eth" unicode="&#xf0;" horiz-adv-x="1363" 
d="M1150 1153q132 -223 132 -514q0 -197 -74.5 -346.5t-212 -231t-317.5 -81.5t-317.5 69.5t-212 197.5t-74.5 294t69.5 293t197.5 196.5t294 69.5q92 0 168 -42t129 -122q-37 160 -106.5 288t-168.5 214l-327 -152l-15 33l312 145q-145 117 -342 133l4 21q248 -8 452 -100
l217 100l15 -33l-191 -88q236 -121 368 -344zM825.5 157.5q55.5 145.5 55.5 383.5q0 233 -55.5 375.5t-147.5 142.5t-147.5 -142.5t-55.5 -375.5q0 -238 55.5 -383.5t147.5 -145.5t147.5 145.5z" />
    <glyph glyph-name="ntilde" unicode="&#xf1;" horiz-adv-x="1347" 
d="M379 1448q-49 -43 -90 -123l-23 10q84 188 244 189q55 0 96 -24.5t92 -72.5q45 -43 80 -64.5t78 -21.5q74 0 122 42t91 122l23 -10q-86 -188 -244 -188q-55 0 -96 24.5t-95 73.5q-47 43 -80.5 64.5t-76.5 21.5q-72 0 -121 -43zM1125.5 1041.5q95.5 -95.5 95.5 -253.5
v-788h-381v905q0 66 -32 107t-81 41q-59 0 -117.5 -48.5t-93.5 -127.5v-877h-381v1116h342l19 -205q43 102 147.5 164t230.5 62q156 0 251.5 -95.5z" />
    <glyph glyph-name="ograve" unicode="&#xf2;" horiz-adv-x="1351" 
d="M948 1231l-540 313l16 29l539 -316zM1204 256q-76 -131 -212 -203.5t-316 -72.5t-316.5 72.5t-212 203.5t-75.5 303t75.5 303t212 203t316.5 72t316 -72t212 -203t76 -303t-76 -303zM528.5 162.5q55.5 -150.5 147.5 -150.5t147.5 150.5t55.5 396.5t-55.5 395.5
t-147.5 149.5t-147.5 -149.5t-55.5 -395.5t55.5 -396.5z" />
    <glyph glyph-name="oacute" unicode="&#xf3;" horiz-adv-x="1351" 
d="M403 1231l-14 26l537 316l16 -29zM1204 256q-76 -131 -212 -203.5t-316 -72.5t-316.5 72.5t-212 203.5t-75.5 303t75.5 303t212 203t316.5 72t316 -72t212 -203t76 -303t-76 -303zM528.5 162.5q55.5 -150.5 147.5 -150.5t147.5 150.5t55.5 396.5t-55.5 395.5
t-147.5 149.5t-147.5 -149.5t-55.5 -395.5t55.5 -396.5z" />
    <glyph glyph-name="ocircumflex" unicode="&#xf4;" horiz-adv-x="1351" 
d="M350 1253l-14 17l340 346l342 -346l-14 -17l-328 306zM1204 256q-76 -131 -212 -203.5t-316 -72.5t-316.5 72.5t-212 203.5t-75.5 303t75.5 303t212 203t316.5 72t316 -72t212 -203t76 -303t-76 -303zM528.5 162.5q55.5 -150.5 147.5 -150.5t147.5 150.5t55.5 396.5
t-55.5 395.5t-147.5 149.5t-147.5 -149.5t-55.5 -395.5t55.5 -396.5z" />
    <glyph glyph-name="otilde" unicode="&#xf5;" horiz-adv-x="1351" 
d="M375 1448q-49 -43 -90 -123l-23 10q84 188 244 189q55 0 96 -24.5t92 -72.5q45 -43 80 -64.5t78 -21.5q74 0 122 42t91 122l22 -10q-86 -188 -243 -188q-55 0 -96 24.5t-95 73.5q-47 43 -80.5 64.5t-76.5 21.5q-72 0 -121 -43zM1204 256q-76 -131 -212 -203.5t-316 -72.5
t-316.5 72.5t-212 203.5t-75.5 303t75.5 303t212 203t316.5 72t316 -72t212 -203t76 -303t-76 -303zM528.5 162.5q55.5 -150.5 147.5 -150.5t147.5 150.5t55.5 396.5t-55.5 395.5t-147.5 149.5t-147.5 -149.5t-55.5 -395.5t55.5 -396.5z" />
    <glyph glyph-name="odieresis" unicode="&#xf6;" horiz-adv-x="1351" 
d="M585 1346q-46 -43 -120 -43q-76 0 -122 43t-46 110q0 70 46 113t122 43q74 0 120 -43t46 -113q0 -67 -46 -110zM1007 1346q-46 -43 -122 -43q-74 0 -120 43t-46 110q0 70 45 113t121 43t122 -43t46 -113q0 -67 -46 -110zM1204 256q-76 -131 -212 -203.5t-316 -72.5
t-316.5 72.5t-212 203.5t-75.5 303t75.5 303t212 203t316.5 72t316 -72t212 -203t76 -303t-76 -303zM528.5 162.5q55.5 -150.5 147.5 -150.5t147.5 150.5t55.5 396.5t-55.5 395.5t-147.5 149.5t-147.5 -149.5t-55.5 -395.5t55.5 -396.5z" />
    <glyph glyph-name="divide" unicode="&#xf7;" horiz-adv-x="970" 
d="M580.5 774q-35.5 -37 -95.5 -37q-57 0 -94 37t-37 94t36 93t95 36t95 -35.5t36 -93.5q0 -57 -35.5 -94zM127 557v33h717v-33h-717zM580.5 187.5q-35.5 -35.5 -95.5 -35.5q-59 0 -95 35.5t-36 95.5q0 57 37 93t94 36t94 -36t37 -93q0 -60 -35.5 -95.5z" />
    <glyph glyph-name="oslash" unicode="&#xf8;" horiz-adv-x="1351" 
d="M1221.5 830.5q58.5 -119.5 58.5 -271.5q0 -172 -76 -303t-212 -203.5t-316 -72.5q-199 0 -350 90l-121 -158l-29 25l119 155q-106 76 -164.5 196t-58.5 271q0 172 75.5 303t212 203t316.5 72q201 0 348 -90l123 159l29 -24l-119 -156q106 -76 164.5 -195.5zM487 342
l369 485q-23 131 -70 204t-110 73q-92 0 -147.5 -149.5t-55.5 -395.5q0 -125 14 -217zM823.5 162.5q55.5 150.5 55.5 396.5q0 125 -15 217l-368 -485q23 -133 69.5 -206t110.5 -73q92 0 147.5 150.5z" />
    <glyph glyph-name="ugrave" unicode="&#xf9;" horiz-adv-x="1327" 
d="M936 1231l-541 313l17 29l538 -316zM1190 1116v-1116h-340l-21 195q-41 -96 -141 -155.5t-225 -59.5q-152 0 -244 93t-92 244v799h381v-913q0 -63 27.5 -101.5t74.5 -38.5q57 0 111.5 45.5t87.5 120.5v887h381z" />
    <glyph glyph-name="uacute" unicode="&#xfa;" horiz-adv-x="1327" 
d="M391 1231l-14 26l536 316l17 -29zM1190 1116v-1116h-340l-21 195q-41 -96 -141 -155.5t-225 -59.5q-152 0 -244 93t-92 244v799h381v-913q0 -63 27.5 -101.5t74.5 -38.5q57 0 111.5 45.5t87.5 120.5v887h381z" />
    <glyph glyph-name="ucircumflex" unicode="&#xfb;" horiz-adv-x="1327" 
d="M338 1253l-14 17l340 346l342 -346l-15 -17l-327 306zM1190 1116v-1116h-340l-21 195q-41 -96 -141 -155.5t-225 -59.5q-152 0 -244 93t-92 244v799h381v-913q0 -63 27.5 -101.5t74.5 -38.5q57 0 111.5 45.5t87.5 120.5v887h381z" />
    <glyph glyph-name="udieresis" unicode="&#xfc;" horiz-adv-x="1327" 
d="M572 1346q-46 -43 -119 -43q-76 0 -122 43t-46 110q0 70 46 113t122 43q74 0 119.5 -43t45.5 -113q0 -67 -46 -110zM994 1346q-46 -43 -122 -43q-74 0 -119.5 43t-45.5 110q0 70 45 113t120 43q76 0 122 -43t46 -113q0 -67 -46 -110zM1190 1116v-1116h-340l-21 195
q-41 -96 -141 -155.5t-225 -59.5q-152 0 -244 93t-92 244v799h381v-913q0 -63 27.5 -101.5t74.5 -38.5q57 0 111.5 45.5t87.5 120.5v887h381z" />
    <glyph glyph-name="yacute" unicode="&#xfd;" horiz-adv-x="1161" 
d="M393 1231l-14 26l536 316l17 -29zM1163 1116l-706 -1569h-41l164 367l-582 1202h418l360 -770l346 770h41z" />
    <glyph glyph-name="thorn" unicode="&#xfe;" horiz-adv-x="1368" 
d="M1063 1065q111 -72 171 -203t60 -303t-60 -303t-171 -203.5t-254 -72.5q-96 0 -174 46t-119 126v-603h-381v2048h381v-632q41 80 120 126t173 46q143 0 254 -72zM837.5 196.5q55.5 137.5 55.5 362.5t-55.5 361.5t-147.5 136.5q-51 0 -98 -48t-76 -128v-645
q25 -80 72 -128.5t102 -48.5q92 0 147.5 137.5z" />
    <glyph glyph-name="ydieresis" unicode="&#xff;" horiz-adv-x="1161" 
d="M574.5 1346q-46.5 -43 -119.5 -43q-76 0 -122 43t-46 110q0 70 46 113t122 43q74 0 120 -43t46 -113q0 -67 -46.5 -110zM996 1346q-46 -43 -122 -43q-74 0 -119.5 43t-45.5 110q0 70 45 113t120 43q76 0 122 -43t46 -113q0 -67 -46 -110zM1163 1116l-706 -1569h-41
l164 367l-582 1202h418l360 -770l346 770h41z" />
    <glyph glyph-name="Amacron" unicode="&#x100;" horiz-adv-x="1419" 
d="M352 1659v33h668v-33h-668zM850 375h-643l-160 -375h-43l664 1556h30l729 -1556h-403zM834 408l-320 686l-293 -686h613z" />
    <glyph glyph-name="amacron" unicode="&#x101;" horiz-adv-x="1243" 
d="M305 1372v33h668v-33h-668zM883.5 1089.5q111.5 -47.5 173 -133.5t61.5 -200v-756h-342l-20 190q-39 -94 -139.5 -152t-223.5 -58q-160 0 -257 88t-97 233q0 88 60.5 155.5t171 105.5t253.5 38h213v178q0 137 -73.5 218t-194.5 81q-78 0 -167 -33.5t-159 -89.5l-14 19
q86 74 222 119t276 45q145 0 256.5 -47.5zM662.5 118q46.5 42 74.5 111v338h-127q-78 0 -124 -68.5t-46 -181.5q0 -109 35 -175t92 -66q49 0 95.5 42z" />
    <glyph glyph-name="Abreve" unicode="&#x102;" horiz-adv-x="1419" 
d="M920.5 1733.5q-109.5 -74.5 -236.5 -74.5t-236.5 74.5t-160.5 197.5l22 11q59 -111 162.5 -178.5t212.5 -67.5q111 0 215.5 67.5t161.5 178.5l20 -11q-51 -123 -160.5 -197.5zM850 375h-643l-160 -375h-43l664 1556h30l729 -1556h-403zM834 408l-320 686l-293 -686h613z
" />
    <glyph glyph-name="abreve" unicode="&#x103;" horiz-adv-x="1243" 
d="M848 1353q-98 -83 -211 -83t-210 82t-146 217l20 10q57 -123 149.5 -197.5t186.5 -74.5q96 0 188.5 74.5t147.5 197.5l20 -10q-47 -133 -145 -216zM883.5 1089.5q111.5 -47.5 173 -133.5t61.5 -200v-756h-342l-20 190q-39 -94 -139.5 -152t-223.5 -58q-160 0 -257 88
t-97 233q0 88 60.5 155.5t171 105.5t253.5 38h213v178q0 137 -73.5 218t-194.5 81q-78 0 -167 -33.5t-159 -89.5l-14 19q86 74 222 119t276 45q145 0 256.5 -47.5zM662.5 118q46.5 42 74.5 111v338h-127q-78 0 -124 -68.5t-46 -181.5q0 -109 35 -175t92 -66q49 0 95.5 42z
" />
    <glyph glyph-name="Aogonek" unicode="&#x104;" horiz-adv-x="1419" 
d="M1446 -416q-45 -25 -109.5 -40t-122.5 -15q-100 0 -161.5 48t-61.5 126q0 86 100.5 165t278.5 132h-346l-174 375h-643l-160 -375h-43l664 1556h30l729 -1556q-82 -55 -133 -129t-51 -139q0 -63 34 -101.5t89 -38.5q41 0 72 13zM834 408l-320 686l-293 -686h613z" />
    <glyph glyph-name="aogonek" unicode="&#x105;" horiz-adv-x="1243" 
d="M1137 -416q-47 -25 -110.5 -40t-123.5 -15q-100 0 -161.5 48t-61.5 126q0 86 100.5 165t280.5 132h-285l-20 190q-39 -94 -139.5 -152t-223.5 -58q-160 0 -257 88t-97 233q0 88 60.5 155.5t171 105.5t253.5 38h213v178q0 137 -73.5 218t-194.5 81q-78 0 -167 -33.5
t-159 -89.5l-14 19q86 74 222 119t276 45q145 0 256.5 -47.5t173 -133.5t61.5 -200v-756q-84 -55 -135 -129t-51 -139q0 -63 33.5 -101.5t91.5 -38.5q39 0 71 13zM662.5 118q46.5 42 74.5 111v338h-127q-78 0 -124 -68.5t-46 -181.5q0 -109 35 -175t92 -66q49 0 95.5 42z
" />
    <glyph glyph-name="Cacute" unicode="&#x106;" horiz-adv-x="1468" 
d="M594 1622l-10 29l643 235l12 -33zM1205.5 43q-158.5 -63 -316.5 -63q-238 0 -419 98t-280.5 277.5t-99.5 412.5t99.5 412.5t280.5 277.5t419 98q156 0 306.5 -52t242.5 -138l-19 -23q-76 61 -181 99.5t-200 38.5q-158 0 -278.5 -89t-186 -250t-65.5 -374
q0 -211 66.5 -373t187.5 -251t280 -89q98 0 209 48.5t195 129.5l18 -24q-100 -103 -258.5 -166z" />
    <glyph glyph-name="cacute" unicode="&#x107;" horiz-adv-x="1073" 
d="M350 1231l-14 26l536 316l17 -29zM863.5 23q-115.5 -43 -242.5 -43q-164 0 -288 71.5t-191.5 203.5t-67.5 304t67.5 303t191.5 203t288 72q113 0 221 -38t174 -98l-12 -16q-47 41 -108.5 66.5t-115.5 25.5q-92 0 -160.5 -64.5t-106.5 -182t-38 -271.5t39 -272.5
t110.5 -183t166.5 -64.5q55 0 121.5 33.5t115.5 83.5l14 -21q-63 -69 -178.5 -112z" />
    <glyph glyph-name="Cdotaccent" unicode="&#x10a;" horiz-adv-x="1468" 
d="M1049.5 1696.5q-60.5 -56.5 -158.5 -56.5t-158.5 56.5t-60.5 148.5q0 94 60.5 149.5t158.5 55.5t158.5 -55.5t60.5 -149.5q0 -92 -60.5 -148.5zM1205.5 43q-158.5 -63 -316.5 -63q-238 0 -419 98t-280.5 277.5t-99.5 412.5t99.5 412.5t280.5 277.5t419 98
q156 0 306.5 -52t242.5 -138l-19 -23q-76 61 -181 99.5t-200 38.5q-158 0 -278.5 -89t-186 -250t-65.5 -374q0 -211 66.5 -373t187.5 -251t280 -89q98 0 209 48.5t195 129.5l18 -24q-100 -103 -258.5 -166z" />
    <glyph glyph-name="cdotaccent" unicode="&#x10b;" horiz-adv-x="1073" 
d="M776.5 1290.5q-57.5 -55.5 -153.5 -55.5t-153.5 55.5t-57.5 145.5t58 144t153 54q94 0 152.5 -54t58.5 -144t-57.5 -145.5zM863.5 23q-115.5 -43 -242.5 -43q-164 0 -288 71.5t-191.5 203.5t-67.5 304t67.5 303t191.5 203t288 72q113 0 221 -38t174 -98l-12 -16
q-47 41 -108.5 66.5t-115.5 25.5q-92 0 -160.5 -64.5t-106.5 -182t-38 -271.5t39 -272.5t110.5 -183t166.5 -64.5q55 0 121.5 33.5t115.5 83.5l14 -21q-63 -69 -178.5 -112z" />
    <glyph glyph-name="Ccaron" unicode="&#x10c;" horiz-adv-x="1468" 
d="M1280 1972l14 -16l-401 -326l-401 326l14 16l387 -284zM1205.5 43q-158.5 -63 -316.5 -63q-238 0 -419 98t-280.5 277.5t-99.5 412.5t99.5 412.5t280.5 277.5t419 98q156 0 306.5 -52t242.5 -138l-19 -23q-76 61 -181 99.5t-200 38.5q-158 0 -278.5 -89t-186 -250
t-65.5 -374q0 -211 66.5 -373t187.5 -251t280 -89q98 0 209 48.5t195 129.5l18 -24q-100 -103 -258.5 -166z" />
    <glyph glyph-name="ccaron" unicode="&#x10d;" horiz-adv-x="1073" 
d="M948 1616l15 -17l-342 -346l-340 346l14 17l326 -305zM863.5 23q-115.5 -43 -242.5 -43q-164 0 -288 71.5t-191.5 203.5t-67.5 304t67.5 303t191.5 203t288 72q113 0 221 -38t174 -98l-12 -16q-47 41 -108.5 66.5t-115.5 25.5q-92 0 -160.5 -64.5t-106.5 -182t-38 -271.5
t39 -272.5t110.5 -183t166.5 -64.5q55 0 121.5 33.5t115.5 83.5l14 -21q-63 -69 -178.5 -112z" />
    <glyph glyph-name="Dcaron" unicode="&#x10e;" horiz-adv-x="1703" 
d="M1161 1972l15 -16l-402 -326l-401 326l14 16l387 -284zM1202.5 1439.5q196.5 -96.5 305 -270.5t108.5 -401t-108.5 -401t-305 -270.5t-454.5 -96.5h-578v1536h578q258 0 454.5 -96.5zM955.5 124q115.5 91 179 258t63.5 386t-63.5 386t-179 258t-267.5 91h-125v-1470h125
q152 0 267.5 91z" />
    <glyph glyph-name="dcaron" unicode="&#x10f;" horiz-adv-x="1368" 
d="M1483 1597l-111 -430l-29 9l103 430zM852 1597h381v-1597h-340l-21 201q-31 -100 -117.5 -160.5t-195.5 -60.5q-143 0 -252.5 72.5t-170 203.5t-60.5 303t60.5 303t170 203t252.5 72q96 0 174 -46.5t119 -123.5v630zM778 107.5q47 48.5 74 128.5v645q-23 80 -71 128
t-103 48q-90 0 -145.5 -136.5t-55.5 -361.5t55.5 -362.5t145.5 -137.5q53 0 100 48.5z" />
    <glyph glyph-name="Dcroat" unicode="&#x110;" horiz-adv-x="1724" 
d="M1222.5 1439.5q196.5 -96.5 305 -270.5t108.5 -401t-108.5 -401t-305 -270.5t-454.5 -96.5h-578v799h-172v32h172v705h578q258 0 454.5 -96.5zM976 124q116 91 179.5 258t63.5 386t-63.5 386t-179.5 258t-267 91h-125v-672h315v-32h-315v-766h125q151 0 267 91z" />
    <glyph glyph-name="dcroat" unicode="&#x111;" horiz-adv-x="1368" 
d="M1413 1329h-180v-1329h-340l-21 201q-31 -100 -117.5 -160.5t-195.5 -60.5q-143 0 -252.5 72.5t-170 203.5t-60.5 303t60.5 303t170 203t252.5 72q96 0 174 -46.5t119 -123.5v362h-320v33h320v235h381v-235h180v-33zM778 107.5q47 48.5 74 128.5v645q-23 80 -71 128
t-103 48q-90 0 -145.5 -136.5t-55.5 -361.5t55.5 -362.5t145.5 -137.5q53 0 100 48.5z" />
    <glyph glyph-name="Emacron" unicode="&#x112;" horiz-adv-x="1138" 
d="M301 1659v33h668v-33h-668zM1090 33v-33h-920v1536h907v-33h-514v-674h418v-32h-418v-764h527z" />
    <glyph glyph-name="emacron" unicode="&#x113;" horiz-adv-x="1263" 
d="M313 1372v33h668v-33h-668zM475 584v-25q0 -156 43 -273.5t122 -182t181 -64.5q74 0 160 31.5t154 89.5l12 -19q-78 -74 -209 -117.5t-270 -43.5q-176 0 -311.5 72.5t-209 203.5t-73.5 303t70.5 303t200.5 203t302 72q168 0 296 -69t198.5 -191.5t70.5 -284.5v-8h-737z
M527 972q-46 -132 -52 -356h336q0 219 -45 353.5t-119 134.5t-120 -132z" />
    <glyph glyph-name="Edotaccent" unicode="&#x116;" horiz-adv-x="1138" 
d="M793.5 1696.5q-60.5 -56.5 -158.5 -56.5t-158.5 56.5t-60.5 148.5q0 94 60.5 149.5t158.5 55.5t158.5 -55.5t60.5 -149.5q0 -92 -60.5 -148.5zM1090 33v-33h-920v1536h907v-33h-514v-674h418v-32h-418v-764h527z" />
    <glyph glyph-name="edotaccent" unicode="&#x117;" horiz-adv-x="1263" 
d="M800.5 1290.5q-57.5 -55.5 -153.5 -55.5t-153.5 55.5t-57.5 145.5t58.5 144t152.5 54t152.5 -54t58.5 -144t-57.5 -145.5zM475 584v-25q0 -156 43 -273.5t122 -182t181 -64.5q74 0 160 31.5t154 89.5l12 -19q-78 -74 -209 -117.5t-270 -43.5q-176 0 -311.5 72.5
t-209 203.5t-73.5 303t70.5 303t200.5 203t302 72q168 0 296 -69t198.5 -191.5t70.5 -284.5v-8h-737zM527 972q-46 -132 -52 -356h336q0 219 -45 353.5t-119 134.5t-120 -132z" />
    <glyph glyph-name="Eogonek" unicode="&#x118;" horiz-adv-x="1138" 
d="M1108 -416q-45 -25 -109.5 -40t-121.5 -15q-100 0 -162 48t-62 126q0 86 100.5 165t278.5 132h-862v1536h907v-33h-514v-674h418v-32h-418v-764h527v-33q-84 -55 -134.5 -129t-50.5 -139q0 -63 34 -101.5t89 -38.5q41 0 72 13z" />
    <glyph glyph-name="eogonek" unicode="&#x119;" horiz-adv-x="1263" 
d="M475 584v-25q0 -156 43 -273.5t122 -182t181 -64.5q74 0 160 31.5t154 89.5l12 -19q-61 -57 -150 -94q-242 -156 -241 -295q0 -76 29.5 -120t76.5 -44q49 0 90 23l9 -27q-47 -25 -111 -40t-123 -15q-100 0 -161.5 48t-61.5 126q0 84 88 161t250 134q-86 -18 -174 -18
q-176 0 -311.5 72.5t-209 203.5t-73.5 303t70.5 303t200.5 203t302 72q168 0 296 -69t198.5 -191.5t70.5 -284.5v-8h-737zM527 972q-46 -132 -52 -356h336q0 219 -45 353.5t-119 134.5t-120 -132z" />
    <glyph glyph-name="Ecaron" unicode="&#x11a;" horiz-adv-x="1138" 
d="M1024 1972l14 -16l-401 -326l-401 326l14 16l387 -284zM1090 33v-33h-920v1536h907v-33h-514v-674h418v-32h-418v-764h527z" />
    <glyph glyph-name="ecaron" unicode="&#x11b;" horiz-adv-x="1263" 
d="M973 1616l14 -17l-342 -346l-340 346l14 17l326 -305zM475 584v-25q0 -156 43 -273.5t122 -182t181 -64.5q74 0 160 31.5t154 89.5l12 -19q-78 -74 -209 -117.5t-270 -43.5q-176 0 -311.5 72.5t-209 203.5t-73.5 303t70.5 303t200.5 203t302 72q168 0 296 -69
t198.5 -191.5t70.5 -284.5v-8h-737zM527 972q-46 -132 -52 -356h336q0 219 -45 353.5t-119 134.5t-120 -132z" />
    <glyph glyph-name="Gbreve" unicode="&#x11e;" horiz-adv-x="1632" 
d="M1125.5 1733.5q-109.5 -74.5 -236.5 -74.5t-236.5 74.5t-160.5 197.5l22 11q59 -111 162.5 -178.5t212.5 -67.5q111 0 215 67.5t162 178.5l20 -11q-51 -123 -160.5 -197.5zM1528 815v-637q-106 -88 -282.5 -143t-356.5 -55q-238 0 -419 98t-280.5 277.5t-99.5 412.5
t99.5 412.5t280.5 277.5t419 98q170 0 335 -56t259 -148l-15 -21q-88 68 -206.5 109t-223.5 41q-158 0 -278.5 -89t-186 -250t-65.5 -374q0 -211 66.5 -373t187.5 -251t280 -89q45 0 95 6v754h391z" />
    <glyph glyph-name="gbreve" unicode="&#x11f;" horiz-adv-x="1368" 
d="M905.5 1347q-98.5 -83 -211.5 -83t-210 81.5t-146 217.5l20 10q57 -123 149.5 -198t186.5 -75q96 0 188.5 75t147.5 198l21 -10q-47 -133 -145.5 -216zM1233 1116v-1079q0 -152 -82 -266.5t-232.5 -178t-347.5 -63.5q-113 0 -230.5 39t-193.5 102l15 23q63 -51 155.5 -83
t178.5 -32q162 0 259 104.5t97 276.5v193q-39 -80 -118 -126t-175 -46q-143 0 -252.5 72.5t-170 203.5t-60.5 303t60.5 303t170 203t252.5 72q113 0 199 -60.5t114 -161.5l21 201h340zM778 107.5q47 48.5 74 128.5v645q-23 80 -71 128t-103 48q-90 0 -145.5 -136.5
t-55.5 -361.5t55.5 -362.5t145.5 -137.5q53 0 100 48.5z" />
    <glyph glyph-name="Gdotaccent" unicode="&#x120;" horiz-adv-x="1632" 
d="M1047.5 1696.5q-60.5 -56.5 -158.5 -56.5t-158.5 56.5t-60.5 148.5q0 94 60.5 149.5t158.5 55.5t158.5 -55.5t60.5 -149.5q0 -92 -60.5 -148.5zM1528 815v-637q-106 -88 -282.5 -143t-356.5 -55q-238 0 -419 98t-280.5 277.5t-99.5 412.5t99.5 412.5t280.5 277.5t419 98
q170 0 335 -56t259 -148l-15 -21q-88 68 -206.5 109t-223.5 41q-158 0 -278.5 -89t-186 -250t-65.5 -374q0 -211 66.5 -373t187.5 -251t280 -89q45 0 95 6v754h391z" />
    <glyph glyph-name="gdotaccent" unicode="&#x121;" horiz-adv-x="1368" 
d="M850 1284q-57 -55 -154 -55q-96 0 -153.5 55t-57.5 146q0 90 58.5 144t152.5 54t152.5 -54t58.5 -144q0 -91 -57 -146zM1233 1116v-1079q0 -152 -82 -266.5t-232.5 -178t-347.5 -63.5q-113 0 -230.5 39t-193.5 102l15 23q63 -51 155.5 -83t178.5 -32q162 0 259 104.5
t97 276.5v193q-39 -80 -118 -126t-175 -46q-143 0 -252.5 72.5t-170 203.5t-60.5 303t60.5 303t170 203t252.5 72q113 0 199 -60.5t114 -161.5l21 201h340zM778 107.5q47 48.5 74 128.5v645q-23 80 -71 128t-103 48q-90 0 -145.5 -136.5t-55.5 -361.5t55.5 -362.5
t145.5 -137.5q53 0 100 48.5z" />
    <glyph glyph-name="uni0122" unicode="&#x122;" horiz-adv-x="1632" 
d="M1010 -140.5q47 -52.5 47 -135.5q0 -100 -69.5 -181.5t-184.5 -115.5l-12 26q88 33 147 96.5t70 137.5q-41 -51 -136 -52q-66 0 -106.5 38t-40.5 100q0 63 44 101t116 38q78 0 125 -52.5zM1528 815v-637q-106 -88 -282.5 -143t-356.5 -55q-238 0 -419 98t-280.5 277.5
t-99.5 412.5t99.5 412.5t280.5 277.5t419 98q170 0 335 -56t259 -148l-15 -21q-88 68 -206.5 109t-223.5 41q-158 0 -278.5 -89t-186 -250t-65.5 -374q0 -211 66.5 -373t187.5 -251t280 -89q45 0 95 6v754h391z" />
    <glyph glyph-name="uni0123" unicode="&#x123;" horiz-adv-x="1368" 
d="M815 1495q41 -45 41 -115q0 -72 -45 -114.5t-117 -42.5q-76 0 -123 57t-47 152q0 127 71 231t183 147l13 -28q-92 -43 -150.5 -130t-69.5 -188q20 35 56.5 55.5t81.5 20.5q65 0 106 -45zM1233 1116v-1079q0 -152 -82 -266.5t-232.5 -178t-347.5 -63.5q-113 0 -230.5 39
t-193.5 102l15 23q63 -51 155.5 -83t178.5 -32q162 0 259 104.5t97 276.5v193q-39 -80 -118 -126t-175 -46q-143 0 -252.5 72.5t-170 203.5t-60.5 303t60.5 303t170 203t252.5 72q113 0 199 -60.5t114 -161.5l21 201h340zM778 107.5q47 48.5 74 128.5v645q-23 80 -71 128
t-103 48q-90 0 -145.5 -136.5t-55.5 -361.5t55.5 -362.5t145.5 -137.5q53 0 100 48.5z" />
    <glyph glyph-name="Hbar" unicode="&#x126;" horiz-adv-x="1581" 
d="M1544 1198h-139v-1198h-393v797h-445v-797h-393v1198h-137v33h137v305h393v-305h445v305h393v-305h139v-33zM1012 1198h-445v-369h445v369z" />
    <glyph glyph-name="hbar" unicode="&#x127;" horiz-adv-x="1347" 
d="M1125.5 1041.5q95.5 -95.5 95.5 -253.5v-788h-381v905q0 66 -32 107t-81 41q-59 0 -117.5 -48.5t-93.5 -127.5v-877h-381v1329h-178v33h178v235h381v-235h322v-33h-322v-377q51 84 147.5 134.5t210.5 50.5q156 0 251.5 -95.5z" />
    <glyph glyph-name="Imacron" unicode="&#x12a;" horiz-adv-x="733" 
d="M115 1659v33h501v-33h-501zM170 0v1536h393v-1536h-393z" />
    <glyph glyph-name="imacron" unicode="&#x12b;" horiz-adv-x="651" 
d="M74 1372v33h501v-33h-501zM135 0v1116h381v-1116h-381z" />
    <glyph glyph-name="Iogonek" unicode="&#x12e;" horiz-adv-x="733" 
d="M582 -416q-47 -25 -110.5 -40t-121.5 -15q-102 0 -163.5 48t-61.5 126q0 86 101.5 165t279.5 132h-336v1536h393v-1536q-84 -55 -134 -129t-50 -139q0 -63 33.5 -101.5t89.5 -38.5q41 0 71 13z" />
    <glyph glyph-name="iogonek" unicode="&#x12f;" horiz-adv-x="651" 
d="M172 1290.5q-57 55.5 -57 145.5t58 144t153 54q94 0 152.5 -54t58.5 -144t-57.5 -145.5t-153.5 -55.5q-97 0 -154 55.5zM526 -395l9 -21q-47 -25 -111 -40t-121 -15q-100 0 -162.5 48t-62.5 126q0 86 101.5 165t279.5 132h-324v1116h381v-1116q-84 -55 -134 -129
t-50 -139q0 -63 33.5 -101.5t89.5 -38.5q40 1 71 13z" />
    <glyph glyph-name="Idotaccent" unicode="&#x130;" horiz-adv-x="733" 
d="M525.5 1696.5q-60.5 -56.5 -158.5 -56.5t-159 56.5t-61 148.5q0 94 60.5 149.5t159.5 55.5q98 0 158.5 -55.5t60.5 -149.5q0 -92 -60.5 -148.5zM170 0v1536h393v-1536h-393z" />
    <glyph glyph-name="dotlessi" unicode="&#x131;" horiz-adv-x="651" 
d="M135 0v1116h381v-1116h-381z" />
    <glyph glyph-name="uni0136" unicode="&#x136;" horiz-adv-x="1509" 
d="M938 -140.5q47 -52.5 47 -135.5q0 -100 -69.5 -181.5t-184.5 -115.5l-12 26q88 33 147.5 96.5t69.5 137.5q-41 -51 -135 -52q-66 0 -107 38t-41 100q0 63 44 101t116 38q78 0 125 -52.5zM170 1536h393v-1536h-393v1536zM1548 0h-448l-508 809l788 727h52l-537 -496z" />
    <glyph glyph-name="uni0137" unicode="&#x137;" horiz-adv-x="1298" 
d="M815 -140.5q47 -52.5 47 -135.5q0 -100 -69.5 -181.5t-184.5 -115.5l-12 26q88 33 147.5 96.5t69.5 137.5q-41 -51 -135 -52q-66 0 -107 38t-41 100q0 63 44 101t116 38q78 0 125 -52.5zM135 1597h381v-1597h-381v1597zM1331 0h-424l-364 606l637 510h53l-387 -309z" />
    <glyph glyph-name="Lacute" unicode="&#x139;" horiz-adv-x="1116" 
d="M92 1622l-10 29l643 235l12 -33zM1094 33v-33h-924v1536h393v-1503h531z" />
    <glyph glyph-name="lacute" unicode="&#x13a;" horiz-adv-x="651" 
d="M49 1683l-10 29l639 236l12 -33zM135 0v1597h381v-1597h-381z" />
    <glyph glyph-name="uni013B" unicode="&#x13b;" horiz-adv-x="1116" 
d="M770 -140.5q47 -52.5 47 -135.5q0 -100 -69.5 -181.5t-184.5 -115.5l-12 26q88 33 147.5 96.5t69.5 137.5q-41 -51 -135 -52q-66 0 -107 38t-41 100q0 63 44 101t116 38q78 0 125 -52.5zM1094 33v-33h-924v1536h393v-1503h531z" />
    <glyph glyph-name="uni013C" unicode="&#x13c;" horiz-adv-x="651" 
d="M444.5 -140.5q47.5 -52.5 47.5 -135.5q0 -100 -70 -181.5t-184 -115.5l-13 26q88 33 147.5 96.5t69.5 137.5q-41 -51 -135 -52q-66 0 -106.5 38t-40.5 100q0 63 44 101t115 38q78 0 125.5 -52.5zM135 0v1597h381v-1597h-381z" />
    <glyph glyph-name="Lcaron" unicode="&#x13d;" horiz-adv-x="1124" 
d="M895 1167l-29 9l105 430l35 -9zM1094 33v-33h-924v1536h393v-1503h531z" />
    <glyph glyph-name="lcaron" unicode="&#x13e;" horiz-adv-x="651" 
d="M653 1167l-28 9l104 430l37 -9zM135 0v1597h381v-1597h-381z" />
    <glyph glyph-name="Lslash" unicode="&#x141;" horiz-adv-x="1173" 
d="M1147 33v-33h-924v676l-160 -111l-20 29l180 125v817h393v-604l295 205l19 -29l-314 -217v-858h531z" />
    <glyph glyph-name="lslash" unicode="&#x142;" horiz-adv-x="743" 
d="M563 1008v-1008h-381v793l-127 -86l-20 28l147 101v761h381v-546l127 86l21 -29z" />
    <glyph glyph-name="Nacute" unicode="&#x143;" horiz-adv-x="1572" 
d="M508 1622l-10 29l643 235l12 -33zM170 0v1556h33l1157 -1060v1040h41v-1556h-33l-1157 1060v-1040h-41z" />
    <glyph glyph-name="nacute" unicode="&#x144;" horiz-adv-x="1347" 
d="M408 1231l-15 26l537 316l16 -29zM1125.5 1041.5q95.5 -95.5 95.5 -253.5v-788h-381v905q0 66 -32 107t-81 41q-59 0 -117.5 -48.5t-93.5 -127.5v-877h-381v1116h342l19 -205q43 102 147.5 164t230.5 62q156 0 251.5 -95.5z" />
    <glyph glyph-name="uni0145" unicode="&#x145;" horiz-adv-x="1572" 
d="M907 -140.5q47 -52.5 47 -135.5q0 -100 -69.5 -181.5t-184.5 -115.5l-12 26q88 33 147.5 96.5t69.5 137.5q-41 -51 -135 -52q-66 0 -106.5 38t-40.5 100q0 63 44 101t115 38q78 0 125 -52.5zM170 0v1556h33l1157 -1060v1040h41v-1556h-33l-1157 1060v-1040h-41z" />
    <glyph glyph-name="uni0146" unicode="&#x146;" horiz-adv-x="1347" 
d="M799 -140.5q47 -52.5 47 -135.5q0 -100 -69.5 -181.5t-184.5 -115.5l-12 26q88 33 147 96.5t70 137.5q-41 -51 -135 -52q-66 0 -107 38t-41 100q0 63 44 101t116 38q78 0 125 -52.5zM1125.5 1041.5q95.5 -95.5 95.5 -253.5v-788h-381v905q0 66 -32 107t-81 41
q-59 0 -117.5 -48.5t-93.5 -127.5v-877h-381v1116h342l19 -205q43 102 147.5 164t230.5 62q156 0 251.5 -95.5z" />
    <glyph glyph-name="Ncaron" unicode="&#x147;" horiz-adv-x="1572" 
d="M1196 1972l14 -16l-401 -326l-401 326l14 16l387 -284zM170 0v1556h33l1157 -1060v1040h41v-1556h-33l-1157 1060v-1040h-41z" />
    <glyph glyph-name="ncaron" unicode="&#x148;" horiz-adv-x="1347" 
d="M1006 1616l14 -17l-342 -346l-340 346l14 17l326 -305zM1125.5 1041.5q95.5 -95.5 95.5 -253.5v-788h-381v905q0 66 -32 107t-81 41q-59 0 -117.5 -48.5t-93.5 -127.5v-877h-381v1116h342l19 -205q43 102 147.5 164t230.5 62q156 0 251.5 -95.5z" />
    <glyph glyph-name="Eng" unicode="&#x14a;" horiz-adv-x="1572" 
d="M1401 1536v-1536q0 -127 -56.5 -206t-166.5 -140l-11 20q94 55 142.5 126t50.5 188l-1149 1052v-1040h-41v1556h33l1157 -1060v1040h41z" />
    <glyph glyph-name="eng" unicode="&#x14b;" horiz-adv-x="1347" 
d="M1125.5 1041.5q95.5 -95.5 95.5 -253.5v-720q0 -213 -115 -336t-336 -203l-12 20q82 88 82 418v938q0 66 -32 107t-81 41q-59 0 -117.5 -48.5t-93.5 -127.5v-877h-381v1116h342l19 -205q43 102 147.5 164t230.5 62q156 0 251.5 -95.5z" />
    <glyph glyph-name="Omacron" unicode="&#x14c;" horiz-adv-x="1841" 
d="M588 1659v33h667v-33h-667zM1649.5 355.5q-103.5 -179.5 -292 -277.5t-435.5 -98q-248 0 -437.5 98t-293 277.5t-103.5 412.5t103.5 412.5t293 277.5t437.5 98t436 -98t291.5 -277.5t103.5 -412.5t-103.5 -412.5zM558 373q52 -172 146.5 -266.5t217.5 -94.5t217 94.5
t146 266.5t52 395t-52 395t-146.5 266.5t-216.5 94.5q-123 0 -217.5 -94.5t-146.5 -266.5t-52 -395t52 -395z" />
    <glyph glyph-name="omacron" unicode="&#x14d;" horiz-adv-x="1351" 
d="M342 1372v33h668v-33h-668zM1204 256q-76 -131 -212 -203.5t-316 -72.5t-316.5 72.5t-212 203.5t-75.5 303t75.5 303t212 203t316.5 72t316 -72t212 -203t76 -303t-76 -303zM528.5 162.5q55.5 -150.5 147.5 -150.5t147.5 150.5t55.5 396.5t-55.5 395.5t-147.5 149.5
t-147.5 -149.5t-55.5 -395.5t55.5 -396.5z" />
    <glyph glyph-name="Ohungarumlaut" unicode="&#x150;" horiz-adv-x="1841" 
d="M1122 2040l21 -29l-565 -391l-17 25zM1571 2040l20 -29l-565 -391l-16 25zM1649.5 355.5q-103.5 -179.5 -292 -277.5t-435.5 -98q-248 0 -437.5 98t-293 277.5t-103.5 412.5t103.5 412.5t293 277.5t437.5 98t436 -98t291.5 -277.5t103.5 -412.5t-103.5 -412.5zM558 373
q52 -172 146.5 -266.5t217.5 -94.5t217 94.5t146 266.5t52 395t-52 395t-146.5 266.5t-216.5 94.5q-123 0 -217.5 -94.5t-146.5 -266.5t-52 -395t52 -395z" />
    <glyph glyph-name="ohungarumlaut" unicode="&#x151;" horiz-adv-x="1351" 
d="M764 1673l22 -22l-440 -443l-20 21zM1151 1673l23 -22l-441 -443l-20 21zM1204 256q-76 -131 -212 -203.5t-316 -72.5t-316.5 72.5t-212 203.5t-75.5 303t75.5 303t212 203t316.5 72t316 -72t212 -203t76 -303t-76 -303zM528.5 162.5q55.5 -150.5 147.5 -150.5
t147.5 150.5t55.5 396.5t-55.5 395.5t-147.5 149.5t-147.5 -149.5t-55.5 -395.5t55.5 -396.5z" />
    <glyph glyph-name="OE" unicode="&#x152;" horiz-adv-x="2230" 
d="M2183 33v-33h-919v100q-90 -57 -195.5 -88.5t-206.5 -31.5q-229 0 -404 98t-271.5 277.5t-96.5 412.5t96.5 412.5t271.5 277.5t404 98q104 0 210 -28.5t192 -81.5v90h907v-33h-514v-674h418v-32h-418v-764h526zM1138.5 76.5q65.5 21.5 125.5 62.5v1266q-59 35 -127 55.5
t-127 20.5q-150 0 -263.5 -89t-177 -251t-63.5 -373t63.5 -373t179 -251t267.5 -89q57 0 122.5 21.5z" />
    <glyph glyph-name="oe" unicode="&#x153;" horiz-adv-x="2070" 
d="M1280 584v-25q0 -154 44 -272.5t124 -183t182 -64.5q72 0 158 31.5t154 89.5l12 -19q-78 -74 -209 -117.5t-272 -43.5q-123 0 -223.5 49t-170.5 137q-70 -90 -173 -138t-230 -48q-180 0 -316.5 72.5t-212 203.5t-75.5 303t75.5 303t212 203t316.5 72q125 0 228.5 -47.5
t172.5 -135.5q66 88 162 135.5t215 47.5q168 0 296 -69t198.5 -192.5t70.5 -283.5v-8h-739zM823.5 161.5q55.5 149.5 55.5 397.5q0 246 -55.5 395.5t-147.5 149.5q-59 0 -105.5 -67.5t-72 -191.5t-25.5 -286q0 -164 25.5 -288t71.5 -191.5t106 -67.5q92 0 147.5 149.5z
M1334 971q-48 -133 -54 -355h338q0 219 -45 353.5t-119 134.5q-72 0 -120 -133z" />
    <glyph glyph-name="Racute" unicode="&#x154;" horiz-adv-x="1480" 
d="M389 1622l-10 29l643 235l12 -33zM1466 0h-446l-453 705h-4v-705h-393v1536h518q188 0 331.5 -51t222.5 -145.5t79 -217.5q0 -135 -93 -234.5t-257 -146.5zM629 737q125 0 200.5 105.5t75.5 279.5q0 172 -75.5 276.5t-200.5 104.5h-66v-766h66z" />
    <glyph glyph-name="racute" unicode="&#x155;" horiz-adv-x="890" 
d="M254 1231l-14 26l536 316l17 -29zM632.5 1043.5q100.5 72.5 227.5 72.5v-33q-121 0 -216 -73.5t-128 -192.5v-817h-381v1116h342l19 -266q36 121 136.5 193.5z" />
    <glyph glyph-name="uni0156" unicode="&#x156;" horiz-adv-x="1480" 
d="M899 -140.5q47 -52.5 47 -135.5q0 -100 -69.5 -181.5t-184.5 -115.5l-12 26q88 33 147.5 96.5t69.5 137.5q-41 -51 -135 -52q-66 0 -107 38t-41 100q0 63 44 101t116 38q78 0 125 -52.5zM1466 0h-446l-453 705h-4v-705h-393v1536h518q188 0 331.5 -51t222.5 -145.5
t79 -217.5q0 -135 -93 -234.5t-257 -146.5zM629 737q125 0 200.5 105.5t75.5 279.5q0 172 -75.5 276.5t-200.5 104.5h-66v-766h66z" />
    <glyph glyph-name="uni0157" unicode="&#x157;" horiz-adv-x="890" 
d="M444.5 -140.5q47.5 -52.5 47.5 -135.5q0 -100 -70 -181.5t-184 -115.5l-13 26q88 33 147.5 96.5t69.5 137.5q-41 -51 -135 -52q-66 0 -106.5 38t-40.5 100q0 63 44 101t115 38q78 0 125.5 -52.5zM632.5 1043.5q100.5 72.5 227.5 72.5v-33q-121 0 -216 -73.5t-128 -192.5
v-817h-381v1116h342l19 -266q36 121 136.5 193.5z" />
    <glyph glyph-name="Rcaron" unicode="&#x158;" horiz-adv-x="1480" 
d="M1075 1972l15 -16l-402 -326l-401 326l14 16l387 -284zM1466 0h-446l-453 705h-4v-705h-393v1536h518q188 0 331.5 -51t222.5 -145.5t79 -217.5q0 -135 -93 -234.5t-257 -146.5zM629 737q125 0 200.5 105.5t75.5 279.5q0 172 -75.5 276.5t-200.5 104.5h-66v-766h66z" />
    <glyph glyph-name="rcaron" unicode="&#x159;" horiz-adv-x="890" 
d="M852 1616l14 -17l-342 -346l-340 346l15 17l325 -305zM632.5 1043.5q100.5 72.5 227.5 72.5v-33q-121 0 -216 -73.5t-128 -192.5v-817h-381v1116h342l19 -266q36 121 136.5 193.5z" />
    <glyph glyph-name="Sacute" unicode="&#x15a;" horiz-adv-x="1200" 
d="M307 1622l-10 29l643 235l12 -33zM1061 182.5q-72 -102.5 -191.5 -152.5t-265.5 -50q-164 0 -309 62t-246 173l21 25q74 -86 182 -136.5t213 -50.5q125 0 201.5 70t76.5 186q0 80 -37.5 139.5t-93 102.5t-151.5 102q-115 72 -182.5 126.5t-115.5 140.5t-48 204
q0 199 132 315.5t351 116.5q135 0 263 -46t210 -121l-16 -25q-70 53 -157 86t-163 33q-104 0 -169.5 -62.5t-65.5 -167.5q0 -76 36.5 -134t92 -100t149.5 -99q115 -70 185.5 -127.5t120 -146.5t49.5 -212q0 -149 -72 -251.5z" />
    <glyph glyph-name="sacute" unicode="&#x15b;" horiz-adv-x="1067" 
d="M260 1231l-14 26l536 316l17 -29zM954.5 157q-61.5 -85 -172 -131t-254.5 -46q-145 0 -272 47t-205 129l17 18q63 -63 159.5 -102t190.5 -39q104 0 165.5 44t61.5 122q0 55 -31.5 96t-79 67.5t-131.5 67.5q-102 47 -166.5 87t-109.5 105.5t-45 161.5q0 104 56.5 184.5
t158.5 124.5t235 44q131 0 244 -42t178 -112l-12 -18q-59 55 -137 87.5t-156 32.5q-82 0 -140 -37.5t-58 -113.5q0 -53 30.5 -91t77.5 -65.5t129 -64.5q104 -47 170 -87t112 -106.5t46 -165.5q0 -112 -61.5 -197z" />
    <glyph glyph-name="Scedilla" unicode="&#x15e;" horiz-adv-x="1200" 
d="M600 -20l-39 -111q137 -4 220 -47t83 -113q0 -82 -128 -131t-337 -49l4 20q94 0 150.5 42t56.5 110q0 47 -26.5 86t-71.5 53l49 142q-152 8 -285 69.5t-227 163.5l21 25q74 -86 182 -136.5t213 -50.5q125 0 201.5 70t76.5 186q0 80 -37.5 139.5t-93 102.5t-151.5 102
q-115 72 -182.5 126.5t-115.5 140.5t-48 204q0 199 132 315.5t351 116.5q135 0 263 -46t210 -121l-16 -25q-70 53 -157 86t-163 33q-104 0 -169.5 -62.5t-65.5 -167.5q0 -76 36.5 -134t92 -100t149.5 -99q115 -70 185.5 -127.5t120 -146.5t49.5 -212q0 -150 -72 -252
t-191.5 -152t-265.5 -50h-4z" />
    <glyph glyph-name="scedilla" unicode="&#x15f;" horiz-adv-x="1067" 
d="M955.5 158q-60.5 -84 -169 -131t-249.5 -47l-39 -111q137 -4 220 -47t83 -113q0 -82 -128 -131t-337 -49l4 20q94 0 151.5 42t57.5 110q0 47 -27.5 86t-72.5 53l47 140q-135 6 -253 53t-192 123l17 18q63 -63 159.5 -102t190.5 -39q104 0 165.5 44t61.5 122
q0 55 -31.5 96t-79 67.5t-131.5 67.5q-102 47 -166.5 87t-109.5 105.5t-45 161.5q0 104 56.5 184.5t158.5 124.5t235 44q131 0 244 -42t178 -112l-12 -18q-59 55 -137 87.5t-156 32.5q-82 0 -140 -37.5t-58 -113.5q0 -53 30.5 -91t77.5 -65.5t129 -64.5q104 -47 170 -87
t112 -106.5t46 -165.5q0 -112 -60.5 -196z" />
    <glyph glyph-name="Scaron" unicode="&#x160;" horiz-adv-x="1200" 
d="M995 1972l15 -16l-402 -326l-401 326l14 16l387 -284zM1061 182.5q-72 -102.5 -191.5 -152.5t-265.5 -50q-164 0 -309 62t-246 173l21 25q74 -86 182 -136.5t213 -50.5q125 0 201.5 70t76.5 186q0 80 -37.5 139.5t-93 102.5t-151.5 102q-115 72 -182.5 126.5
t-115.5 140.5t-48 204q0 199 132 315.5t351 116.5q135 0 263 -46t210 -121l-16 -25q-70 53 -157 86t-163 33q-104 0 -169.5 -62.5t-65.5 -167.5q0 -76 36.5 -134t92 -100t149.5 -99q115 -70 185.5 -127.5t120 -146.5t49.5 -212q0 -149 -72 -251.5z" />
    <glyph glyph-name="scaron" unicode="&#x161;" horiz-adv-x="1067" 
d="M858 1616l14 -17l-342 -346l-340 346l15 17l325 -305zM954.5 157q-61.5 -85 -172 -131t-254.5 -46q-145 0 -272 47t-205 129l17 18q63 -63 159.5 -102t190.5 -39q104 0 165.5 44t61.5 122q0 55 -31.5 96t-79 67.5t-131.5 67.5q-102 47 -166.5 87t-109.5 105.5t-45 161.5
q0 104 56.5 184.5t158.5 124.5t235 44q131 0 244 -42t178 -112l-12 -18q-59 55 -137 87.5t-156 32.5q-82 0 -140 -37.5t-58 -113.5q0 -53 30.5 -91t77.5 -65.5t129 -64.5q104 -47 170 -87t112 -106.5t46 -165.5q0 -112 -61.5 -197z" />
    <glyph glyph-name="uni0162" unicode="&#x162;" horiz-adv-x="1406" 
d="M723 0l-47 -131q137 -2 220 -46t83 -114q0 -82 -128 -131t-337 -49l4 20q94 0 151.5 42t57.5 110q0 47 -27.5 86t-72.5 53l55 160h-176v1503h-494v33h1381v-33h-494v-1503h-176z" />
    <glyph glyph-name="uni0163" unicode="&#x163;" horiz-adv-x="935" 
d="M572 -178q83 -43 83 -113q0 -82 -128 -131t-337 -49l5 20q94 0 151 42t57 110q0 47 -27.5 86t-72.5 53l70 203q-82 51 -127 136t-45 192v712h-189v33h189l356 389h25v-389h342v-33h-342v-792q0 -115 51 -183.5t137 -68.5q49 0 99.5 20.5t82.5 53.5l13 -19
q-59 -51 -150.5 -82.5t-191.5 -31.5q-119 0 -215 45l-56 -156q137 -4 220 -47z" />
    <glyph glyph-name="Tcaron" unicode="&#x164;" horiz-adv-x="1406" 
d="M1092 1972l14 -16l-401 -326l-402 326l14 16l388 -284zM1393 1503h-494v-1503h-393v1503h-494v33h1381v-33z" />
    <glyph glyph-name="tcaron" unicode="&#x165;" horiz-adv-x="935" 
d="M758 1202l-29 8l105 428l36 -8zM965 94q-59 -51 -150.5 -82.5t-191.5 -31.5q-125 0 -220.5 49t-148.5 137t-53 205v712h-189v33h189l356 389h25v-389h342v-33h-342v-792q0 -115 51 -183.5t137 -68.5q49 0 99.5 20.5t82.5 53.5z" />
    <glyph glyph-name="Tbar" unicode="&#x166;" horiz-adv-x="1423" 
d="M907 1503v-694h246v-33h-246v-776h-391v776h-246v33h246v694h-496v33h1381v-33h-494z" />
    <glyph glyph-name="tbar" unicode="&#x167;" horiz-adv-x="960" 
d="M979 94q-59 -51 -150.5 -82.5t-191.5 -31.5q-125 0 -220 49t-148.5 137t-53.5 205v229h-188v33h188v450h-188v33h188l356 389h25v-389h342v-33h-342v-450h332v-33h-332v-309q0 -115 51 -183.5t137 -68.5q49 0 99.5 20.5t83.5 53.5z" />
    <glyph glyph-name="Umacron" unicode="&#x16a;" horiz-adv-x="1550" 
d="M571 1659v33h668v-33h-668zM1248.5 119q-142.5 -139 -398.5 -139q-201 0 -358.5 72.5t-246.5 205.5t-89 305v973h393v-1053q0 -133 45 -234.5t128 -156.5t191 -55q129 0 228.5 55t154 156.5t54.5 234.5v1053h41v-1042q0 -236 -142.5 -375z" />
    <glyph glyph-name="umacron" unicode="&#x16b;" horiz-adv-x="1327" 
d="M330 1372v33h667v-33h-667zM1190 1116v-1116h-340l-21 195q-41 -96 -141 -155.5t-225 -59.5q-152 0 -244 93t-92 244v799h381v-913q0 -63 27.5 -101.5t74.5 -38.5q57 0 111.5 45.5t87.5 120.5v887h381z" />
    <glyph glyph-name="Uring" unicode="&#x16e;" horiz-adv-x="1550" 
d="M1064 1680.5q-60 -58.5 -161 -58.5q-98 0 -158.5 58.5t-60.5 152.5t60.5 152.5t158.5 58.5q100 0 160.5 -58.5t60.5 -152.5t-60 -152.5zM774 1703q49 -48 129 -48q82 0 131 48t49 130t-49 130t-131 48q-80 0 -129 -48t-49 -130t49 -130zM1248.5 119
q-142.5 -139 -398.5 -139q-201 0 -358.5 72.5t-246.5 205.5t-89 305v973h393v-1053q0 -133 45 -234.5t128 -156.5t191 -55q129 0 228.5 55t154 156.5t54.5 234.5v1053h41v-1042q0 -236 -142.5 -375z" />
    <glyph glyph-name="uring" unicode="&#x16f;" horiz-adv-x="1327" 
d="M822.5 1305.5q-60.5 -58.5 -160.5 -58.5q-98 0 -159 58.5t-61 152.5t60.5 152.5t159.5 58.5q100 0 160.5 -58.5t60.5 -152.5t-60.5 -152.5zM532.5 1329q49.5 -49 129.5 -49q82 0 131 49t49 129q0 82 -49.5 130t-130.5 48q-80 0 -129.5 -48t-49.5 -130q0 -80 49.5 -129z
M1190 1116v-1116h-340l-21 195q-41 -96 -141 -155.5t-225 -59.5q-152 0 -244 93t-92 244v799h381v-913q0 -63 27.5 -101.5t74.5 -38.5q57 0 111.5 45.5t87.5 120.5v887h381z" />
    <glyph glyph-name="Uhungarumlaut" unicode="&#x170;" horiz-adv-x="1550" 
d="M1104 2040l20 -29l-565 -391l-16 25zM1552 2040l21 -29l-565 -391l-17 25zM1248.5 119q-142.5 -139 -398.5 -139q-201 0 -358.5 72.5t-246.5 205.5t-89 305v973h393v-1053q0 -133 45 -234.5t128 -156.5t191 -55q129 0 228.5 55t154 156.5t54.5 234.5v1053h41v-1042
q0 -236 -142.5 -375z" />
    <glyph glyph-name="uhungarumlaut" unicode="&#x171;" horiz-adv-x="1327" 
d="M752 1673l22 -22l-440 -443l-21 21zM1139 1673l22 -22l-440 -443l-21 21zM1190 1116v-1116h-340l-21 195q-41 -96 -141 -155.5t-225 -59.5q-152 0 -244 93t-92 244v799h381v-913q0 -63 27.5 -101.5t74.5 -38.5q57 0 111.5 45.5t87.5 120.5v887h381z" />
    <glyph glyph-name="Uogonek" unicode="&#x172;" horiz-adv-x="1550" 
d="M1391 1536v-1042q0 -195 -98.5 -326t-278.5 -172q-82 -55 -132.5 -128t-50.5 -136t34 -101.5t91 -38.5q39 0 72 13l8 -21q-47 -25 -110.5 -40t-122.5 -15q-100 0 -161.5 48t-61.5 126t85 151.5t238 127.5q-18 -2 -53 -2q-201 0 -358.5 72.5t-246.5 205.5t-89 305v973h393
v-1053q0 -133 45 -234.5t128 -156.5t191 -55q129 0 228.5 55t154 156.5t54.5 234.5v1053h41z" />
    <glyph glyph-name="uogonek" unicode="&#x173;" horiz-adv-x="1327" 
d="M1206 -416q-45 -25 -108.5 -40t-122.5 -15q-100 0 -161.5 48t-61.5 126q0 86 100 165t278 132h-280l-21 195q-41 -96 -141 -155.5t-225 -59.5q-152 0 -244 93t-92 244v799h381v-913q0 -63 27.5 -101.5t74.5 -38.5q57 0 111.5 45.5t87.5 120.5v887h381v-1116h-2
q-82 -55 -133 -129t-51 -139q0 -63 33.5 -101.5t88.5 -38.5q41 0 72 13z" />
    <glyph glyph-name="Wcircumflex" unicode="&#x174;" horiz-adv-x="1904" 
d="M709 1630l-15 17l402 325l401 -325l-14 -17l-387 285zM1898 1536l-548 -1556h-33l-359 997l-352 -997h-33l-565 1556h404l354 -985l352 1005h33l358 -1003l346 983h43z" />
    <glyph glyph-name="wcircumflex" unicode="&#x175;" horiz-adv-x="1589" 
d="M580 1253l-15 17l340 346l342 -346l-14 -17l-328 306zM1585 1116l-465 -1136h-28l-297 673l-271 -673h-30l-500 1136h395l293 -649l262 670h35l303 -672l262 651h41z" />
    <glyph glyph-name="Ycircumflex" unicode="&#x176;" horiz-adv-x="1447" 
d="M465 1630l-14 17l401 325l401 -325l-14 -17l-387 285zM942 684v-684h-393v657l-526 879h438l465 -805l460 805h44z" />
    <glyph glyph-name="ycircumflex" unicode="&#x177;" horiz-adv-x="1161" 
d="M340 1253l-14 17l340 346l342 -346l-15 -17l-327 306zM1163 1116l-706 -1569h-41l164 367l-582 1202h418l360 -770l346 770h41z" />
    <glyph glyph-name="Ydieresis" unicode="&#x178;" horiz-adv-x="1447" 
d="M761 1701q-46 -42 -120 -42q-76 0 -122 42t-46 111q0 70 46 112t122 42q74 0 120 -42t46 -112q0 -69 -46 -111zM1183 1701q-46 -42 -122 -42t-121 42t-45 111q0 70 45 112t121 42t122 -42t46 -112q0 -69 -46 -111zM942 684v-684h-393v657l-526 879h438l465 -805l460 805
h44z" />
    <glyph glyph-name="Zacute" unicode="&#x179;" horiz-adv-x="1286" 
d="M383 1622l-10 29l643 235l12 -33zM14 0v25l817 1478h-745v33h1176v-23l-840 -1480h833v-33h-1241z" />
    <glyph glyph-name="zacute" unicode="&#x17a;" horiz-adv-x="1032" 
d="M295 1231l-14 26l536 316l17 -29zM12 0v20l588 1063h-534v33h942v-22l-584 -1061h577v-33h-989z" />
    <glyph glyph-name="Zdotaccent" unicode="&#x17b;" horiz-adv-x="1286" 
d="M840.5 1696.5q-60.5 -56.5 -158.5 -56.5t-158.5 56.5t-60.5 148.5q0 94 60.5 149.5t158.5 55.5t158.5 -55.5t60.5 -149.5q0 -92 -60.5 -148.5zM14 0v25l817 1478h-745v33h1176v-23l-840 -1480h833v-33h-1241z" />
    <glyph glyph-name="zdotaccent" unicode="&#x17c;" horiz-adv-x="1032" 
d="M721 1290.5q-57 -55.5 -154 -55.5q-96 0 -153.5 55.5t-57.5 145.5t58.5 144t152.5 54t152.5 -54t58.5 -144t-57 -145.5zM12 0v20l588 1063h-534v33h942v-22l-584 -1061h577v-33h-989z" />
    <glyph glyph-name="Zcaron" unicode="&#x17d;" horiz-adv-x="1286" 
d="M1071 1972l14 -16l-401 -326l-401 326l14 16l387 -284zM14 0v25l817 1478h-745v33h1176v-23l-840 -1480h833v-33h-1241z" />
    <glyph glyph-name="zcaron" unicode="&#x17e;" horiz-adv-x="1032" 
d="M893 1616l14 -17l-342 -346l-340 346l15 17l325 -305zM12 0v20l588 1063h-534v33h942v-22l-584 -1061h577v-33h-989z" />
    <glyph glyph-name="florin" unicode="&#x192;" horiz-adv-x="1269" 
d="M878.5 1427.5q-51.5 -63.5 -51.5 -172.5v-426h297v-32h-297v-424q0 -117 -54 -206t-152.5 -138t-227.5 -49q-98 0 -191 31.5t-153 82.5l14 21q37 -33 86.5 -51.5t96.5 -18.5q86 0 137 64.5t51 171.5v516h-256v32h256v334q0 117 54.5 206t152.5 138t227 49
q100 0 193.5 -31.5t150.5 -82.5l-12 -19q-39 31 -88 49.5t-94 18.5q-88 0 -139.5 -63.5z" />
    <glyph glyph-name="uni0218" unicode="&#x218;" horiz-adv-x="1200" 
d="M706.5 -140.5q47.5 -52.5 47.5 -135.5q0 -100 -70 -181.5t-184 -115.5l-13 26q88 33 147.5 96.5t70.5 137.5q-41 -51 -136 -52q-66 0 -106.5 38t-40.5 100q0 63 44 101t116 38q77 0 124.5 -52.5zM1061 182.5q-72 -102.5 -191.5 -152.5t-265.5 -50q-164 0 -309 62
t-246 173l21 25q74 -86 182 -136.5t213 -50.5q125 0 201.5 70t76.5 186q0 80 -37.5 139.5t-93 102.5t-151.5 102q-115 72 -182.5 126.5t-115.5 140.5t-48 204q0 199 132 315.5t351 116.5q135 0 263 -46t210 -121l-16 -25q-70 53 -157 86t-163 33q-104 0 -169.5 -62.5
t-65.5 -167.5q0 -76 36.5 -134t92 -100t149.5 -99q115 -70 185.5 -127.5t120 -146.5t49.5 -212q0 -149 -72 -251.5z" />
    <glyph glyph-name="uni0219" unicode="&#x219;" horiz-adv-x="1067" 
d="M645 -140.5q47 -52.5 47 -135.5q0 -100 -69.5 -181.5t-184.5 -115.5l-12 26q88 33 147.5 96.5t69.5 137.5q-41 -51 -135 -52q-66 0 -107 38t-41 100q0 63 44.5 101t115.5 38q78 0 125 -52.5zM954.5 157q-61.5 -85 -172 -131t-254.5 -46q-145 0 -272 47t-205 129l17 18
q63 -63 159.5 -102t190.5 -39q104 0 165.5 44t61.5 122q0 55 -31.5 96t-79 67.5t-131.5 67.5q-102 47 -166.5 87t-109.5 105.5t-45 161.5q0 104 56.5 184.5t158.5 124.5t235 44q131 0 244 -42t178 -112l-12 -18q-59 55 -137 87.5t-156 32.5q-82 0 -140 -37.5t-58 -113.5
q0 -53 30.5 -91t77.5 -65.5t129 -64.5q104 -47 170 -87t112 -106.5t46 -165.5q0 -112 -61.5 -197z" />
    <glyph glyph-name="uni021A" unicode="&#x21a;" horiz-adv-x="1406" 
d="M823 -140.5q47 -52.5 47 -135.5q0 -100 -69.5 -181.5t-184.5 -115.5l-12 26q88 33 147.5 96.5t69.5 137.5q-41 -51 -135 -52q-66 0 -106.5 38t-40.5 100q0 63 44 101t115 38q78 0 125 -52.5zM1393 1503h-494v-1503h-393v1503h-494v33h1381v-33z" />
    <glyph glyph-name="uni021B" unicode="&#x21b;" horiz-adv-x="935" 
d="M518 -140.5q47 -52.5 47 -135.5q0 -100 -69.5 -181.5t-184.5 -115.5l-12 26q88 33 147.5 96.5t69.5 137.5q-41 -51 -135 -52q-66 0 -107 38t-41 100q0 63 44.5 101t115.5 38q78 0 125 -52.5zM965 94q-59 -51 -150.5 -82.5t-191.5 -31.5q-125 0 -220.5 49t-148.5 137
t-53 205v712h-189v33h189l356 389h25v-389h342v-33h-342v-792q0 -115 51 -183.5t137 -68.5q49 0 99.5 20.5t82.5 53.5z" />
    <glyph glyph-name="uni0237" unicode="&#x237;" horiz-adv-x="651" 
d="M401.5 -269q-114.5 -124 -335.5 -202l-11 20q80 80 80 398v1169h381v-1048q0 -213 -114.5 -337z" />
    <glyph glyph-name="circumflex" unicode="&#x2c6;" horiz-adv-x="1228" 
d="M145 1196l-14 16l340 347l342 -347l-14 -16l-328 305z" />
    <glyph glyph-name="caron" unicode="&#x2c7;" horiz-adv-x="1228" 
d="M799 1559l14 -17l-342 -346l-340 346l14 17l326 -306z" />
    <glyph glyph-name="breve" unicode="&#x2d8;" horiz-adv-x="1228" 
d="M692 1295q-98 -83 -211 -83t-210 82t-146 217l20 11q57 -123 150 -198q92 -75 186 -75q96 0 189 75q92 75 147 198l21 -11q-48 -133 -146 -216z" />
    <glyph glyph-name="dotaccent" unicode="&#x2d9;" horiz-adv-x="1228" 
d="M567 1290q-57 -55 -153 -55t-154 55q-57 55 -57 146q0 90 58 144t153 54q94 0 152 -54t59 -144q-1 -91 -58 -146z" />
    <glyph glyph-name="ring" unicode="&#x2da;" horiz-adv-x="1228" 
d="M536 1248q-60 -58 -161 -58q-98 0 -159 58q-60 58 -60 153q0 94 60 152t159 59q100 0 161 -59q60 -58 60 -152q0 -95 -60 -153zM246 1272q49 -49 129 -49q82 0 131 49t49 129q0 82 -49 130t-131 48q-80 0 -129 -48t-49 -130q0 -80 49 -129z" />
    <glyph glyph-name="ogonek" unicode="&#x2db;" horiz-adv-x="1228" 
d="M430 -456q-63 -15 -121 -15q-102 0 -164 48q-61 48 -61 126q0 90 113 173t311 136l14 -12q-84 -55 -134 -129t-50 -139q0 -63 34 -102q34 -38 89 -38q41 0 71 13l9 -21q-48 -25 -111 -40z" />
    <glyph glyph-name="tilde" unicode="&#x2dc;" horiz-adv-x="1228" 
d="M283 1391q-49 -43 -90 -123l-23 10q84 188 244 188q55 0 96 -24q41 -25 92 -72q45 -43 80 -64q35 -22 78 -22q74 0 122 42t91 122l22 -10q-86 -188 -243 -189q-55 0 -97 25q-41 25 -94 74q-47 43 -81 64q-34 22 -77 22q-71 0 -120 -43z" />
    <glyph glyph-name="hungarumlaut" unicode="&#x2dd;" horiz-adv-x="1228" 
d="M680 1616l22 -23l-440 -442l-20 20zM1067 1616l23 -23l-441 -442l-20 20z" />
    <glyph glyph-name="gravecomb" unicode="&#x300;" 
d="M-133 1174l-541 313l17 29l538 -316z" />
    <glyph glyph-name="acutecomb" unicode="&#x301;" 
d="M-694 1174l-15 26l537 316l16 -29z" />
    <glyph glyph-name="uni0302" unicode="&#x302;" 
d="M-797 1196l-14 16l340 347l342 -347l-14 -16l-328 305z" />
    <glyph glyph-name="tildecomb" unicode="&#x303;" 
d="M-883 1391q-49 -43 -90 -123l-22 10q84 188 243 188q55 0 96.5 -24.5t92.5 -71.5q45 -43 79.5 -64.5t77.5 -21.5q74 0 122 42t91 122l23 -10q-86 -188 -244 -189q-55 0 -96 24.5t-94 74.5q-47 43 -81 64.5t-77 21.5q-72 0 -121 -43z" />
    <glyph glyph-name="uni0304" unicode="&#x304;" 
d="M-793 1315v33h668v-33h-668z" />
    <glyph glyph-name="uni0306" unicode="&#x306;" 
d="M-272.5 1295q-98.5 -83 -210.5 -83q-113 0 -210.5 82t-146.5 217l21 11q57 -123 149 -198t187 -75q96 0 188 75t148 198l20 -11q-47 -133 -145.5 -216z" />
    <glyph glyph-name="uni0307" unicode="&#x307;" 
d="M-260 1290.5q-57 -55.5 -154 -55.5q-96 0 -153.5 55.5t-57.5 145.5t58.5 144t152.5 54t152.5 -54t58.5 -144t-57 -145.5z" />
    <glyph glyph-name="uni0308" unicode="&#x308;" 
d="M-574.5 1288q-46.5 -43 -119.5 -43q-76 0 -122 43t-46 111q0 70 46 112.5t122 42.5q74 0 120 -43t46 -112q0 -68 -46.5 -111zM-152.5 1288q-46.5 -43 -121.5 -43q-74 0 -120 43t-46 111q0 70 45 112.5t121 42.5t122 -43t46 -112q0 -68 -46.5 -111z" />
    <glyph glyph-name="uni030A" unicode="&#x30a;" 
d="M-216 1248.5q-60 -58.5 -161 -58.5q-98 0 -158.5 58.5t-60.5 152.5t60.5 152.5t158.5 58.5q100 0 160.5 -58.5t60.5 -152.5t-60 -152.5zM-506 1272q49 -49 129 -49q82 0 131 49t49 129q0 82 -49 130t-131 48q-80 0 -129 -48t-49 -130q0 -80 49 -129z" />
    <glyph glyph-name="uni030B" unicode="&#x30b;" 
d="M-549 1616l23 -23l-441 -442l-20 20zM-162 1616l23 -23l-441 -442l-20 20z" />
    <glyph glyph-name="uni030C" unicode="&#x30c;" 
d="M-190 1559l14 -17l-342 -346l-340 346l14 17l326 -306z" />
    <glyph glyph-name="uni0312" unicode="&#x312;" 
d="M-244 1501q41 -45 41 -115q0 -72 -45 -114.5t-117 -42.5q-76 0 -123 57t-47 152q0 127 71 231.5t183 147.5l13 -29q-92 -43 -150.5 -130t-68.5 -188q20 35 56 55.5t81 20.5q65 0 106 -45z" />
    <glyph glyph-name="uni0326" unicode="&#x326;" 
d="M-250 -140.5q47 -52.5 47 -135.5q0 -100 -69.5 -181.5t-184.5 -115.5l-12 26q88 33 147.5 96.5t69.5 137.5q-41 -51 -135 -52q-66 0 -107 38t-41 100q0 63 44.5 101t115.5 38q78 0 125 -52.5z" />
    <glyph glyph-name="uni0327" unicode="&#x327;" 
d="M-174 -177q82 -44 82 -114q0 -82 -128 -131t-337 -49l4 20q94 0 151.5 42t57.5 110q0 47 -26.5 86t-71.5 53l63 191l33 -31l-47 -131q137 -2 219 -46z" />
    <glyph glyph-name="uni0328" unicode="&#x328;" 
d="M-210.5 -455.5q-63.5 -15.5 -121.5 -15.5q-102 0 -163.5 48t-61.5 126q0 90 112.5 173t311.5 136l14 -12q-84 -55 -134 -129t-50 -139q0 -63 33.5 -101.5t89.5 -38.5q41 0 71 13l9 -21q-47 -24 -110.5 -39.5z" />
    <glyph glyph-name="uni0335" unicode="&#x335;" 
d="M-1055 725v33h881v-33h-881z" />
    <glyph glyph-name="uni0336" unicode="&#x336;" 
d="M-1692 1110v33h1586v-33h-1586z" />
    <glyph glyph-name="uni0337" unicode="&#x337;" 
d="M-383 707v43l317 217l21 -29zM-700 537l-21 28l338 232v-43z" />
    <glyph glyph-name="uni0338" unicode="&#x338;" 
d="M-999 -123l-29 25l971 1267l28 -24z" />
    <glyph glyph-name="uni0394" unicode="&#x394;" horiz-adv-x="1400" 
d="M1401 23v-23h-1395v23l658 1533h28zM983 33l-485 1040l-445 -1040h930z" />
    <glyph glyph-name="uni03A9" unicode="&#x3a9;" horiz-adv-x="1808" 
d="M1676.5 659.5q-58.5 -108.5 -139.5 -183.5t-206 -169q-121 -90 -177 -148.5t-56 -125.5h518v-33h-559v33q0 88 26.5 157.5t79.5 163.5q49 90 80 159t52.5 168t21.5 226q0 164 -51.5 288t-144.5 192.5t-216 68.5t-216 -68.5t-144 -192.5t-51 -288q0 -127 21.5 -226
t52 -168t79.5 -159q53 -94 80 -163.5t27 -157.5v-33h-561v33h520q0 68 -56.5 126t-177.5 148q-125 94 -205.5 169t-139 183.5t-58.5 247.5q0 193 103.5 340.5t291.5 228t434 80.5t434.5 -80.5t292 -228t103.5 -340.5q0 -139 -58.5 -247.5z" />
    <glyph glyph-name="uni03BC" unicode="&#x3bc;" horiz-adv-x="1327" 
d="M1200 1116v-799q0 -152 -92 -244.5t-244 -92.5q-111 0 -205 48t-143 128v-607h-381v1567h381v-887q33 -76 88 -121t113 -45q45 0 73.5 39t28.5 101v913h381z" />
    <glyph glyph-name="pi" unicode="&#x3c0;" horiz-adv-x="1480" 
d="M1260 1083v-927q0 -57 30.5 -92t83.5 -35q27 0 47 10l4 -19q-37 -20 -90 -31.5t-106 -11.5q-158 0 -254 90.5t-96 237.5v778h-291v-1083h-381v1083h-203v33h1458v-33h-202z" />
    <glyph glyph-name="Wgrave" unicode="&#x1e80;" horiz-adv-x="1904" 
d="M1395 1622l-647 231l12 33l645 -235zM1898 1536l-548 -1556h-33l-359 997l-352 -997h-33l-565 1556h404l354 -985l352 1005h33l358 -1003l346 983h43z" />
    <glyph glyph-name="wgrave" unicode="&#x1e81;" horiz-adv-x="1589" 
d="M1178 1231l-541 313l16 29l539 -316zM1585 1116l-465 -1136h-28l-297 673l-271 -673h-30l-500 1136h395l293 -649l262 670h35l303 -672l262 651h41z" />
    <glyph glyph-name="Wacute" unicode="&#x1e82;" horiz-adv-x="1904" 
d="M797 1622l-11 29l644 235l12 -33zM1898 1536l-548 -1556h-33l-359 997l-352 -997h-33l-565 1556h404l354 -985l352 1005h33l358 -1003l346 983h43z" />
    <glyph glyph-name="wacute" unicode="&#x1e83;" horiz-adv-x="1589" 
d="M633 1231l-15 26l537 316l16 -29zM1585 1116l-465 -1136h-28l-297 673l-271 -673h-30l-500 1136h395l293 -649l262 670h35l303 -672l262 651h41z" />
    <glyph glyph-name="Wdieresis" unicode="&#x1e84;" horiz-adv-x="1904" 
d="M1004.5 1701q-46.5 -42 -119.5 -42q-76 0 -122 42t-46 111q0 70 46 112t122 42q74 0 120 -42t46 -112q0 -69 -46.5 -111zM1426.5 1701q-46.5 -42 -121.5 -42q-76 0 -121 42t-45 111q0 70 45 112t121 42t122 -42t46 -112q0 -69 -46.5 -111zM1898 1536l-548 -1556h-33
l-359 997l-352 -997h-33l-565 1556h404l354 -985l352 1005h33l358 -1003l346 983h43z" />
    <glyph glyph-name="wdieresis" unicode="&#x1e85;" horiz-adv-x="1589" 
d="M814 1346q-46 -43 -120 -43q-76 0 -122 43t-46 110q0 70 46 113t122 43q74 0 120 -43t46 -113q0 -67 -46 -110zM1236 1346q-46 -43 -122 -43q-74 0 -120 43t-46 110q0 70 45 113t121 43t122 -43t46 -113q0 -67 -46 -110zM1585 1116l-465 -1136h-28l-297 673l-271 -673
h-30l-500 1136h395l293 -649l262 670h35l303 -672l262 651h41z" />
    <glyph glyph-name="uni1E9E" unicode="&#x1e9e;" horiz-adv-x="1687" 
d="M1508.5 666.5q97.5 -117.5 97.5 -265.5q0 -125 -69 -221t-194.5 -148t-289.5 -52q-102 0 -201.5 27.5t-161.5 70.5l12 24q45 -29 98.5 -46t100.5 -17q129 0 208 99.5t79 262.5q0 158 -97.5 270.5t-256.5 141.5l284 690h-555v-1503h-393v1536h1382v-23l-313 -663
q172 -66 269.5 -183.5z" />
    <glyph glyph-name="Ygrave" unicode="&#x1ef2;" horiz-adv-x="1447" 
d="M1151 1622l-647 231l12 33l645 -235zM942 684v-684h-393v657l-526 879h438l465 -805l460 805h44z" />
    <glyph glyph-name="ygrave" unicode="&#x1ef3;" horiz-adv-x="1161" 
d="M938 1231l-541 313l17 29l538 -316zM1163 1116l-706 -1569h-41l164 367l-582 1202h418l360 -770l346 770h41z" />
    <glyph glyph-name="endash" unicode="&#x2013;" horiz-adv-x="1185" 
d="M102 557v33h981v-33h-981z" />
    <glyph glyph-name="emdash" unicode="&#x2014;" horiz-adv-x="1531" 
d="M102 557v33h1325v-33h-1325z" />
    <glyph glyph-name="quoteleft" unicode="&#x2018;" horiz-adv-x="610" 
d="M483.5 1228.5q57.5 -61.5 57.5 -163.5q0 -100 -62.5 -162.5t-165.5 -62.5q-109 0 -175 76.5t-66 201.5q0 150 99 269.5t261 168.5l10 -24q-129 -47 -213 -139.5t-98 -200.5q29 47 82 72.5t121 25.5q92 0 149.5 -61.5z" />
    <glyph glyph-name="quoteright" unicode="&#x2019;" horiz-adv-x="608" 
d="M477.5 1479.5q65.5 -76.5 65.5 -201.5q0 -150 -98.5 -269.5t-260.5 -168.5l-10 24q127 47 212 140.5t99 201.5q-29 -47 -82 -73.5t-120 -26.5q-94 0 -151.5 62.5t-57.5 162.5t62.5 162.5t164.5 62.5q111 0 176.5 -76.5z" />
    <glyph glyph-name="quotesinglbase" unicode="&#x201a;" horiz-adv-x="638" 
d="M485 353q66 -77 66 -201q0 -150 -98 -270t-260 -169l-11 25q127 47 212 140t100 202q-29 -47 -82 -74t-121 -26q-94 0 -152 62q-57 62 -57 163q0 100 62 163q62 62 165 62q110 0 176 -77z" />
    <glyph glyph-name="quotedblleft" unicode="&#x201c;" horiz-adv-x="1150" 
d="M483 1229q57 -61 58 -164q0 -100 -63 -163q-62 -62 -165 -62q-109 0 -175 76q-67 77 -66 202q0 150 99 270t261 168l10 -24q-129 -47 -213 -139t-98 -201q29 47 82 73t121 25q92 0 149 -61zM1024 1229q57 -61 57 -164q0 -100 -62 -163q-62 -62 -165 -62q-109 0 -175 76
q-67 77 -67 202q0 150 100 270q99 120 261 168l10 -24q-129 -47 -213 -139t-98 -201q29 47 82 73t120 25q93 0 150 -61z" />
    <glyph glyph-name="quotedblright" unicode="&#x201d;" horiz-adv-x="1150" 
d="M477.5 1479.5q65.5 -76.5 65.5 -201.5q0 -150 -98.5 -269.5t-260.5 -168.5l-10 24q127 47 212 140.5t99 201.5q-29 -47 -82 -73.5t-120 -26.5q-94 0 -151.5 62.5t-57.5 162.5t62.5 162.5t164.5 62.5q111 0 176.5 -76.5zM1018.5 1479.5q66.5 -76.5 66.5 -201.5
q0 -150 -99 -269.5t-261 -168.5l-10 24q127 47 212 140.5t99 201.5q-29 -47 -82 -73.5t-121 -26.5q-92 0 -149.5 62.5t-57.5 162.5t62.5 162.5t165.5 62.5q108 0 174.5 -76.5z" />
    <glyph glyph-name="quotedblbase" unicode="&#x201e;" horiz-adv-x="1177" 
d="M483 353q66 -77 66 -201q0 -150 -98 -270t-261 -169l-10 25q127 47 212 140t100 202q-29 -47 -82 -74t-121 -26q-94 0 -152 62q-57 62 -57 163q0 100 62 163q62 62 165 62q110 0 176 -77zM1025 353q67 -77 67 -201q0 -150 -100 -270q-99 -120 -261 -169l-10 25
q127 47 212 140t99 202q-29 -47 -82 -74t-121 -26q-92 0 -149 62t-57 163q0 100 62 163q62 62 165 62q108 0 175 -77z" />
    <glyph glyph-name="dagger" unicode="&#x2020;" horiz-adv-x="624" 
d="M539 1440h-205v-498h-41v498h-205v33h205v268h41v-268h205v-33z" />
    <glyph glyph-name="daggerdbl" unicode="&#x2021;" horiz-adv-x="657" 
d="M350 1495v-307h205v-33h-205v-213h-41v213h-205v33h205v307h-205v33h205v213h41v-213h205v-33h-205z" />
    <glyph glyph-name="bullet" unicode="&#x2022;" horiz-adv-x="827" 
d="M612.5 546q-75.5 -75 -198.5 -75q-125 0 -199 75t-74 197q0 123 75 197t198 74t198.5 -75t75.5 -196q0 -122 -75.5 -197z" />
    <glyph glyph-name="ellipsis" unicode="&#x2026;" horiz-adv-x="1835" 
d="M1690 42q-63 -62 -166 -62q-102 0 -165 62q-62 62 -63 163q0 100 63 163q62 62 165 62q102 0 166 -62q63 -62 63 -163t-63 -163zM1083 42q-63 -62 -165 -62t-165 62q-62 62 -63 163q0 100 63 163q62 62 165 62q102 0 165 -62t64 -163q-1 -101 -64 -163zM475 42
q-63 -62 -166 -62q-102 0 -165 62q-62 62 -62 163q0 100 62 163q62 62 165 62q102 0 166 -62q63 -62 64 -163q-1 -101 -64 -163z" />
    <glyph glyph-name="perthousand" unicode="&#x2030;" horiz-adv-x="2789" 
d="M2623 109q-102 -119 -270 -119q-111 0 -196 54q-86 54 -134 152q-47 97 -47 226t47 227t134 153q86 54 196 54q168 0 270 -120t103 -314q-1 -194 -103 -313zM2277 125q29 -113 76 -113q45 0 73 113t28 297t-28 298t-73 114q-47 0 -76 -113t-28 -299q-1 -184 28 -297z
M711 801q-102 -119 -271 -119q-111 0 -196 54q-86 54 -133 152q-47 97 -48 226q0 129 48 227q47 98 133 153q86 54 196 54q168 0 271 -120q102 -120 102 -314t-102 -313zM365 817q29 -113 75 -112q45 0 73 112q28 113 28 297t-28 298t-73 114q-47 0 -75 -113
q-29 -113 -29 -299q0 -184 29 -297zM375 0l1151 1536h45l-1151 -1536h-45zM1778 109q-102 -119 -271 -119q-111 0 -196 54q-86 54 -133 152q-47 97 -48 226q0 129 48 227q47 98 133 153q86 54 196 54q168 0 271 -120q102 -120 102 -314t-102 -313zM1432 125q29 -113 75 -113
q45 0 73 113t28 297t-28 298t-73 114q-47 0 -75 -113q-29 -113 -29 -299q0 -184 29 -297z" />
    <glyph glyph-name="guilsinglleft" unicode="&#x2039;" horiz-adv-x="522" 
d="M80 567v13l307 387l21 -13l-254 -381l254 -380l-21 -13z" />
    <glyph glyph-name="guilsinglright" unicode="&#x203a;" horiz-adv-x="522" 
d="M117 193l254 380l-254 381l20 13l307 -387v-13l-307 -387z" />
    <glyph glyph-name="fraction" unicode="&#x2044;" horiz-adv-x="225" 
d="M-487 0l1151 1536h45l-1151 -1536h-45z" />
    <glyph glyph-name="lira" unicode="&#x20a4;" horiz-adv-x="1402" 
d="M1341 698q0 -207 -87 -365.5t-245.5 -245.5t-365.5 -87h-393v758l-164 -43v35l164 43v225l-164 -43v35l164 43v483h393v-379l414 111v-35l-414 -111v-223l414 111v-35l-414 -111v-831q195 0 345.5 83t235.5 234.5t89 347.5h28z" />
    <glyph glyph-name="Euro" unicode="&#x20ac;" horiz-adv-x="1509" 
d="M1442 209q-82 -102 -218.5 -165.5t-273.5 -63.5q-188 0 -339.5 78.5t-247 224t-121.5 338.5h-181v32h177q-6 55 -7 115q0 59 7 115h-177v32h181q25 193 113.5 338.5t231 224t322.5 78.5q158 0 292 -51t214 -139l-14 -18q-63 59 -153.5 96t-170.5 37q-168 0 -280.5 -152.5
t-139.5 -413.5h430v-32h-434q-4 -74 -4 -115t4 -115h434v-32h-430q27 -260 140.5 -413t285.5 -153q82 0 176.5 48.5t165.5 127.5z" />
    <glyph glyph-name="uni20B1" unicode="&#x20b1;" horiz-adv-x="1591" 
d="M1528 1151h-174q12 -55 12 -115q0 -59 -12 -114h174v-33h-185q-53 -162 -211.5 -256t-388.5 -94h-94v-539h-391v889h-176v33h176v229h-176v33h176v352h485q229 0 389 -95t211 -257h185v-33zM649 1184h291q-23 147 -91.5 233t-164.5 86h-35v-319zM944 1151h-295v-229h295
q6 55 6 114q0 60 -6 115zM847.5 656q67.5 85 92.5 233h-291v-318h35q96 0 163.5 85z" />
    <glyph glyph-name="uni20B9" unicode="&#x20b9;" horiz-adv-x="1204" 
d="M1139 1503h-660q205 -39 327 -128t132 -212h201v-33h-201q-4 -121 -103.5 -212t-273.5 -140l483 -778h-446l-475 766h8q172 0 279.5 100.5t109.5 263.5h-397v33h397q-8 154 -114.5 247t-274.5 93h-8v33h1016v-33z" />
    <glyph glyph-name="uni20BD" unicode="&#x20bd;" horiz-adv-x="1470" 
d="M651 662v-230h387v-33h-387v-399h-391v399h-176v33h176v230h-176v32h176v842h506q190 0 336.5 -55.5t227.5 -154.5t81 -228t-81 -228.5t-227.5 -153.5t-336.5 -54h-115zM914.5 1391.5q-78.5 111.5 -207.5 111.5h-56v-809h56q129 0 207.5 110.5t78.5 293.5
q0 182 -78.5 293.5z" />
    <glyph glyph-name="uni20BF" unicode="&#x20bf;" horiz-adv-x="1394" 
d="M1183.5 144.5q-139.5 -109.5 -378.5 -136.5v-213h-41v209q-66 -4 -105 -4h-108v-205h-41v205h-340v1536h340v205h41v-205h108q39 0 105 -4v209h41v-215q203 -27 321.5 -123t118.5 -238q0 -139 -118.5 -232t-321.5 -120q240 -27 379 -132.5t139 -264.5
q0 -162 -139.5 -271.5zM765.5 1410q-63.5 93 -165.5 93h-37v-674h37q102 0 165.5 92.5t63.5 243.5q0 152 -63.5 245zM822 138.5q85 105.5 85 277.5t-84 276.5t-223 104.5h-37v-764h37q137 0 222 105.5z" />
    <glyph glyph-name="trademark" unicode="&#x2122;" horiz-adv-x="1533" 
d="M1190 922l-43 299l-184 -310h-15l-215 322l-39 -311h-24l75 624h17l289 -436l260 436h16l78 -624h-215zM59 1536h586v-20h-188v-594h-207v594h-191v20z" />
    <glyph glyph-name="oneeighth" unicode="&#x215b;" horiz-adv-x="1748" 
d="M1593 373q76 -59 76 -148q0 -106 -100 -171t-266 -64q-166 0 -268 64q-101 65 -101 171q0 88 77 148q77 59 206 76q-115 14 -184 65t-68 127q0 96 93 156q93 59 245 59t243 -59q92 -59 92 -156q0 -76 -67 -127q-68 -51 -182 -65q128 -17 204 -76zM1256 780
q-17 -53 -17 -139q0 -82 17 -132t47 -50q27 0 44 50t17 132q0 86 -17 139t-44 54q-30 -1 -47 -54zM1370 71q27 58 27 154q0 94 -27 153q-27 58 -67 58q-43 0 -70 -58t-27 -153q0 -96 27 -154t70 -59q40 1 67 59zM174 0l1151 1536h45l-1151 -1536h-45zM518 1546v-854h-258
v705l-194 -99l-11 21l447 227h16z" />
    <glyph glyph-name="threeeighths" unicode="&#x215c;" horiz-adv-x="1863" 
d="M1718 373q76 -59 76 -148q0 -106 -100 -171t-267 -64q-166 0 -267 64q-101 65 -101 171q0 88 77 148q77 59 205 76q-115 14 -183 65q-69 51 -68 127q0 96 93 156q93 59 244 59q152 0 244 -59t92 -156q0 -76 -67 -127q-68 -51 -183 -65q129 -17 205 -76zM1381 780
q-17 -53 -17 -139q0 -82 17 -132t46 -50q27 0 44 50t18 132q0 86 -18 139q-17 53 -44 54q-29 -1 -46 -54zM1495 71q27 58 27 154q0 94 -27 153q-27 58 -68 58q-43 0 -69 -58q-27 -58 -27 -153q0 -96 27 -154t69 -59q41 1 68 59zM301 0l1151 1536h45l-1151 -1536h-45z
M664 1066q74 -58 73 -144q0 -109 -94 -174q-94 -66 -248 -66q-94 0 -187 31t-149 80l13 18q45 -33 97 -54q52 -22 95 -22q90 0 146 56q55 55 55 145q0 86 -53 139t-142 53h-16v23h12q76 0 122 48t46 126t-45 124t-121 46q-43 0 -89 -18t-77 -45l-12 16q49 45 125 73t147 27
q156 0 251 -57t96 -152q0 -78 -67 -130t-179 -68q127 -17 201 -75z" />
    <glyph glyph-name="fiveeighths" unicode="&#x215d;" horiz-adv-x="1849" 
d="M1704 373q76 -59 76 -148q0 -106 -101 -171q-100 -65 -266 -64q-166 0 -267 64q-101 65 -102 171q0 88 77 148q77 59 206 76q-115 14 -183 65q-69 51 -69 127q0 96 93 156q93 59 245 59t244 -59t92 -156q0 -76 -68 -127t-182 -65q129 -17 205 -76zM1367 780
q-17 -53 -17 -139q0 -82 17 -132t46 -50q27 0 44 50t18 132q0 86 -18 139q-17 53 -44 54q-29 -1 -46 -54zM1481 71q27 58 26 154q0 94 -26 153q-27 58 -68 58q-43 0 -70 -58t-26 -153q0 -96 26 -154q27 -58 70 -59q41 1 68 59zM285 0l1151 1536h45l-1151 -1536h-45z
M628 1165q89 -76 89 -196q0 -129 -102 -208q-101 -79 -269 -79q-84 0 -163 30t-124 81l13 16q33 -33 79 -53t82 -21q96 0 154 64q57 63 57 170q0 100 -56 163q-56 62 -146 62q-61 0 -113 -35l-8 15l53 362h512v-23h-258l-39 -266q150 -6 239 -82z" />
    <glyph glyph-name="seveneighths" unicode="&#x215e;" horiz-adv-x="1812" 
d="M1659 373q76 -59 76 -148q0 -106 -101 -171q-100 -65 -266 -64q-166 0 -267 64q-101 65 -102 171q0 88 77 148q77 59 206 76q-115 14 -183 65q-69 51 -69 127q0 96 93 156q93 59 245 59t244 -59t92 -156q0 -76 -68 -127t-182 -65q129 -17 205 -76zM1322 780
q-17 -53 -17 -139q0 -82 17 -132t46 -50q27 0 44 50t18 132q0 86 -18 139q-17 53 -44 54q-29 -1 -46 -54zM1436 71q27 58 26 154q0 94 -26 153q-27 58 -68 58q-43 0 -70 -58t-26 -153q0 -96 26 -154q27 -58 70 -59q41 1 68 59zM240 0l1151 1536h45l-1151 -1536h-45z
M711 1536v-14l-314 -830h-264l316 821h-394v23h656z" />
    <glyph glyph-name="partialdiff" unicode="&#x2202;" horiz-adv-x="1363" 
d="M1008.5 1322q267.5 -249 267.5 -660q0 -203 -77 -357.5t-216 -239.5t-321 -85q-184 0 -323.5 62t-216.5 176t-77 263q0 133 64.5 235.5t182.5 159t271 56.5q78 0 153 -33t130 -90q-39 303 -198 499.5t-460 288.5l7 21q546 -47 813.5 -296zM764 84q45 72 69.5 202
t24.5 300q0 49 -4 135q-41 66 -93 102.5t-102 36.5q-88 0 -142 -108.5t-54 -288.5q0 -203 54 -327t145 -124q57 0 102 72z" />
    <glyph glyph-name="emptyset" unicode="&#x2205;" horiz-adv-x="1368" 
d="M1118 1014q68 -80 105 -188.5t37 -235.5q0 -182 -72 -320.5t-202 -214t-302 -75.5q-123 0 -226.5 39.5t-178.5 115.5l-166 -174l-33 31l168 176q-68 80 -105 187.5t-37 234.5q0 182 72 320.5t203 214t303 75.5q123 0 226.5 -40t176.5 -113l168 174l31 -33zM276 197
l785 819q-70 74 -166 112.5t-211 38.5q-158 0 -278.5 -71.5t-187 -202.5t-66.5 -303q-1 -235 124 -393zM1090 983l-785 -819q147 -152 379 -152q158 0 277.5 72t186 203t66.5 303q1 235 -124 393z" />
    <glyph glyph-name="product" unicode="&#x220f;" horiz-adv-x="1792" 
d="M1733 1565h-230v-2016h-391v2016h-432v-2016h-393v2016h-228v32h1674v-32z" />
    <glyph glyph-name="summation" unicode="&#x2211;" horiz-adv-x="1298" 
d="M70 -451v23l491 1042l-471 961v22h1137v-32h-733l489 -951l-510 -1032h774v-33h-1177z" />
    <glyph glyph-name="minus" unicode="&#x2212;" horiz-adv-x="970" 
d="M127 557v33h717v-33h-717z" />
    <glyph glyph-name="radical" unicode="&#x221a;" horiz-adv-x="1540" 
d="M1599 1597l-1028 -2068h-30l-576 1137h418l360 -707l816 1638h40z" />
    <glyph glyph-name="infinity" unicode="&#x221e;" horiz-adv-x="1572" 
d="M1382.5 834.5q98.5 -95.5 98.5 -250.5q0 -156 -98.5 -251t-260.5 -95q-125 0 -214 62t-122 169q-33 -106 -122 -168.5t-213 -62.5q-162 0 -260.5 95t-98.5 251t98.5 251t260.5 95q125 0 214 -62.5t121 -169.5q33 106 122 169t214 63q162 0 260.5 -95.5zM678 356
q86 86 86 228q0 141 -86 227t-227 86t-227.5 -86t-86.5 -227t86 -227.5t228 -86.5q141 0 227 86zM1350 356q86 86 86 228q0 141 -86 227t-228 86q-141 0 -227 -86t-86 -227t86 -227.5t227 -86.5q142 0 228 86z" />
    <glyph glyph-name="integral" unicode="&#x222b;" horiz-adv-x="1060" 
d="M670.5 -284q-54.5 -89 -152.5 -138t-227 -49q-98 0 -191.5 31.5t-150.5 83.5l14 20q35 -31 82 -50.5t88 -19.5q90 0 145.5 65t55.5 171v1395q0 117 54 206t152.5 138t227.5 49q98 0 191.5 -32t150.5 -83l-14 -20q-39 33 -90.5 51t-100.5 18q-82 0 -131 -59t-49 -156
v-1415q0 -117 -54.5 -206z" />
    <glyph glyph-name="approxequal" unicode="&#x2248;" horiz-adv-x="970" 
d="M51 659q0 102 62 166q61 63 161 64q66 0 114 -29t110 -84q61 -53 104 -79t103 -25q84 0 136 54t52 142h29q0 -102 -62 -166q-61 -63 -162 -63q-66 0 -113 29q-48 29 -110 84q-61 53 -104 78q-43 26 -103 26q-84 0 -136 -54t-52 -143h-29zM51 295q0 102 62 166
q61 63 161 63q66 0 114 -28q48 -29 110 -84q61 -53 104 -79t103 -26q84 0 136 54t52 143h29q0 -102 -62 -166q-61 -63 -162 -64q-66 0 -113 29q-48 29 -110 84q-61 53 -104 79t-103 26q-84 0 -136 -55q-52 -54 -52 -142h-29z" />
    <glyph glyph-name="notequal" unicode="&#x2260;" horiz-adv-x="970" 
d="M580 705l-142 -263h406v-32h-424l-121 -222h-41l121 222h-252v32h270l142 263h-412v32h430l121 221h41l-121 -221h246v-32h-264z" />
    <glyph glyph-name="lessequal" unicode="&#x2264;" horiz-adv-x="970" 
d="M123 729l711 209v-37l-644 -188l644 -189v-37l-711 209v33zM123 264h717v-33h-717v33z" />
    <glyph glyph-name="greaterequal" unicode="&#x2265;" horiz-adv-x="970" 
d="M137 487v37l643 189l-643 188v37l711 -209v-33zM131 231v33h717v-33h-717z" />
    <glyph glyph-name="lozenge" unicode="&#x25ca;" horiz-adv-x="989" 
d="M924 666l-414 -666h-29l-413 666l413 665h29zM881 666l-385 618l-385 -618l385 -619z" />
    <glyph glyph-name="uni261E" unicode="&#x261e;" horiz-adv-x="5521" 
d="M109 324l192 90q27 10 33 10t20.5 -6t34.5 -6l320 137q20 10 36 10q12 0 19 -2q18 -6 50 5t110 50q6 2 19 11.5t28 7.5q35 -2 78 8q41 8 63 8q10 0 82 27q14 4 65.5 22.5t73.5 20.5q37 2 86 33l41 20q23 8 41 8q14 0 28.5 -3t26.5 -3q14 0 21 2q23 6 53.5 9t40.5 10
q23 10 44.5 25.5t31.5 15.5q12 0 49 -15q18 27 43 27q10 0 36 -7.5t40 -7.5t33 7q53 18 266 78.5t252 68.5l45 8l33 21l217 88q14 6 22 -2q49 -49 99.5 -84t126.5 -76l372 -201l21 -18q6 -8 16 -8l1032 -4q20 0 29.5 7t21 11t44.5 2l276 -12l57 -8l70 4l434 -4l78 -4l-4 -97
l-39 -4l-573 2q-8 0 -13.5 2t-3.5 10l-305 5q-33 0 -45 7t-35 7l-975 10l27 -35q12 -16 50 -68t48 -71q96 -197 96 -262l-2 -8q-45 -29 -59 -29q-6 0 -23.5 5t-33.5 9l-47 7q-16 2 -71.5 10t-74.5 18l-80 62l21 -72q31 -98 30 -115q0 -10 -6 -15t-14 -11l-25 -25
q-20 -20 -36 -20q-10 0 -23 6l-76 63l-67 8q-59 6 -80 50l-62 110q-4 8 -9 13.5t-13 5.5q-10 0 -78 7t-121 7q45 0 -51 -3t-205.5 -6t-181.5 -3q-27 0 -81 14t-90 26.5t-52 16.5q-111 39 -150 45h-6q-14 0 -28.5 -11t-22.5 -16q-35 -14 -61.5 -20t-43.5 -10
q-35 -12 -47 -21.5t-22 -23.5q-10 -23 -45 -45q-8 -4 -19 -4l-37 2q-39 0 -65 -27q-53 -53 -75.5 -71.5t-51.5 -32t-100 -35.5q-16 -6 -42 -11.5t-40 -19.5q-10 -10 -35 -23.5t-35 -17.5q-109 -51 -131 -90q-20 -37 -46 -50.5t-89 -27.5l-109 -76l-170 -100
q-61 -53 -94 -70.5t-113 -36.5q-25 4 -59 52q-61 80 -125.5 206.5t-108 256t-43.5 215.5q1 25 46 45zM3447 212q51 -7 74 -7q-55 20 -76 33.5t-43 35.5q-33 33 -72 62q-6 4 -8 10t0 8l33 -12q45 -45 116.5 -93t143.5 -63l-168 250q-4 6 -15 56q-57 63 -143 102l-14 -2
l98 -74l47 -45l-2 -6q-113 102 -254 186q-18 12 -27.5 21.5t-11.5 25.5q-2 12 -7 16.5t-19 6.5l-43 6l-39 33l-86 45l-23 18l-112 56q-4 2 -19.5 8t-30.5 0l-159 -64l-52 -4q-70 -27 -100 -53q-2 2 -2 6q0 12 12 19q33 18 64 28t78 13l151 61q16 4 23 4q25 0 50 -11
t50 -26.5t39 -23.5l172 -80l78 -56l14 -16l125 -78q8 8 47 -20.5t80 -69.5t55 -67l150 -250q6 -12 10 -13l21 9q12 4 15 10t1 20q-20 94 -56 167t-90.5 145.5t-164.5 203.5q-213 94 -378 190.5t-204 162.5l-270 -115q-150 -27 -480 -135q-12 -4 -61 -20.5t-74 -16.5
q-16 0 -30 8q-6 -35 -19 -84q-23 -74 -24 -151l-9 -209h-4l-8 55q-2 27 -14 27q-4 0 -25 -9q-14 -4 -19 -17t-3 -26l6 -41l-4 -2l-17 35q-14 -14 -21 -18t-18 -2q-57 10 -65 10q-20 0 -35 -8l-121 -76q-18 -12 -18 -31q0 -8 2 -16t2 -16q0 -14 -14 -23l-160 -84
q-33 -18 -98 -45q-53 -18 -138 -70q-4 -4 -12 -4q-6 0 -11 5.5t-7 9.5q-4 4 -9 4q-6 0 -11 -4t-5 -9q0 -10 -6 -15t-19 -9q-68 -33 -79 -41q-154 -76 -260.5 -132.5t-165.5 -92.5q-14 -10 -15 8l53 33l-6 6q-29 0 -69 -17q-29 -12 -41 -12q-20 0 -35 23q-49 76 -123 270
l-41 125q-25 63 -24 117q0 14 4 19t18 5q4 -59 11 -99t26 -81q10 -25 20 -64q2 -23 13 -47q47 -143 116 -245q4 -6 11 -7q4 0 12 4.5t14 6.5l72 14q4 2 12 2q16 0 19 -16l102 57l305 147q10 6 28.5 13.5t30 16.5t17.5 24q2 8 14 8q8 0 26.5 -4t29.5 2l368 186q16 8 17 21
q0 6 -4.5 18t-4.5 19q0 12 13 20l98 61q33 23 56.5 35.5t41.5 12.5q14 0 52 -11q4 -2 10 -2q18 0 18 25q0 37 -4 70q-4 41 -4 104q0 74 2 133l8 70q-27 -12 -47 -19.5t-44.5 -13.5t-45.5 -10q-41 -10 -53 -11q-25 0 -43 19l-25 -21l-176 -208l-6 2l25 49l124 145
q-27 -14 -49 -18l-47 -8q-33 -12 -94 -31q-98 -29 -121 -45q-10 -8 -24 -8l-25 2q-20 0 -35.5 -6.5t-21.5 -6.5l-47 6l-78 -38q-47 -23 -76 -35.5t-39 -12.5q-8 0 -20 7l-9 2q-8 0 -16 -15q-2 -6 -4 -18t-6 -19q-18 -35 -23.5 -78.5t-15.5 -197.5q-14 35 -14 98
q0 57 10 117.5t26 91.5q-45 -14 -217 -88q-104 -47 -112 -47q-10 0 -27.5 9t-24.5 5l-239 -112q16 -141 96 -324.5t221 -400.5l68 43l-62 90l9 6l73 -86q59 23 75.5 31t27.5 22q135 80 192.5 117t77.5 55q16 16 66 33q35 10 55 21.5t33 35.5q16 33 87.5 74t221.5 102
q84 31 127 55.5t67 65.5q63 41 129 54q31 6 48 34q8 14 18 21.5t33 9.5q20 2 40.5 10t53.5 25l76 35q10 4 26 4q14 0 38 -8.5t42 -14.5l125 -39q-2 6 -2 29q0 39 10 90q2 8 4.5 19.5t5.5 14.5t11 3q-12 -57 -12 -96t10 -60q6 -12 17.5 -17t23.5 -6t18 -3q-8 16 -19 35.5
t-14.5 34t-3.5 38.5q0 23 4 72q6 41 7 82l6 4l2 -21q10 29 23.5 47.5t33.5 32.5l-211 -2q-20 0 -51 -12t-43 -12q-23 0 -39 37q-6 12 -6 30q0 23 8 42.5t25 27.5q12 6 22 6q12 0 22.5 -7t27 -26.5t28.5 -19.5l819 10l-2 4l-96 19q-4 4 -1 9t9 5q76 0 152 -29
q29 -10 39 -26.5t14 -18.5q10 -4 40 -10t42 -14l131 -109l-2 -4l-94 72q-4 2 -14.5 10t-19.5 11t-22 3l-159 6q4 -4 13 -15t13 -21q4 -12 25 -13h10q14 0 21 -6l178 -80q45 -4 101 -31.5t56 -44.5q0 -29 -15 -61.5t-38 -48.5q57 -45 88 -72q27 -25 41 -35q17 -10 68 -17z
M1837 823q-10 0 -41 -30q-6 -6 -16 -7q-16 0 -25 9q-12 12 -16 12q-6 0 -17 -8q10 -12 11 -35l-2 -27q-4 -66 -5 -159q0 -102 5 -136q18 14 33.5 18.5t19.5 8.5t6 23l25 256l24 75h-2zM4835 690l4 17l-333 10q-6 0 -10.5 -5t-4.5 -10zM5394 623q8 0 11.5 3t5.5 11l8 53
l-465 -6q-35 0 -59.5 1t-46.5 7l-9 -63zM4481 659.5q-2 -16.5 4 -16.5l340 -8l2 29l-340 12q-4 0 -6 -16.5zM2865 631q-12 31 -45 24l57 -57zM2200 444q0 -31 10 -49t53 -73l25 -9h487q57 -4 90 -8l62 -6l143 -12v4l-262 53l-80 10q-18 6 -33 6q-14 0 -27.5 -6t-17.5 -6
q-10 0 -18 14q-4 10 -17 11q-6 0 -18 -2t-17 8l-276 29l-10 8l10 8q12 4 23 4q12 0 29.5 -3t27.5 -5l166 -23q6 -2 20.5 -7t40.5 -5q27 0 43.5 -6t28.5 -6q10 0 24.5 2t26.5 0l236 -53q61 -14 103 -23.5t58 -9.5q20 0 39 12q61 39 84 60.5t33 56.5q2 4 2 10q0 16 -12 25
q-27 23 -59.5 32t-92.5 19l-53 10l-193 8q-27 0 -45 15.5t-49 50.5q-43 49 -47 53q-8 10 -13 12t-11.5 2h-8.5h-407q-27 0 -51.5 -37.5t-24.5 -74.5q0 -80 26.5 -126t86.5 -79l4 -4l-6 -2q-14 0 -47 14q-37 18 -53.5 60.5t-26.5 105.5q-6 -43 -6 -68zM2880.5 614.5
q11.5 -28.5 7.5 -36.5l-78 69l31 -55l-5 -2q-4 6 -15 17t-15 22q-8 18 -15.5 21t-40.5 3l50 -57q10 -14 37.5 -26.5t39.5 -18.5l29 37q4 10 0 18q-12 29 -39 47q2 -10 13.5 -38.5zM2888 547q147 -20 217 -21l-129 58q-14 6 -29.5 10t-21.5 -2zM1817 453q0 2 8 47l10 47
l10 14l-14 -108q8 -4 14 2t19.5 25.5t21.5 33.5q10 12 27 12q18 0 29 -14q12 -16 18 -26.5t10 -13.5t10 3l21 23q12 14 27 14q20 0 32 -27q6 -16 21.5 -28.5t32.5 -10.5l18 3v-7l-37 -6q-16 -4 -28.5 6.5t-22.5 40.5q-6 16 -19 17q-10 0 -20 -11q-39 -39 -51 -38
q-14 0 -17 22l-6 31q-2 10 -12 10q-6 0 -11 -3t-7 -7q-6 -10 -21.5 -32.5t-24 -27t-22.5 -4.5q-16 1 -16 13zM3181 100l67 -55q10 -6 15.5 -7t13.5 7q20 18 38.5 32.5t18.5 18.5q0 37 -33.5 127t-56.5 109l-90 -53l-94 -5q66 -74 80 -102q8 -20 28 -47zM3029 176
q4 -4 11 -21.5t18 -21.5l106 -24l-121 165l-75 2z" />
    <glyph glyph-name="uniF8FF" unicode="&#xf8ff;" horiz-adv-x="2541" 
d="M1694 -6q-14 -14 -35 -14q-27 0 -34 13t-7 34v663l-694 -696q-14 -14 -35 -14q-27 0 -34 13t-7 34v663l-696 -696q-14 -14 -35 -14q-14 0 -24.5 10t-10.5 26q0 20 10 31l701 698h-664q-47 0 -47 39q0 18 14 33l697 701h-670q-18 0 -29.5 10t-11.5 28v3q0 18 11 28t30 10
h758q20 0 33.5 -7t13.5 -34q0 -18 -17 -34l-698 -697h676q16 0 28.5 -12t12.5 -29v-669l694 692q16 16 35 16q37 0 37 -45v-663l696 692q16 16 33 16q14 0 24.5 -11t10.5 -28q0 -16 -13 -28z" />
    <glyph glyph-name="G.aalt" horiz-adv-x="1640" 
d="M1528 815v-835h-21l-348 241q-45 -109 -156.5 -175t-250.5 -66q-197 0 -347.5 93t-232.5 263t-82 393q0 246 99.5 433.5t280.5 290.5t419 103q172 0 334.5 -56t259.5 -148l-15 -21q-88 68 -206.5 109t-223.5 41q-158 0 -278.5 -94.5t-186 -264.5t-65.5 -393
q0 -201 44 -353.5t125 -236.5t187 -84q84 0 159 53.5t114 139.5v567h391z" />
    <glyph glyph-name="J.aalt" horiz-adv-x="960" 
d="M326 1622l-11 29l639 235l13 -33zM744.5 166q-54.5 -88 -152.5 -137t-227 -49q-111 0 -199 29.5t-141 84.5l16 23q33 -33 81 -53.5t97 -20.5q84 0 135.5 68.5t51.5 179.5v1245h393v-1165q0 -117 -54.5 -205z" />
    <glyph glyph-name="W.aalt" horiz-adv-x="1908" 
d="M1909 1536l-613 -1556h-30l-308 776l-301 -776h-30l-629 1556h405l410 -1049l123 324l-287 725h387l168 -424l178 424h43l-198 -477l225 -572l414 1049h43z" />
    <glyph glyph-name="Wacute.aalt" horiz-adv-x="1908" 
d="M719 1622l-10 29l643 235l12 -33zM1909 1536l-613 -1556h-30l-308 776l-301 -776h-30l-629 1556h405l410 -1049l123 324l-287 725h387l168 -424l178 424h43l-198 -477l225 -572l414 1049h43z" />
    <glyph glyph-name="Wcircumflex.aalt" horiz-adv-x="1908" 
d="M631 1630l-15 17l402 325l401 -325l-14 -17l-387 285zM1909 1536l-613 -1556h-30l-308 776l-301 -776h-30l-629 1556h405l410 -1049l123 324l-287 725h387l168 -424l178 424h43l-198 -477l225 -572l414 1049h43z" />
    <glyph glyph-name="Wdieresis.aalt" horiz-adv-x="1908" 
d="M927 1701q-46 -42 -120 -42q-76 0 -122 42t-46 111q0 70 46 112t122 42q74 0 120 -42t46 -112q0 -69 -46 -111zM1349 1701q-46 -42 -122 -42t-121 42t-45 111q0 70 45 112t121 42t122 -42t46 -112q0 -69 -46 -111zM1909 1536l-613 -1556h-30l-308 776l-301 -776h-30
l-629 1556h405l410 -1049l123 324l-287 725h387l168 -424l178 424h43l-198 -477l225 -572l414 1049h43z" />
    <glyph glyph-name="Wgrave.aalt" horiz-adv-x="1908" 
d="M1317 1622l-647 231l12 33l645 -235zM1909 1536l-613 -1556h-30l-308 776l-301 -776h-30l-629 1556h405l410 -1049l123 324l-287 725h387l168 -424l178 424h43l-198 -477l225 -572l414 1049h43z" />
    <glyph glyph-name="Y.aalt" horiz-adv-x="1411" 
d="M1425 1536l-870 -1536h-43l205 362l-697 1174h439l465 -811l458 811h43z" />
    <glyph glyph-name="Yacute.aalt" horiz-adv-x="1411" 
d="M590 1622l-10 29l643 235l12 -33zM1425 1536l-870 -1536h-43l205 362l-697 1174h439l465 -811l458 811h43z" />
    <glyph glyph-name="Ycircumflex.aalt" horiz-adv-x="1411" 
d="M502 1630l-15 17l402 325l401 -325l-14 -17l-387 285zM1425 1536l-870 -1536h-43l205 362l-697 1174h439l465 -811l458 811h43z" />
    <glyph glyph-name="Ydieresis.aalt" horiz-adv-x="1411" 
d="M798 1701q-46 -42 -120 -42q-76 0 -122 42t-46 111q0 70 46 112t122 42q74 0 120 -42t46 -112q0 -69 -46 -111zM1220 1701q-46 -42 -122 -42t-121 42t-45 111q0 70 45 112t121 42t122 -42t46 -112q0 -69 -46 -111zM1425 1536l-870 -1536h-43l205 362l-697 1174h439
l465 -811l458 811h43z" />
    <glyph glyph-name="Ygrave.aalt" horiz-adv-x="1411" 
d="M1188 1622l-647 231l12 33l645 -235zM1425 1536l-870 -1536h-43l205 362l-697 1174h439l465 -811l458 811h43z" />
    <glyph glyph-name="a.salt" horiz-adv-x="1243" 
d="M883.5 1089.5q111.5 -47.5 173 -133.5t61.5 -200v-776h-20l-340 215q-41 -96 -140.5 -155.5t-224.5 -59.5q-160 0 -257 88t-97 233q0 88 60.5 155.5t171 105.5t253.5 38h213v178q0 137 -73.5 218t-194.5 81q-78 0 -167 -33.5t-159 -89.5l-14 19q86 74 222 119t276 45
q145 0 256.5 -47.5zM662.5 118q46.5 42 74.5 111v338h-127q-78 0 -124 -67.5t-46 -180.5q0 -111 35 -177t92 -66q49 0 95.5 42z" />
    <glyph glyph-name="aacute.aalt" horiz-adv-x="1243" 
d="M367 1231l-15 26l537 316l16 -29zM883.5 1089.5q111.5 -47.5 173 -133.5t61.5 -200v-776h-20l-340 215q-41 -96 -140.5 -155.5t-224.5 -59.5q-160 0 -257 88t-97 233q0 88 60.5 155.5t171 105.5t253.5 38h213v178q0 137 -73.5 218t-194.5 81q-78 0 -167 -33.5t-159 -89.5
l-14 19q86 74 222 119t276 45q145 0 256.5 -47.5zM662.5 118q46.5 42 74.5 111v338h-127q-78 0 -124 -67.5t-46 -180.5q0 -111 35 -177t92 -66q49 0 95.5 42z" />
    <glyph glyph-name="abreve.aalt" horiz-adv-x="1243" 
d="M848 1353q-98 -83 -211 -83t-210 82t-146 217l20 10q57 -123 149.5 -197.5t186.5 -74.5q96 0 188.5 74.5t147.5 197.5l20 -10q-47 -133 -145 -216zM883.5 1089.5q111.5 -47.5 173 -133.5t61.5 -200v-776h-20l-340 215q-41 -96 -140.5 -155.5t-224.5 -59.5q-160 0 -257 88
t-97 233q0 88 60.5 155.5t171 105.5t253.5 38h213v178q0 137 -73.5 218t-194.5 81q-78 0 -167 -33.5t-159 -89.5l-14 19q86 74 222 119t276 45q145 0 256.5 -47.5zM662.5 118q46.5 42 74.5 111v338h-127q-78 0 -124 -67.5t-46 -180.5q0 -111 35 -177t92 -66q49 0 95.5 42z
" />
    <glyph glyph-name="acircumflex.aalt" horiz-adv-x="1243" 
d="M313 1253l-14 17l340 346l342 -346l-14 -17l-328 306zM883.5 1089.5q111.5 -47.5 173 -133.5t61.5 -200v-776h-20l-340 215q-41 -96 -140.5 -155.5t-224.5 -59.5q-160 0 -257 88t-97 233q0 88 60.5 155.5t171 105.5t253.5 38h213v178q0 137 -73.5 218t-194.5 81
q-78 0 -167 -33.5t-159 -89.5l-14 19q86 74 222 119t276 45q145 0 256.5 -47.5zM662.5 118q46.5 42 74.5 111v338h-127q-78 0 -124 -67.5t-46 -180.5q0 -111 35 -177t92 -66q49 0 95.5 42z" />
    <glyph glyph-name="adieresis.aalt" horiz-adv-x="1243" 
d="M548 1346q-46 -43 -120 -43q-76 0 -122 43t-46 110q0 70 46 113t122 43q74 0 120 -43t46 -113q0 -67 -46 -110zM970 1346q-46 -43 -122 -43q-74 0 -120 43t-46 110q0 70 45 113t121 43t122 -43t46 -113q0 -67 -46 -110zM883.5 1089.5q111.5 -47.5 173 -133.5t61.5 -200
v-776h-20l-340 215q-41 -96 -140.5 -155.5t-224.5 -59.5q-160 0 -257 88t-97 233q0 88 60.5 155.5t171 105.5t253.5 38h213v178q0 137 -73.5 218t-194.5 81q-78 0 -167 -33.5t-159 -89.5l-14 19q86 74 222 119t276 45q145 0 256.5 -47.5zM662.5 118q46.5 42 74.5 111v338
h-127q-78 0 -124 -67.5t-46 -180.5q0 -111 35 -177t92 -66q49 0 95.5 42z" />
    <glyph glyph-name="agrave.aalt" horiz-adv-x="1243" 
d="M911 1231l-540 313l16 29l539 -316zM883.5 1089.5q111.5 -47.5 173 -133.5t61.5 -200v-776h-20l-340 215q-41 -96 -140.5 -155.5t-224.5 -59.5q-160 0 -257 88t-97 233q0 88 60.5 155.5t171 105.5t253.5 38h213v178q0 137 -73.5 218t-194.5 81q-78 0 -167 -33.5
t-159 -89.5l-14 19q86 74 222 119t276 45q145 0 256.5 -47.5zM662.5 118q46.5 42 74.5 111v338h-127q-78 0 -124 -67.5t-46 -180.5q0 -111 35 -177t92 -66q49 0 95.5 42z" />
    <glyph glyph-name="amacron.aalt" horiz-adv-x="1243" 
d="M305 1372v33h668v-33h-668zM883.5 1089.5q111.5 -47.5 173 -133.5t61.5 -200v-776h-20l-340 215q-41 -96 -140.5 -155.5t-224.5 -59.5q-160 0 -257 88t-97 233q0 88 60.5 155.5t171 105.5t253.5 38h213v178q0 137 -73.5 218t-194.5 81q-78 0 -167 -33.5t-159 -89.5
l-14 19q86 74 222 119t276 45q145 0 256.5 -47.5zM662.5 118q46.5 42 74.5 111v338h-127q-78 0 -124 -67.5t-46 -180.5q0 -111 35 -177t92 -66q49 0 95.5 42z" />
    <glyph glyph-name="aogonek.aalt" horiz-adv-x="1243" 
d="M1137 -416q-47 -25 -110.5 -40t-123.5 -15q-100 0 -161.5 48t-61.5 126q0 84 107.5 159t297.5 126l-327 207q-41 -96 -140.5 -155.5t-224.5 -59.5q-160 0 -257 88t-97 233q0 88 60.5 155.5t171 105.5t253.5 38h213v178q0 137 -73.5 218t-194.5 81q-78 0 -167 -33.5
t-159 -89.5l-14 19q86 74 222 119t276 45q145 0 256.5 -47.5t173 -133.5t61.5 -200v-776q-84 -51 -135 -119t-51 -129q0 -63 33.5 -101.5t91.5 -38.5q39 0 71 13zM662.5 118q46.5 42 74.5 111v338h-127q-78 0 -124 -67.5t-46 -180.5q0 -111 35 -177t92 -66q49 0 95.5 42z
" />
    <glyph glyph-name="aring.aalt" horiz-adv-x="1243" 
d="M797.5 1305.5q-60.5 -58.5 -160.5 -58.5q-98 0 -158.5 58.5t-60.5 152.5t60.5 152.5t158.5 58.5q100 0 160.5 -58.5t60.5 -152.5t-60.5 -152.5zM508 1329q49 -49 129 -49q82 0 131 49t49 129q0 82 -49 130t-131 48q-80 0 -129 -48t-49 -130q0 -80 49 -129zM883.5 1089.5
q111.5 -47.5 173 -133.5t61.5 -200v-776h-20l-340 215q-41 -96 -140.5 -155.5t-224.5 -59.5q-160 0 -257 88t-97 233q0 88 60.5 155.5t171 105.5t253.5 38h213v178q0 137 -73.5 218t-194.5 81q-78 0 -167 -33.5t-159 -89.5l-14 19q86 74 222 119t276 45q145 0 256.5 -47.5z
M662.5 118q46.5 42 74.5 111v338h-127q-78 0 -124 -67.5t-46 -180.5q0 -111 35 -177t92 -66q49 0 95.5 42z" />
    <glyph glyph-name="atilde.aalt" horiz-adv-x="1243" 
d="M338 1448q-49 -43 -90 -123l-23 10q84 188 244 189q55 0 96 -24.5t92 -72.5q45 -43 80 -64.5t78 -21.5q74 0 122 42t91 122l23 -10q-86 -188 -244 -188q-55 0 -96 24.5t-95 73.5q-47 43 -80.5 64.5t-76.5 21.5q-72 0 -121 -43zM883.5 1089.5q111.5 -47.5 173 -133.5
t61.5 -200v-776h-20l-340 215q-41 -96 -140.5 -155.5t-224.5 -59.5q-160 0 -257 88t-97 233q0 88 60.5 155.5t171 105.5t253.5 38h213v178q0 137 -73.5 218t-194.5 81q-78 0 -167 -33.5t-159 -89.5l-14 19q86 74 222 119t276 45q145 0 256.5 -47.5zM662.5 118
q46.5 42 74.5 111v338h-127q-78 0 -124 -67.5t-46 -180.5q0 -111 35 -177t92 -66q49 0 95.5 42z" />
    <glyph glyph-name="b.aalt" horiz-adv-x="1368" 
d="M1063 1065q111 -72 171 -203t60 -303t-60 -303t-171 -203.5t-254 -72.5q-111 0 -197 61t-116 160l-340 -221h-21v1617h381v-632q41 80 120 126t173 46q143 0 254 -72zM837.5 196.5q55.5 137.5 55.5 362.5t-55.5 361.5t-147.5 136.5q-51 0 -98 -48t-76 -128v-645
q25 -80 72 -128.5t102 -48.5q92 0 147.5 137.5z" />
    <glyph glyph-name="d.aalt" horiz-adv-x="1368" 
d="M1233 1597v-1617h-21l-340 221q-31 -100 -117.5 -160.5t-195.5 -60.5q-143 0 -252.5 72.5t-170 203.5t-60.5 303t60.5 303t170 203t252.5 72q96 0 174 -46.5t119 -123.5v630h381zM778 107.5q47 48.5 74 128.5v645q-23 80 -71 128t-103 48q-90 0 -145.5 -136.5
t-55.5 -361.5t55.5 -362.5t145.5 -137.5q53 0 100 48.5z" />
    <glyph glyph-name="dcaron.aalt" horiz-adv-x="1368" 
d="M1483 1597l-111 -430l-29 9l103 430zM852 1597h381v-1617h-21l-340 221q-31 -100 -117.5 -160.5t-195.5 -60.5q-143 0 -252.5 72.5t-170 203.5t-60.5 303t60.5 303t170 203t252.5 72q96 0 174 -46.5t119 -123.5v630zM778 107.5q47 48.5 74 128.5v645q-23 80 -71 128
t-103 48q-90 0 -145.5 -136.5t-55.5 -361.5t55.5 -362.5t145.5 -137.5q53 0 100 48.5z" />
    <glyph glyph-name="dcroat.aalt" horiz-adv-x="1368" 
d="M1413 1329h-180v-1349h-21l-340 221q-31 -100 -117.5 -160.5t-195.5 -60.5q-143 0 -252.5 72.5t-170 203.5t-60.5 303t60.5 303t170 203t252.5 72q96 0 174 -46.5t119 -123.5v362h-320v33h320v235h381v-235h180v-33zM778 107.5q47 48.5 74 128.5v645q-23 80 -71 128
t-103 48q-90 0 -145.5 -136.5t-55.5 -361.5t55.5 -362.5t145.5 -137.5q53 0 100 48.5z" />
    <glyph glyph-name="g.aalt" horiz-adv-x="1368" 
d="M1233 1137v-1100q0 -152 -82 -266.5t-232.5 -178t-347.5 -63.5q-113 0 -230.5 39t-193.5 102l15 23q63 -51 155.5 -83t178.5 -32q162 0 259 104.5t97 276.5v193q-39 -80 -118 -126t-175 -46q-143 0 -252.5 72.5t-170 203.5t-60.5 303t60.5 303t170 203t252.5 72
q113 0 199 -60.5t114 -161.5l340 222h21zM778 107.5q47 48.5 74 128.5v645q-23 80 -71 128t-103 48q-90 0 -145.5 -136.5t-55.5 -361.5t55.5 -362.5t145.5 -137.5q53 0 100 48.5z" />
    <glyph glyph-name="gbreve.aalt" horiz-adv-x="1368" 
d="M905.5 1347q-98.5 -83 -211.5 -83t-210 81.5t-146 217.5l20 10q57 -123 149.5 -198t186.5 -75q96 0 188.5 75t147.5 198l21 -10q-47 -133 -145.5 -216zM1233 1137v-1100q0 -152 -82 -266.5t-232.5 -178t-347.5 -63.5q-113 0 -230.5 39t-193.5 102l15 23q63 -51 155.5 -83
t178.5 -32q162 0 259 104.5t97 276.5v193q-39 -80 -118 -126t-175 -46q-143 0 -252.5 72.5t-170 203.5t-60.5 303t60.5 303t170 203t252.5 72q113 0 199 -60.5t114 -161.5l340 222h21zM778 107.5q47 48.5 74 128.5v645q-23 80 -71 128t-103 48q-90 0 -145.5 -136.5
t-55.5 -361.5t55.5 -362.5t145.5 -137.5q53 0 100 48.5z" />
    <glyph glyph-name="uni0123.aalt" horiz-adv-x="1368" 
d="M815 1495q41 -45 41 -115q0 -72 -45 -114.5t-117 -42.5q-76 0 -123 57t-47 152q0 127 71 231t183 147l13 -28q-92 -43 -150.5 -130t-69.5 -188q20 35 56.5 55.5t81.5 20.5q65 0 106 -45zM1233 1137v-1100q0 -152 -82 -266.5t-232.5 -178t-347.5 -63.5q-113 0 -230.5 39
t-193.5 102l15 23q63 -51 155.5 -83t178.5 -32q162 0 259 104.5t97 276.5v193q-39 -80 -118 -126t-175 -46q-143 0 -252.5 72.5t-170 203.5t-60.5 303t60.5 303t170 203t252.5 72q113 0 199 -60.5t114 -161.5l340 222h21zM778 107.5q47 48.5 74 128.5v645q-23 80 -71 128
t-103 48q-90 0 -145.5 -136.5t-55.5 -361.5t55.5 -362.5t145.5 -137.5q53 0 100 48.5z" />
    <glyph glyph-name="gdotaccent.aalt" horiz-adv-x="1368" 
d="M850 1284q-57 -55 -154 -55q-96 0 -153.5 55t-57.5 146q0 90 58.5 144t152.5 54t152.5 -54t58.5 -144q0 -91 -57 -146zM1233 1137v-1100q0 -152 -82 -266.5t-232.5 -178t-347.5 -63.5q-113 0 -230.5 39t-193.5 102l15 23q63 -51 155.5 -83t178.5 -32q162 0 259 104.5
t97 276.5v193q-39 -80 -118 -126t-175 -46q-143 0 -252.5 72.5t-170 203.5t-60.5 303t60.5 303t170 203t252.5 72q113 0 199 -60.5t114 -161.5l340 222h21zM778 107.5q47 48.5 74 128.5v645q-23 80 -71 128t-103 48q-90 0 -145.5 -136.5t-55.5 -361.5t55.5 -362.5
t145.5 -137.5q53 0 100 48.5z" />
    <glyph glyph-name="i.aalt" horiz-adv-x="651" 
d="M479.5 1290.5q-57.5 -55.5 -153.5 -55.5t-153.5 55.5t-57.5 145.5t58 144t153 54q94 0 152.5 -54t58.5 -144t-57.5 -145.5zM135 0v1116h381v-1116h-381z" />
    <glyph glyph-name="glyph410" horiz-adv-x="651" 
d="M55 1235l-14 27l537 309l16 -29zM401.5 -269q-114.5 -124 -335.5 -202l-11 20q80 80 80 398v1169h381v-1048q0 -213 -114.5 -337z" />
    <glyph glyph-name="m.aalt" horiz-adv-x="2009" 
d="M1790 1043.5q92 -93.5 92 -244.5v-799h-381v915q0 61 -28.5 99.5t-73.5 38.5q-57 0 -113.5 -48.5t-91.5 -130.5q6 -37 6 -75v-799h-381v915q0 61 -28.5 99.5t-73.5 38.5q-57 0 -112.5 -45t-88.5 -121v-887h-381v1137h21l340 -215q41 96 142 155.5t226 59.5
q117 0 198 -54.5t116 -152.5q47 94 147 150.5t221 56.5q152 0 244 -93.5z" />
    <glyph glyph-name="n.aalt" horiz-adv-x="1347" 
d="M1125.5 1041.5q95.5 -95.5 95.5 -253.5v-788h-381v905q0 66 -32 107t-81 41q-59 0 -117.5 -48.5t-93.5 -127.5v-877h-381v1137h21l340 -226q43 102 147.5 164t230.5 62q156 0 251.5 -95.5z" />
    <glyph glyph-name="nacute.aalt" horiz-adv-x="1347" 
d="M408 1231l-15 26l537 316l16 -29zM1125.5 1041.5q95.5 -95.5 95.5 -253.5v-788h-381v905q0 66 -32 107t-81 41q-59 0 -117.5 -48.5t-93.5 -127.5v-877h-381v1137h21l340 -226q43 102 147.5 164t230.5 62q156 0 251.5 -95.5z" />
    <glyph glyph-name="ncaron.aalt" horiz-adv-x="1347" 
d="M1006 1616l14 -17l-342 -346l-340 346l14 17l326 -305zM1125.5 1041.5q95.5 -95.5 95.5 -253.5v-788h-381v905q0 66 -32 107t-81 41q-59 0 -117.5 -48.5t-93.5 -127.5v-877h-381v1137h21l340 -226q43 102 147.5 164t230.5 62q156 0 251.5 -95.5z" />
    <glyph glyph-name="uni0146.aalt" horiz-adv-x="1347" 
d="M799 -140.5q47 -52.5 47 -135.5q0 -100 -69.5 -181.5t-184.5 -115.5l-12 26q88 33 147 96.5t70 137.5q-41 -51 -135 -52q-66 0 -107 38t-41 100q0 63 44 101t116 38q78 0 125 -52.5zM1125.5 1041.5q95.5 -95.5 95.5 -253.5v-788h-381v905q0 66 -32 107t-81 41
q-59 0 -117.5 -48.5t-93.5 -127.5v-877h-381v1137h21l340 -226q43 102 147.5 164t230.5 62q156 0 251.5 -95.5z" />
    <glyph glyph-name="eng.aalt" horiz-adv-x="1347" 
d="M1125.5 1041.5q95.5 -95.5 95.5 -253.5v-720q0 -213 -115 -336t-336 -203l-12 20q82 88 82 418v938q0 66 -32 107t-81 41q-59 0 -117.5 -48.5t-93.5 -127.5v-877h-381v1137h21l340 -226q43 102 147.5 164t230.5 62q156 0 251.5 -95.5z" />
    <glyph glyph-name="ntilde.aalt" horiz-adv-x="1347" 
d="M379 1448q-49 -43 -90 -123l-23 10q84 188 244 189q55 0 96 -24.5t92 -72.5q45 -43 80 -64.5t78 -21.5q74 0 122 42t91 122l23 -10q-86 -188 -244 -188q-55 0 -96 24.5t-95 73.5q-47 43 -80.5 64.5t-76.5 21.5q-72 0 -121 -43zM1125.5 1041.5q95.5 -95.5 95.5 -253.5
v-788h-381v905q0 66 -32 107t-81 41q-59 0 -117.5 -48.5t-93.5 -127.5v-877h-381v1137h21l340 -226q43 102 147.5 164t230.5 62q156 0 251.5 -95.5z" />
    <glyph glyph-name="p.aalt" horiz-adv-x="1368" 
d="M1063 1065q111 -72 171 -203t60 -303t-60 -303t-171 -203.5t-254 -72.5q-96 0 -174 46t-119 126v-603h-381v1588h21l340 -222q33 100 117.5 161t195.5 61q143 0 254 -72zM837.5 196.5q55.5 137.5 55.5 362.5t-55.5 361.5t-147.5 136.5q-51 0 -98 -48t-76 -128v-645
q25 -80 72 -128.5t102 -48.5q92 0 147.5 137.5z" />
    <glyph glyph-name="q.aalt" horiz-adv-x="1368" 
d="M1233 1137v-1588h-381v603q-39 -80 -118 -126t-175 -46q-143 0 -252.5 72.5t-170 203.5t-60.5 303t60.5 303t170 203t252.5 72q113 0 199 -60.5t114 -161.5l340 222h21zM778 107.5q47 48.5 74 128.5v645q-23 80 -71 128t-103 48q-90 0 -145.5 -136.5t-55.5 -361.5
t55.5 -362.5t145.5 -137.5q53 0 100 48.5z" />
    <glyph glyph-name="r.aalt" horiz-adv-x="890" 
d="M632.5 1043.5q100.5 72.5 227.5 72.5v-33q-121 0 -216 -73.5t-128 -192.5v-817h-381v1137h21l340 -287q36 121 136.5 193.5z" />
    <glyph glyph-name="racute.aalt" horiz-adv-x="890" 
d="M254 1231l-14 26l536 316l17 -29zM632.5 1043.5q100.5 72.5 227.5 72.5v-33q-121 0 -216 -73.5t-128 -192.5v-817h-381v1137h21l340 -287q36 121 136.5 193.5z" />
    <glyph glyph-name="rcaron.aalt" horiz-adv-x="890" 
d="M852 1616l14 -17l-342 -346l-340 346l15 17l325 -305zM632.5 1043.5q100.5 72.5 227.5 72.5v-33q-121 0 -216 -73.5t-128 -192.5v-817h-381v1137h21l340 -287q36 121 136.5 193.5z" />
    <glyph glyph-name="uni0157.aalt" horiz-adv-x="890" 
d="M444.5 -140.5q47.5 -52.5 47.5 -135.5q0 -100 -70 -181.5t-184 -115.5l-13 26q88 33 147.5 96.5t69.5 137.5q-41 -51 -135 -52q-66 0 -106.5 38t-40.5 100q0 63 44 101t115 38q78 0 125.5 -52.5zM632.5 1043.5q100.5 72.5 227.5 72.5v-33q-121 0 -216 -73.5t-128 -192.5
v-817h-381v1137h21l340 -287q36 121 136.5 193.5z" />
    <glyph glyph-name="u.aalt" horiz-adv-x="1327" 
d="M1190 1116v-1136h-21l-340 215q-41 -96 -141 -155.5t-225 -59.5q-152 0 -244 93t-92 244v799h381v-913q0 -63 27.5 -101.5t74.5 -38.5q57 0 111.5 45.5t87.5 120.5v887h381z" />
    <glyph glyph-name="uacute.aalt" horiz-adv-x="1327" 
d="M391 1231l-14 26l536 316l17 -29zM1190 1116v-1136h-21l-340 215q-41 -96 -141 -155.5t-225 -59.5q-152 0 -244 93t-92 244v799h381v-913q0 -63 27.5 -101.5t74.5 -38.5q57 0 111.5 45.5t87.5 120.5v887h381z" />
    <glyph glyph-name="ucircumflex.aalt" horiz-adv-x="1327" 
d="M338 1253l-14 17l340 346l342 -346l-15 -17l-327 306zM1190 1116v-1136h-21l-340 215q-41 -96 -141 -155.5t-225 -59.5q-152 0 -244 93t-92 244v799h381v-913q0 -63 27.5 -101.5t74.5 -38.5q57 0 111.5 45.5t87.5 120.5v887h381z" />
    <glyph glyph-name="udieresis.aalt" horiz-adv-x="1327" 
d="M572 1346q-46 -43 -119 -43q-76 0 -122 43t-46 110q0 70 46 113t122 43q74 0 119.5 -43t45.5 -113q0 -67 -46 -110zM994 1346q-46 -43 -122 -43q-74 0 -119.5 43t-45.5 110q0 70 45 113t120 43q76 0 122 -43t46 -113q0 -67 -46 -110zM1190 1116v-1136h-21l-340 215
q-41 -96 -141 -155.5t-225 -59.5q-152 0 -244 93t-92 244v799h381v-913q0 -63 27.5 -101.5t74.5 -38.5q57 0 111.5 45.5t87.5 120.5v887h381z" />
    <glyph glyph-name="ugrave.aalt" horiz-adv-x="1327" 
d="M936 1231l-541 313l17 29l538 -316zM1190 1116v-1136h-21l-340 215q-41 -96 -141 -155.5t-225 -59.5q-152 0 -244 93t-92 244v799h381v-913q0 -63 27.5 -101.5t74.5 -38.5q57 0 111.5 45.5t87.5 120.5v887h381z" />
    <glyph glyph-name="uhungarumlaut.aalt" horiz-adv-x="1327" 
d="M752 1673l22 -22l-440 -443l-21 21zM1139 1673l22 -22l-440 -443l-21 21zM1190 1116v-1136h-21l-340 215q-41 -96 -141 -155.5t-225 -59.5q-152 0 -244 93t-92 244v799h381v-913q0 -63 27.5 -101.5t74.5 -38.5q57 0 111.5 45.5t87.5 120.5v887h381z" />
    <glyph glyph-name="umacron.aalt" horiz-adv-x="1327" 
d="M330 1372v33h667v-33h-667zM1190 1116v-1136h-21l-340 215q-41 -96 -141 -155.5t-225 -59.5q-152 0 -244 93t-92 244v799h381v-913q0 -63 27.5 -101.5t74.5 -38.5q57 0 111.5 45.5t87.5 120.5v887h381z" />
    <glyph glyph-name="uogonek.aalt" horiz-adv-x="1327" 
d="M1206 -416q-45 -25 -108.5 -40t-122.5 -15q-100 0 -161.5 48t-61.5 126q0 84 107.5 159t297.5 126l-328 207q-41 -96 -141 -155.5t-225 -59.5q-152 0 -244 93t-92 244v799h381v-913q0 -63 27.5 -101.5t74.5 -38.5q57 0 111.5 45.5t87.5 120.5v887h381v-1136h-2
q-82 -51 -133 -119t-51 -129q0 -63 33.5 -101.5t88.5 -38.5q41 0 72 13z" />
    <glyph glyph-name="uring.aalt" horiz-adv-x="1327" 
d="M822.5 1305.5q-60.5 -58.5 -160.5 -58.5q-98 0 -159 58.5t-61 152.5t60.5 152.5t159.5 58.5q100 0 160.5 -58.5t60.5 -152.5t-60.5 -152.5zM532.5 1329q49.5 -49 129.5 -49q82 0 131 49t49 129q0 82 -49.5 130t-130.5 48q-80 0 -129.5 -48t-49.5 -130q0 -80 49.5 -129z
M1190 1116v-1136h-21l-340 215q-41 -96 -141 -155.5t-225 -59.5q-152 0 -244 93t-92 244v799h381v-913q0 -63 27.5 -101.5t74.5 -38.5q57 0 111.5 45.5t87.5 120.5v887h381z" />
    <glyph glyph-name="w.aalt" horiz-adv-x="1744" 
d="M1720 1116l-530 -1136h-33l-258 573l-297 -573h-31l-546 1136h415l338 -717l101 197l-234 520h367l125 -266l127 266h41l-148 -311l189 -404l333 715h41z" />
    <glyph glyph-name="wacute.aalt" horiz-adv-x="1744" 
d="M702 1231l-14 26l537 316l16 -29zM1720 1116l-530 -1136h-33l-258 573l-297 -573h-31l-546 1136h415l338 -717l101 197l-234 520h367l125 -266l127 266h41l-148 -311l189 -404l333 715h41z" />
    <glyph glyph-name="wcircumflex.aalt" horiz-adv-x="1744" 
d="M649 1253l-14 17l340 346l342 -346l-14 -17l-328 306zM1720 1116l-530 -1136h-33l-258 573l-297 -573h-31l-546 1136h415l338 -717l101 197l-234 520h367l125 -266l127 266h41l-148 -311l189 -404l333 715h41z" />
    <glyph glyph-name="wdieresis.aalt" horiz-adv-x="1744" 
d="M884 1346q-46 -43 -120 -43q-76 0 -122 43t-46 110q0 70 46 113t122 43q74 0 120 -43t46 -113q0 -67 -46 -110zM1306 1346q-46 -43 -122 -43q-74 0 -120 43t-46 110q0 70 45 113t121 43t122 -43t46 -113q0 -67 -46 -110zM1720 1116l-530 -1136h-33l-258 573l-297 -573
h-31l-546 1136h415l338 -717l101 197l-234 520h367l125 -266l127 266h41l-148 -311l189 -404l333 715h41z" />
    <glyph glyph-name="wgrave.aalt" horiz-adv-x="1744" 
d="M1247 1231l-540 313l16 29l539 -316zM1720 1116l-530 -1136h-33l-258 573l-297 -573h-31l-546 1136h415l338 -717l101 197l-234 520h367l125 -266l127 266h41l-148 -311l189 -404l333 715h41z" />
    <glyph glyph-name="A_A.dlig" horiz-adv-x="2648" 
d="M698 1556l729 -1556h-403l-174 375h-643l-160 -375h-43l664 1556h30zM2253 0l-174 375h-686l505 1181h31l729 -1556h-405zM2064 408l-319 686l-295 -686h614zM834 408l-320 686l-293 -686h613z" />
    <glyph glyph-name="A_Aacute.dlig" horiz-adv-x="2648" 
d="M1616 1622l-10 29l643 235l12 -33zM698 1556l729 -1556h-403l-174 375h-643l-160 -375h-43l664 1556h30zM2253 0l-174 375h-686l505 1181h31l729 -1556h-405zM2064 408l-319 686l-295 -686h614zM834 408l-320 686l-293 -686h613z" />
    <glyph glyph-name="A_Adieresis.dlig" horiz-adv-x="2648" 
d="M1824 1701q-46 -42 -120 -42q-76 0 -122 42t-46 111q0 70 46 112t122 42q74 0 120 -42t46 -112q0 -69 -46 -111zM2246 1701q-46 -42 -122 -42t-121 42t-45 111q0 70 45 112t121 42t122 -42t46 -112q0 -69 -46 -111zM698 1556l729 -1556h-403l-174 375h-643l-160 -375h-43
l664 1556h30zM2253 0l-174 375h-686l505 1181h31l729 -1556h-405zM2064 408l-319 686l-295 -686h614zM834 408l-320 686l-293 -686h613z" />
    <glyph glyph-name="A_Adieresis_Adieresis.dlig" horiz-adv-x="3878" 
d="M1582 1702q-46 43 -46 113q0 68 46 110.5t122 42.5q74 0 120 -43t46 -110q0 -70 -45 -113t-121 -43t-122 43zM2005 1702q-45 43 -45 113q0 68 46 110.5t120 42.5t120 -43t46 -110q0 -70 -46 -113t-120 -43q-76 0 -121 43zM2813 1702q-46 43 -46 113q0 68 46 110.5
t122 42.5q74 0 119 -43t45 -110q0 -70 -45 -113t-119 -43q-76 0 -122 43zM3234 1702q-45 43 -45 113q0 68 46 110.5t120 42.5q76 0 122 -43t46 -110q0 -70 -46.5 -113t-121.5 -43q-76 0 -121 43zM698 1556l729 -1556h-403l-174 375h-643l-160 -375h-43l664 1556h30z
M1929 1556l729 -1556h-405l-174 375h-686l505 1181h31zM3484 0l-174 375h-687l504 1181h31l729 -1556h-403zM2064 408l-319 686l-295 -686h614zM3293 408l-319 686l-293 -686h612zM834 408l-320 686l-293 -686h613z" />
    <glyph glyph-name="A_Agrave.dlig" horiz-adv-x="2648" 
d="M2216 1622l-647 231l12 33l645 -235zM698 1556l729 -1556h-403l-174 375h-643l-160 -375h-43l664 1556h30zM2253 0l-174 375h-686l505 1181h31l729 -1556h-405zM2064 408l-319 686l-295 -686h614zM834 408l-320 686l-293 -686h613z" />
    <glyph glyph-name="A_Amacron.dlig" horiz-adv-x="2648" 
d="M1581 1659v33h668v-33h-668zM698 1556l729 -1556h-403l-174 375h-643l-160 -375h-43l664 1556h30zM2253 0l-174 375h-686l505 1181h31l729 -1556h-405zM2064 408l-319 686l-295 -686h614zM834 408l-320 686l-293 -686h613z" />
    <glyph glyph-name="A_Aogonek.dlig" horiz-adv-x="2648" 
d="M698 1556l729 -1556h-403l-174 375h-643l-160 -375h-43l664 1556h30zM2677 -416q-47 -25 -110.5 -40t-121.5 -15q-100 0 -162.5 48t-62.5 126q0 86 100.5 165t280.5 132h-348l-174 375h-686l505 1181h31l729 -1556q-84 -55 -135 -129t-51 -139q0 -63 35 -101.5t90 -38.5
q41 0 72 13zM2064 408l-319 686l-295 -686h614zM834 408l-320 686l-293 -686h613z" />
    <glyph glyph-name="A_Aring.dlig" horiz-adv-x="2648" 
d="M2073.5 1680.5q-60.5 -58.5 -160.5 -58.5q-98 0 -158.5 58.5t-60.5 152.5t60.5 152.5t158.5 58.5q100 0 160.5 -58.5t60.5 -152.5t-60.5 -152.5zM1784 1703q49 -48 129 -48q82 0 131 48t49 130t-49 130t-131 48q-80 0 -129 -48t-49 -130t49 -130zM698 1556l729 -1556
h-403l-174 375h-643l-160 -375h-43l664 1556h30zM2253 0l-174 375h-686l505 1181h31l729 -1556h-405zM2064 408l-319 686l-295 -686h614zM834 408l-320 686l-293 -686h613z" />
    <glyph glyph-name="A_Atilde.dlig" horiz-adv-x="2648" 
d="M1615 1825q-48 -43 -91 -125l-23 10q86 190 244 191q55 0 96 -25t92 -72q45 -43 80 -64q35 -22 78 -22q74 0 122 42t91 122l23 -10q-84 -188 -244 -189q-55 0 -96 25t-95 74q-47 43 -81 64q-34 22 -76 22q-72 0 -120 -43zM698 1556l729 -1556h-403l-174 375h-643
l-160 -375h-43l664 1556h30zM2253 0l-174 375h-686l505 1181h31l729 -1556h-405zM2064 408l-319 686l-295 -686h614zM834 408l-320 686l-293 -686h613z" />
    <glyph glyph-name="A_J.dlig" horiz-adv-x="2172" 
d="M209 375l-160 -375h-43l664 1556h30l555 -1181h-1046zM2011 1536v-1165q0 -117 -54 -205t-152.5 -137t-227.5 -49q-111 0 -199 29.5t-143 84.5l16 23q33 -33 82 -53.5t97 -20.5q86 0 137 68.5t51 179.5v1245h393zM516 1094l-293 -686h613z" />
    <glyph glyph-name="Aacute_A.dlig" horiz-adv-x="2648" 
d="M385 1622l-10 29l643 237l12 -33zM698 1556l729 -1556h-403l-174 375h-643l-160 -375h-43l664 1556h30zM2253 0l-174 375h-686l505 1181h31l729 -1556h-405zM2064 408l-319 686l-295 -686h614zM834 408l-320 686l-293 -686h613z" />
    <glyph glyph-name="Aacute_Aacute.dlig" horiz-adv-x="2648" 
d="M387 1622l-10 29l643 235l12 -33zM698 1556l729 -1556h-403l-174 375h-643l-160 -375h-43l664 1556h30zM2253 0l-174 375h-686l505 1181h31l729 -1556h-405zM2064 408l-319 686l-295 -686h614zM834 408l-320 686l-293 -686h613zM1616 1622l-10 29l643 235l12 -33z" />
    <glyph glyph-name="Aacute_J.dlig" horiz-adv-x="2172" 
d="M389 1622l-10 29l643 235l12 -33zM209 375l-160 -375h-43l664 1556h30l555 -1181h-1046zM2011 1536v-1165q0 -117 -54 -205t-153 -137q-98 -49 -227 -49q-111 0 -199 29q-88 30 -143 85l16 23q33 -33 82 -54q49 -20 97 -20q86 0 137 69t51 179v1245h393zM516 1094
l-293 -686h613z" />
    <glyph glyph-name="Abreve_J.dlig" horiz-adv-x="2172" 
d="M923 1734q-110 -75 -237 -75t-236 75q-110 75 -161 197l22 11q59 -111 163 -179q103 -68 212 -67q111 0 215 67q104 68 162 179l20 -11q-50 -122 -160 -197zM209 375l-160 -375h-43l664 1556h30l555 -1181h-1046zM2011 1536v-1165q0 -117 -54 -205t-153 -137
q-98 -49 -227 -49q-111 0 -199 29q-88 30 -143 85l16 23q33 -33 82 -54q49 -20 97 -20q86 0 137 69t51 179v1245h393zM516 1094l-293 -686h613z" />
    <glyph glyph-name="Adieresis_A.dlig" horiz-adv-x="2648" 
d="M353 1702q-46 43 -46 113q0 68 46 110.5t122 42.5q74 0 120 -43t46 -110q0 -70 -46 -113t-120 -43q-76 0 -122 43zM774 1702q-45 43 -45 113q0 68 46 110.5t120 42.5q76 0 122 -43t46 -110q0 -70 -46 -113t-122 -43t-121 43zM698 1556l729 -1556h-403l-174 375h-643
l-160 -375h-43l664 1556h30zM2253 0l-174 375h-686l505 1181h31l729 -1556h-405zM2064 408l-319 686l-295 -686h614zM834 408l-320 686l-293 -686h613z" />
    <glyph glyph-name="Adieresis_Adieresis.dlig" horiz-adv-x="2648" 
d="M595 1701q-46 -42 -120 -42q-76 0 -122 42t-46 111q0 70 46 112t122 42q74 0 120 -42t46 -112q0 -69 -46 -111zM1017 1701q-46 -42 -122 -42t-121 42t-45 111q0 70 45 112t121 42t122 -42t46 -112q0 -69 -46 -111zM698 1556l729 -1556h-403l-174 375h-643l-160 -375h-43
l664 1556h30zM2253 0l-174 375h-686l505 1181h31l729 -1556h-405zM2064 408l-319 686l-295 -686h614zM834 408l-320 686l-293 -686h613zM1824 1701q-46 -42 -120 -42q-76 0 -122 42t-46 111q0 70 46 112t122 42q74 0 120 -42t46 -112q0 -69 -46 -111zM2246 1701
q-46 -42 -122 -42t-121 42t-45 111q0 70 45 112t121 42t122 -42t46 -112q0 -69 -46 -111z" />
    <glyph glyph-name="Adieresis_Adieresis_A.dlig" horiz-adv-x="3878" 
d="M353 1702q-46 43 -46 113q0 68 46 110.5t122 42.5q74 0 120 -43t46 -110q0 -70 -46 -113t-120 -43q-76 0 -122 43zM774 1702q-45 43 -45 113q0 68 46 110.5t120 42.5q76 0 122 -43t46 -110q0 -70 -46 -113t-122 -43t-121 43zM1582 1702q-46 43 -46 113q0 68 46 110.5
t122 42.5q74 0 120 -43t46 -110q0 -70 -45 -113t-121 -43t-122 43zM2005 1702q-45 43 -45 113q0 68 46 110.5t120 42.5t120 -43t46 -110q0 -70 -46 -113t-120 -43q-76 0 -121 43zM698 1556l729 -1556h-403l-174 375h-643l-160 -375h-43l664 1556h30zM1929 1556l729 -1556
h-405l-174 375h-686l505 1181h31zM3484 0l-174 375h-687l504 1181h31l729 -1556h-403zM2064 408l-319 686l-295 -686h614zM3293 408l-319 686l-293 -686h612zM834 408l-320 686l-293 -686h613z" />
    <glyph glyph-name="Adieresis_J.dlig" horiz-adv-x="2172" 
d="M597 1701q-46 -42 -120 -42q-76 0 -122 42t-46 111q0 70 46 112t122 42q74 0 120 -42t46 -112q0 -69 -46 -111zM1019 1701q-46 -42 -122 -42t-121 42t-45 111q0 70 45 112t121 42t122 -42t46 -112q0 -69 -46 -111zM209 375l-160 -375h-43l664 1556h30l555 -1181h-1046z
M2011 1536v-1165q0 -117 -54 -205t-153 -137q-98 -49 -227 -49q-111 0 -199 29q-88 30 -143 85l16 23q33 -33 82 -54q49 -20 97 -20q86 0 137 69t51 179v1245h393zM516 1094l-293 -686h613z" />
    <glyph glyph-name="Agrave_Agrave.dlig" horiz-adv-x="2648" 
d="M987 1622l-647 231l12 33l645 -235zM698 1556l729 -1556h-403l-174 375h-643l-160 -375h-43l664 1556h30zM2253 0l-174 375h-686l505 1181h31l729 -1556h-405zM2064 408l-319 686l-295 -686h614zM834 408l-320 686l-293 -686h613zM2216 1622l-647 231l12 33l645 -235z
" />
    <glyph glyph-name="Amacron_A.dlig" horiz-adv-x="2648" 
d="M1018 1659h-666v33h666v-33zM698 1556l729 -1556h-403l-174 375h-643l-160 -375h-43l664 1556h30zM2253 0l-174 375h-686l505 1181h31l729 -1556h-405zM2064 408l-319 686l-295 -686h614zM834 408l-320 686l-293 -686h613z" />
    <glyph glyph-name="Amacron_J.dlig" horiz-adv-x="2172" 
d="M354 1659v33h668v-33h-668zM209 375l-160 -375h-43l664 1556h30l555 -1181h-1046zM2011 1536v-1165q0 -117 -54 -205t-153 -137q-98 -49 -227 -49q-111 0 -199 29q-88 30 -143 85l16 23q33 -33 82 -54q49 -20 97 -20q86 0 137 69t51 179v1245h393zM516 1094l-293 -686
h613z" />
    <glyph glyph-name="Aring_A.dlig" horiz-adv-x="2648" 
d="M525.5 1680.5q-60.5 58.5 -60.5 152.5q0 96 60.5 154.5t158.5 58.5q100 0 160.5 -58.5t60.5 -154.5q0 -94 -60.5 -152.5t-160.5 -58.5q-98 0 -158.5 58.5zM555 1964q-49 -49 -49 -131q0 -80 49 -129t129 -49q82 0 131 49t49 129q0 82 -49 131t-131 49q-80 0 -129 -49z
M698 1556l729 -1556h-403l-174 375h-643l-160 -375h-43l664 1556h30zM2253 0l-174 375h-686l505 1181h31l729 -1556h-405zM2064 408l-319 686l-295 -686h614zM834 408l-320 686l-293 -686h613z" />
    <glyph glyph-name="Aring_Aring.dlig" horiz-adv-x="2648" 
d="M845 1680q-60 -58 -161 -58q-98 0 -159 58q-60 58 -60 153q0 94 60 153q60 58 159 58q100 0 161 -58q60 -58 60 -153t-60 -153zM555 1703q49 -48 129 -48q82 0 131 48t49 130t-49 130t-131 48q-80 0 -129 -48t-49 -130t49 -130zM698 1556l729 -1556h-403l-174 375h-643
l-160 -375h-43l664 1556h30zM2253 0l-174 375h-686l505 1181h31l729 -1556h-405zM2064 408l-319 686l-295 -686h614zM834 408l-320 686l-293 -686h613zM2074 1680q-60 -58 -161 -58q-98 0 -159 58q-60 58 -60 153q0 94 60 153q60 58 159 58q100 0 161 -58q60 -58 60 -153
t-60 -153zM1784 1703q49 -48 129 -48q82 0 131 48t49 130t-49 130t-131 48q-80 0 -129 -48t-49 -130t49 -130z" />
    <glyph glyph-name="Aring_J.dlig" horiz-adv-x="2172" 
d="M847 1680q-60 -58 -161 -58q-98 0 -159 58q-60 58 -60 153q0 94 60 153q60 58 159 58q100 0 161 -58q60 -58 60 -153t-60 -153zM557 1703q49 -48 129 -48q82 0 131 48t49 130t-49 130t-131 48q-80 0 -129 -48t-49 -130t49 -130zM209 375l-160 -375h-43l664 1556h30
l555 -1181h-1046zM2011 1536v-1165q0 -117 -54 -205t-153 -137q-98 -49 -227 -49q-111 0 -199 29q-88 30 -143 85l16 23q33 -33 82 -54q49 -20 97 -20q86 0 137 69t51 179v1245h393zM516 1094l-293 -686h613z" />
    <glyph glyph-name="H_E.dlig" horiz-adv-x="1976" 
d="M1929 33v-33h-919v797h-447v-797h-393v1536h393v-707h447v707h905v-33h-514v-674h420v-32h-420v-764h528z" />
    <glyph glyph-name="H_Eacute.dlig" horiz-adv-x="1976" 
d="M1176 1622l-11 29l643 235l13 -33zM1929 33v-33h-919v797h-447v-797h-393v1536h393v-707h447v707h905v-33h-514v-674h420v-32h-420v-764h528z" />
    <glyph glyph-name="H_Ecircumflex.dlig" horiz-adv-x="1976" 
d="M1087 1630l-14 17l402 325l401 -325l-14 -17l-387 285zM1929 33v-33h-919v797h-447v-797h-393v1536h393v-707h447v707h905v-33h-514v-674h420v-32h-420v-764h528z" />
    <glyph glyph-name="H_Edieresis.dlig" horiz-adv-x="1976" 
d="M1383 1701q-46 -42 -119 -42q-76 0 -122 42t-46 111q0 70 46 112t122 42q74 0 119 -42q46 -42 47 -112q-1 -69 -47 -111zM1805 1701q-46 -42 -122 -42t-120 42q-45 42 -45 111q0 70 45 112t120 42q76 0 122 -42t46 -112q0 -69 -46 -111zM1929 33v-33h-919v797h-447v-797
h-393v1536h393v-707h447v707h905v-33h-514v-674h420v-32h-420v-764h528z" />
    <glyph glyph-name="H_Edotaccent.dlig" horiz-adv-x="1976" 
d="M1631 1697q-60 -56 -158 -57q-98 0 -159 57q-60 56 -61 148q0 94 61 150q60 55 159 55q98 0 158 -55t61 -150q-1 -92 -61 -148zM1929 33v-33h-919v797h-447v-797h-393v1536h393v-707h447v707h905v-33h-514v-674h420v-32h-420v-764h528z" />
    <glyph glyph-name="H_Egrave.dlig" horiz-adv-x="1976" 
d="M1776 1622l-648 231l13 33l645 -235zM1929 33v-33h-919v797h-447v-797h-393v1536h393v-707h447v707h905v-33h-514v-674h420v-32h-420v-764h528z" />
    <glyph glyph-name="H_Emacron.dlig" horiz-adv-x="1976" 
d="M1141 1659v33h667v-33h-667zM1929 33v-33h-919v797h-447v-797h-393v1536h393v-707h447v707h905v-33h-514v-674h420v-32h-420v-764h528z" />
    <glyph glyph-name="H_Eogonek.dlig" horiz-adv-x="1976" 
d="M1946 -416q-45 -25 -108.5 -40t-123.5 -15q-100 0 -161.5 48t-61.5 126q0 86 100.5 165t278.5 132h-860v797h-447v-797h-393v1536h393v-707h447v707h905v-33h-514v-674h420v-32h-420v-764h528v-33q-84 -55 -135 -129t-51 -139q0 -63 33.5 -101.5t89.5 -38.5q41 0 71 13z
" />
    <glyph glyph-name="K_A.dlig" horiz-adv-x="2762" 
d="M2370 0l-175 375h-686l506 1181h31l729 -1556h-405zM170 1536h393v-1536h-393v1536zM895 1040l653 -1040h-448l-508 809l788 727h52zM2181 408l-319 686l-295 -686h614z" />
    <glyph glyph-name="K_A_A.dlig" horiz-adv-x="3991" 
d="M2046 1556l729 -1556h-405l-175 375h-686l506 1181h31zM3600 0l-174 375h-686l504 1181h31l729 -1556h-404zM170 1536h393v-1536h-393v1536zM895 1040l653 -1040h-448l-508 809l788 727h52zM2181 408l-319 686l-295 -686h614zM3410 408l-320 686l-292 -686h612z" />
    <glyph glyph-name="K_Aacute.dlig" horiz-adv-x="2762" 
d="M1733 1622l-11 29l643 235l13 -33zM2370 0l-175 375h-686l506 1181h31l729 -1556h-405zM170 1536h393v-1536h-393v1536zM895 1040l653 -1040h-448l-508 809l788 727h52zM2181 408l-319 686l-295 -686h614z" />
    <glyph glyph-name="K_Abreve.dlig" horiz-adv-x="2762" 
d="M2266 1734q-110 -75 -236 -75q-127 0 -237 75t-161 197l23 11q59 -111 163 -179q103 -68 212 -67q111 0 215 67q104 68 161 179l21 -11q-51 -122 -161 -197zM2370 0l-175 375h-686l506 1181h31l729 -1556h-405zM170 1536h393v-1536h-393v1536zM895 1040l653 -1040h-448
l-508 809l788 727h52zM2181 408l-319 686l-295 -686h614z" />
    <glyph glyph-name="K_Acircumflex.dlig" horiz-adv-x="2762" 
d="M1647 1630l-15 17l402 325l401 -325l-14 -17l-387 285zM2370 0l-175 375h-686l506 1181h31l729 -1556h-405zM170 1536h393v-1536h-393v1536zM895 1040l653 -1040h-448l-508 809l788 727h52zM2181 408l-319 686l-295 -686h614z" />
    <glyph glyph-name="K_Adieresis.dlig" horiz-adv-x="2762" 
d="M1940 1701q-46 -42 -119 -42q-76 0 -122 42t-46 111q0 70 46 112t122 42q74 0 119 -42q46 -42 47 -112q-1 -69 -47 -111zM2362 1701q-46 -42 -121 -42q-76 0 -121 42t-45 111q0 70 45 112t121 42t121 -42q46 -42 46 -112q0 -69 -46 -111zM2370 0l-175 375h-686l506 1181
h31l729 -1556h-405zM170 1536h393v-1536h-393v1536zM895 1040l653 -1040h-448l-508 809l788 727h52zM2181 408l-319 686l-295 -686h614z" />
    <glyph glyph-name="K_Agrave.dlig" horiz-adv-x="2762" 
d="M2333 1622l-647 231l12 33l645 -235zM2370 0l-175 375h-686l506 1181h31l729 -1556h-405zM170 1536h393v-1536h-393v1536zM895 1040l653 -1040h-448l-508 809l788 727h52zM2181 408l-319 686l-295 -686h614z" />
    <glyph glyph-name="K_Amacron.dlig" horiz-adv-x="2762" 
d="M1698 1659v33h667v-33h-667zM2370 0l-175 375h-686l506 1181h31l729 -1556h-405zM170 1536h393v-1536h-393v1536zM895 1040l653 -1040h-448l-508 809l788 727h52zM2181 408l-319 686l-295 -686h614z" />
    <glyph glyph-name="K_Aogonek.dlig" horiz-adv-x="2762" 
d="M2793 -416q-47 -25 -110.5 -40t-122.5 -15q-100 0 -161.5 48t-61.5 126q0 86 100 165t281 132h-348l-175 375h-686l506 1181h31l729 -1556q-84 -55 -135 -129t-51 -139q0 -63 34.5 -101.5t90.5 -38.5q41 0 71 13zM170 1536h393v-1536h-393v1536zM895 1040l653 -1040h-448
l-508 809l788 727h52zM2181 408l-319 686l-295 -686h614z" />
    <glyph glyph-name="K_Aring.dlig" horiz-adv-x="2762" 
d="M2190 1680q-60 -58 -160 -58q-98 0 -159 58q-60 58 -61 153q0 94 61 153q60 58 159 58q100 0 160 -58t61 -153q-1 -95 -61 -153zM1901 1703q49 -48 129 -48q82 0 131 48t49 130t-49 130t-131 48q-80 0 -129 -48t-50 -130q1 -82 50 -130zM2370 0l-175 375h-686l506 1181
h31l729 -1556h-405zM170 1536h393v-1536h-393v1536zM895 1040l653 -1040h-448l-508 809l788 727h52zM2181 408l-319 686l-295 -686h614z" />
    <glyph glyph-name="uni0136_Amacron.dlig" horiz-adv-x="2762" 
d="M938 -140q47 -52 47 -136q0 -100 -70 -182q-70 -81 -184 -115l-12 26q88 33 147 96t70 138q-41 -51 -135 -52q-66 0 -107 38t-41 100q0 63 44 101t116 38q78 0 125 -52zM2370 0l-175 375h-686l506 1181h31l729 -1556h-405zM170 1536h393v-1536h-393v1536zM895 1040
l653 -1040h-448l-508 809l788 727h52zM2181 408l-319 686l-295 -686h614zM1698 1659v33h667v-33h-667z" />
    <glyph glyph-name="L_A.dlig" horiz-adv-x="2136" 
d="M1743 0l-174 375h-686l506 1181h30l729 -1556h-405zM563 33h531v-33h-924v1536h393v-1503zM1554 408l-319 686l-295 -686h614z" />
    <glyph glyph-name="L_A_A.dlig" horiz-adv-x="3364" 
d="M1419 1556l729 -1556h-405l-174 375h-686l506 1181h30zM2974 0l-174 375h-686l503 1181h31l729 -1556h-403zM563 33h531v-33h-924v1536h393v-1503zM1554 408l-319 686l-295 -686h614zM2783 408l-319 686l-293 -686h612z" />
    <glyph glyph-name="L_Aacute.dlig" horiz-adv-x="2136" 
d="M1106 1622l-10 29l643 235l12 -33zM1743 0l-174 375h-686l506 1181h30l729 -1556h-405zM563 33h531v-33h-924v1536h393v-1503zM1554 408l-319 686l-295 -686h614z" />
    <glyph glyph-name="L_Abreve.dlig" horiz-adv-x="2136" 
d="M1639 1734q-110 -75 -236 -75q-127 0 -237 75t-160 197l22 11q59 -111 163 -179q103 -68 212 -67q111 0 215 67q104 68 162 179l20 -11q-51 -122 -161 -197zM1743 0l-174 375h-686l506 1181h30l729 -1556h-405zM563 33h531v-33h-924v1536h393v-1503zM1554 408l-319 686
l-295 -686h614z" />
    <glyph glyph-name="L_Acircumflex.dlig" horiz-adv-x="2136" 
d="M1020 1630l-14 17l401 325l401 -325l-14 -17l-387 285zM1743 0l-174 375h-686l506 1181h30l729 -1556h-405zM563 33h531v-33h-924v1536h393v-1503zM1554 408l-319 686l-295 -686h614z" />
    <glyph glyph-name="L_Adieresis.dlig" horiz-adv-x="2136" 
d="M1314 1701q-46 -42 -120 -42q-76 0 -122 42t-46 111q0 70 46 112t122 42q74 0 120 -42t46 -112q0 -69 -46 -111zM1736 1701q-46 -42 -122 -42t-121 42t-45 111q0 70 45 112t121 42t122 -42t46 -112q0 -69 -46 -111zM1743 0l-174 375h-686l506 1181h30l729 -1556h-405z
M563 33h531v-33h-924v1536h393v-1503zM1554 408l-319 686l-295 -686h614z" />
    <glyph glyph-name="L_Adieresis_A.dlig" horiz-adv-x="3364" 
d="M1072 1702q-46 43 -46 113q0 68 46 110.5t122 42.5q74 0 120 -43t46 -110q0 -70 -45 -113t-121 -43t-122 43zM1495 1702q-45 43 -45 113q0 68 46 110.5t120 42.5t120 -43t46 -110q0 -70 -46 -113t-120 -43q-76 0 -121 43zM1419 1556l729 -1556h-405l-174 375h-686
l506 1181h30zM2974 0l-174 375h-686l503 1181h31l729 -1556h-403zM563 33h531v-33h-924v1536h393v-1503zM1554 408l-319 686l-295 -686h614zM2783 408l-319 686l-293 -686h612z" />
    <glyph glyph-name="L_Agrave.dlig" horiz-adv-x="2136" 
d="M1706 1622l-647 231l12 33l645 -235zM1743 0l-174 375h-686l506 1181h30l729 -1556h-405zM563 33h531v-33h-924v1536h393v-1503zM1554 408l-319 686l-295 -686h614z" />
    <glyph glyph-name="L_Amacron.dlig" horiz-adv-x="2136" 
d="M1071 1659v33h668v-33h-668zM1743 0l-174 375h-686l506 1181h30l729 -1556h-405zM563 33h531v-33h-924v1536h393v-1503zM1554 408l-319 686l-295 -686h614z" />
    <glyph glyph-name="L_Aogonek.dlig" horiz-adv-x="2136" 
d="M2167 -416q-47 -25 -110.5 -40t-121.5 -15q-100 0 -162.5 48t-62.5 126q0 86 100.5 165t280.5 132h-348l-174 375h-686l506 1181h30l729 -1556q-84 -55 -134 -129t-50 -139q0 -63 34 -101.5t89 -38.5q41 0 72 13zM563 33h531v-33h-924v1536h393v-1503zM1554 408l-319 686
l-295 -686h614z" />
    <glyph glyph-name="L_Aring.dlig" horiz-adv-x="2136" 
d="M1564 1680q-60 -58 -161 -58q-98 0 -159 58q-60 58 -60 153q0 94 60 153q60 58 159 58q100 0 161 -58q60 -58 60 -153t-60 -153zM1274 1703q49 -48 129 -48q82 0 131 48t49 130t-49 130t-131 48q-80 0 -129 -48t-49 -130t49 -130zM1743 0l-174 375h-686l506 1181h30
l729 -1556h-405zM563 33h531v-33h-924v1536h393v-1503zM1554 408l-319 686l-295 -686h614z" />
    <glyph glyph-name="L_Atilde.dlig" horiz-adv-x="2136" 
d="M1105 1825q-48 -43 -91 -125l-23 10q86 190 244 191q55 0 96 -25t92 -72q45 -43 80 -64q35 -22 78 -22q74 0 122 42t91 122l23 -10q-84 -188 -244 -189q-55 0 -96 25t-95 74q-47 43 -80 64q-34 22 -77 22q-72 0 -120 -43zM1743 0l-174 375h-686l506 1181h30l729 -1556
h-405zM563 33h531v-33h-924v1536h393v-1503zM1554 408l-319 686l-295 -686h614z" />
    <glyph glyph-name="L_L.dlig" horiz-adv-x="1601" 
d="M563 33h758v-33h-1151v1536h393v-1503zM1624 344v-33h-723v1225h393v-1192h330z" />
    <glyph glyph-name="uni013B_Amacron.dlig" horiz-adv-x="2136" 
d="M770 -140q47 -52 47 -136q0 -100 -69 -182q-70 -81 -185 -115l-12 26q88 33 147 96t70 138q-41 -51 -135 -52q-66 0 -107 38t-41 100q0 63 44 101t116 38q78 0 125 -52zM1743 0l-174 375h-686l506 1181h30l729 -1556h-405zM563 33h531v-33h-924v1536h393v-1503zM1554 408
l-319 686l-295 -686h614zM1071 1659v33h668v-33h-668z" />
    <glyph glyph-name="uni013B_L.dlig" horiz-adv-x="1601" 
d="M858 -140q47 -52 47 -136q0 -100 -69 -182q-70 -81 -185 -115l-12 26q88 33 147 96t70 138q-41 -51 -135 -52q-66 0 -107 38t-41 100q0 63 44 101t116 38q78 0 125 -52zM563 33h758v-33h-1151v1536h393v-1503zM1624 344v-33h-723v1225h393v-1192h330z" />
    <glyph glyph-name="N_N.dlig" horiz-adv-x="2762" 
d="M2591 1536v-1556h-31l-1159 1064v-1064h-33l-1157 1064v-1044h-41v1556h33l1157 -1064v1064h33l1157 -1064v1044h41z" />
    <glyph glyph-name="uni0145_N.dlig" horiz-adv-x="2762" 
d="M907 -140.5q47 -52.5 47 -135.5q0 -100 -69.5 -181.5t-184.5 -115.5l-12 26q88 33 147.5 96.5t69.5 137.5q-41 -51 -135 -52q-66 0 -106.5 38t-40.5 100q0 63 44 101t115 38q78 0 125 -52.5zM2591 1536v-1556h-31l-1159 1064v-1064h-33l-1157 1064v-1044h-41v1556h33
l1157 -1064v1064h33l1157 -1064v1044h41z" />
    <glyph glyph-name="uni0145_uni0145.dlig" horiz-adv-x="2762" 
d="M2097 -140q47 -52 47 -136q0 -100 -69 -182q-70 -81 -185 -115l-12 26q88 33 147 96t70 138q-41 -51 -135 -52q-66 0 -107 38t-41 100q0 63 45 101q44 38 115 38q78 0 125 -52zM2591 1536v-1556h-31l-1159 1064v-1064h-33l-1157 1064v-1044h-41v1556h33l1157 -1064v1064
h33l1157 -1064v1044h41zM907 -140q47 -52 47 -136q0 -100 -69 -182q-70 -81 -185 -115l-12 26q88 33 148 96q59 63 69 138q-41 -51 -135 -52q-66 0 -106 38q-41 38 -41 100q0 63 44 101t115 38q78 0 125 -52z" />
    <glyph glyph-name="O_O.dlig" horiz-adv-x="2695" 
d="M2211.5 1458q188.5 -98 292 -277.5t103.5 -412.5t-103.5 -412.5t-292 -277.5t-435.5 -98q-246 0 -428 124q-182 -125 -426 -124q-248 0 -437.5 98t-293 277.5t-103.5 412.5t103.5 412.5t293 277.5t437.5 98q244 0 426 -124q182 125 428 124q247 0 435.5 -98zM1309 135
q-129 104 -199 266t-70 367t70 366.5t199 266.5q-115 63 -250 63q-166 0 -291 -87t-193.5 -244.5t-68.5 -364.5t68.5 -364.5t193.5 -244.5t291 -87q135 0 250 63zM1928 159q126 87 194.5 244.5t68.5 364.5t-68.5 364.5t-194.5 244.5t-292 87q-133 0 -250 -61
q129 -106 199 -269t70 -366t-69.5 -365.5t-199.5 -269.5q117 -61 250 -61q166 0 292 87zM1154 1133.5q-69 -158.5 -69 -365.5t69 -365.5t194 -244.5q125 86 193.5 244.5t68.5 365.5t-68.5 365.5t-193.5 244.5q-125 -86 -194 -244.5z" />
    <glyph glyph-name="O_Oacute.dlig" horiz-adv-x="2695" 
d="M1475 1622l-11 29l643 237l13 -33zM2211.5 1458q188.5 -98 292 -277.5t103.5 -412.5t-103.5 -412.5t-292 -277.5t-435.5 -98q-246 0 -428 124q-182 -125 -426 -124q-248 0 -437.5 98t-293 277.5t-103.5 412.5t103.5 412.5t293 277.5t437.5 98q244 0 426 -124
q182 125 428 124q247 0 435.5 -98zM1309 135q-129 104 -199 266t-70 367t70 366.5t199 266.5q-115 63 -250 63q-166 0 -291 -87t-193.5 -244.5t-68.5 -364.5t68.5 -364.5t193.5 -244.5t291 -87q135 0 250 63zM1928 159q126 87 194.5 244.5t68.5 364.5t-68.5 364.5
t-194.5 244.5t-292 87q-133 0 -250 -61q129 -106 199 -269t70 -366t-69.5 -365.5t-199.5 -269.5q117 -61 250 -61q166 0 292 87zM1154 1133.5q-69 -158.5 -69 -365.5t69 -365.5t194 -244.5q125 86 193.5 244.5t68.5 365.5t-68.5 365.5t-193.5 244.5q-125 -86 -194 -244.5z
" />
    <glyph glyph-name="O_Odieresis.dlig" horiz-adv-x="2695" 
d="M1443 1702q-46 43 -46 113q0 68 46 110.5t122 42.5q74 0 120 -43t46 -110q0 -70 -45.5 -113t-120.5 -43q-76 0 -122 43zM1865 1702q-46 43 -46 113q0 68 46 110.5t120 42.5q76 0 121.5 -43t45.5 -110q0 -70 -46 -113t-121 -43q-74 0 -120 43zM2211.5 1458
q188.5 -98 292 -277.5t103.5 -412.5t-103.5 -412.5t-292 -277.5t-435.5 -98q-246 0 -428 124q-182 -125 -426 -124q-248 0 -437.5 98t-293 277.5t-103.5 412.5t103.5 412.5t293 277.5t437.5 98q244 0 426 -124q182 125 428 124q247 0 435.5 -98zM1309 135q-129 104 -199 266
t-70 367t70 366.5t199 266.5q-115 63 -250 63q-166 0 -291 -87t-193.5 -244.5t-68.5 -364.5t68.5 -364.5t193.5 -244.5t291 -87q135 0 250 63zM1928 159q126 87 194.5 244.5t68.5 364.5t-68.5 364.5t-194.5 244.5t-292 87q-133 0 -250 -61q129 -106 199 -269t70 -366
t-69.5 -365.5t-199.5 -269.5q117 -61 250 -61q166 0 292 87zM1154 1133.5q-69 -158.5 -69 -365.5t69 -365.5t194 -244.5q125 86 193.5 244.5t68.5 365.5t-68.5 365.5t-193.5 244.5q-125 -86 -194 -244.5z" />
    <glyph glyph-name="O_Ograve.dlig" horiz-adv-x="2695" 
d="M2075 1622l-645 233l12 33l643 -237zM2211.5 1458q188.5 -98 292 -277.5t103.5 -412.5t-103.5 -412.5t-292 -277.5t-435.5 -98q-246 0 -428 124q-182 -125 -426 -124q-248 0 -437.5 98t-293 277.5t-103.5 412.5t103.5 412.5t293 277.5t437.5 98q244 0 426 -124
q182 125 428 124q247 0 435.5 -98zM1309 135q-129 104 -199 266t-70 367t70 366.5t199 266.5q-115 63 -250 63q-166 0 -291 -87t-193.5 -244.5t-68.5 -364.5t68.5 -364.5t193.5 -244.5t291 -87q135 0 250 63zM1928 159q126 87 194.5 244.5t68.5 364.5t-68.5 364.5
t-194.5 244.5t-292 87q-133 0 -250 -61q129 -106 199 -269t70 -366t-69.5 -365.5t-199.5 -269.5q117 -61 250 -61q166 0 292 87zM1154 1133.5q-69 -158.5 -69 -365.5t69 -365.5t194 -244.5q125 86 193.5 244.5t68.5 365.5t-68.5 365.5t-193.5 244.5q-125 -86 -194 -244.5z
" />
    <glyph glyph-name="O_Otilde.dlig" horiz-adv-x="2695" 
d="M1473.5 1825q-48.5 -43 -89.5 -123l-22 10q37 82 97.5 135.5t144.5 53.5q55 0 95 -24t95 -73q45 -43 79 -64.5t79 -21.5q74 0 122 43t89 121l22 -10q-37 -82 -97 -135.5t-144 -53.5q-55 0 -97.5 26t-91.5 73q-51 45 -85 65.5t-77 20.5q-71 0 -119.5 -43zM2211.5 1458
q188.5 -98 292 -277.5t103.5 -412.5t-103.5 -412.5t-292 -277.5t-435.5 -98q-246 0 -428 124q-182 -125 -426 -124q-248 0 -437.5 98t-293 277.5t-103.5 412.5t103.5 412.5t293 277.5t437.5 98q244 0 426 -124q182 125 428 124q247 0 435.5 -98zM1309 135q-129 104 -199 266
t-70 367t70 366.5t199 266.5q-115 63 -250 63q-166 0 -291 -87t-193.5 -244.5t-68.5 -364.5t68.5 -364.5t193.5 -244.5t291 -87q135 0 250 63zM1928 159q126 87 194.5 244.5t68.5 364.5t-68.5 364.5t-194.5 244.5t-292 87q-133 0 -250 -61q129 -106 199 -269t70 -366
t-69.5 -365.5t-199.5 -269.5q117 -61 250 -61q166 0 292 87zM1154 1133.5q-69 -158.5 -69 -365.5t69 -365.5t194 -244.5q125 86 193.5 244.5t68.5 365.5t-68.5 365.5t-193.5 244.5q-125 -86 -194 -244.5z" />
    <glyph glyph-name="O_dieresis_Otilde.dlig" horiz-adv-x="2695" 
d="M1476 1825q-48 -43 -92 -125l-22 10q86 190 244 191q55 0 96 -25t92 -72q45 -43 80 -64q35 -22 78 -22q74 0 122 42t91 122l22 -10q-84 -188 -243 -189q-55 0 -97 25q-41 25 -94 74q-47 43 -81 64q-34 22 -77 22q-71 0 -119 -43zM2212 1458q188 -98 292 -277
q103 -179 103 -413q0 -233 -103 -413q-103 -179 -292 -277q-188 -98 -436 -98q-246 0 -428 124q-182 -125 -426 -124q-248 0 -438 98q-189 98 -293 277q-103 179 -103 413q0 233 103 413q103 179 293 277q189 98 438 98q244 0 426 -124q182 125 428 124q248 0 436 -98z
M1309 135q-129 104 -199 266t-70 367t70 367t199 266q-115 63 -250 63q-166 0 -291 -87t-194 -244q-69 -158 -68 -365q0 -207 68 -365q69 -158 194 -244q125 -87 291 -87q135 0 250 63zM1928 159q126 87 195 244q69 158 68 365q0 207 -68 365q-69 158 -195 244
q-126 87 -292 87q-133 0 -250 -61q129 -106 199 -269t70 -366t-70 -366t-199 -269q117 -61 250 -61q166 0 292 87zM1154 1134q-69 -159 -69 -366t69 -366t194 -244q125 86 193 244q69 159 69 366t-69 366t-193 244q-125 -85 -194 -244zM830 1701q-46 -42 -119 -42
q-76 0 -122 42t-46 111q0 70 46 112t122 42q74 0 119 -42q46 -42 47 -112q-1 -69 -47 -111zM1252 1701q-46 -42 -122 -42t-120 42q-45 42 -45 111q0 70 45 112t120 42q76 0 122 -42t46 -112q0 -69 -46 -111z" />
    <glyph glyph-name="Oacute_O.dlig" horiz-adv-x="2695" 
d="M623 1622l-11 29l643 235l13 -33zM2211.5 1458q188.5 -98 292 -277.5t103.5 -412.5t-103.5 -412.5t-292 -277.5t-435.5 -98q-246 0 -428 124q-182 -125 -426 -124q-248 0 -437.5 98t-293 277.5t-103.5 412.5t103.5 412.5t293 277.5t437.5 98q244 0 426 -124
q182 125 428 124q247 0 435.5 -98zM1309 135q-129 104 -199 266t-70 367t70 366.5t199 266.5q-115 63 -250 63q-166 0 -291 -87t-193.5 -244.5t-68.5 -364.5t68.5 -364.5t193.5 -244.5t291 -87q135 0 250 63zM1928 159q126 87 194.5 244.5t68.5 364.5t-68.5 364.5
t-194.5 244.5t-292 87q-133 0 -250 -61q129 -106 199 -269t70 -366t-69.5 -365.5t-199.5 -269.5q117 -61 250 -61q166 0 292 87zM1154 1133.5q-69 -158.5 -69 -365.5t69 -365.5t194 -244.5q125 86 193.5 244.5t68.5 365.5t-68.5 365.5t-193.5 244.5q-125 -86 -194 -244.5z
" />
    <glyph glyph-name="Oacute_Oacute.dlig" horiz-adv-x="2695" 
d="M1477 1622l-11 29l643 235l13 -33zM2212 1458q188 -98 292 -277q103 -179 103 -413q0 -233 -103 -413q-103 -179 -292 -277q-188 -98 -436 -98q-246 0 -428 124q-182 -125 -426 -124q-248 0 -438 98q-189 98 -293 277q-103 179 -103 413q0 233 103 413q103 179 293 277
q189 98 438 98q244 0 426 -124q182 125 428 124q248 0 436 -98zM1309 135q-129 104 -199 266t-70 367t70 367t199 266q-115 63 -250 63q-166 0 -291 -87t-194 -244q-69 -158 -68 -365q0 -207 68 -365q69 -158 194 -244q125 -87 291 -87q135 0 250 63zM1928 159
q126 87 195 244q69 158 68 365q0 207 -68 365q-69 158 -195 244q-126 87 -292 87q-133 0 -250 -61q129 -106 199 -269t70 -366t-70 -366t-199 -269q117 -61 250 -61q166 0 292 87zM1154 1134q-69 -159 -69 -366t69 -366t194 -244q125 86 193 244q69 159 69 366t-69 366
t-193 244q-125 -85 -194 -244zM623 1622l-11 29l643 235l13 -33z" />
    <glyph glyph-name="Oacute_Odieresis.dlig" horiz-adv-x="2695" 
d="M1684 1701q-46 -42 -119 -42q-76 0 -122 42t-46 111q0 70 46 112t122 42q74 0 119 -42q46 -42 47 -112q-1 -69 -47 -111zM2106 1701q-46 -42 -121 -42q-76 0 -121 42t-45 111q0 70 45 112t121 42t121 -42q46 -42 46 -112q0 -69 -46 -111zM2212 1458q188 -98 292 -277
q103 -179 103 -413q0 -233 -103 -413q-103 -179 -292 -277q-188 -98 -436 -98q-246 0 -428 124q-182 -125 -426 -124q-248 0 -438 98q-189 98 -293 277q-103 179 -103 413q0 233 103 413q103 179 293 277q189 98 438 98q244 0 426 -124q182 125 428 124q248 0 436 -98z
M1309 135q-129 104 -199 266t-70 367t70 367t199 266q-115 63 -250 63q-166 0 -291 -87t-194 -244q-69 -158 -68 -365q0 -207 68 -365q69 -158 194 -244q125 -87 291 -87q135 0 250 63zM1928 159q126 87 195 244q69 158 68 365q0 207 -68 365q-69 158 -195 244
q-126 87 -292 87q-133 0 -250 -61q129 -106 199 -269t70 -366t-70 -366t-199 -269q117 -61 250 -61q166 0 292 87zM1154 1134q-69 -159 -69 -366t69 -366t194 -244q125 86 193 244q69 159 69 366t-69 366t-193 244q-125 -85 -194 -244zM623 1622l-11 29l643 235l13 -33z" />
    <glyph glyph-name="Ocircumflex_O.dlig" horiz-adv-x="2695" 
d="M535 1630l-15 17l402 325l401 -325l-14 -17l-387 285zM2212 1458q188 -98 292 -277q103 -179 103 -413q0 -233 -103 -413q-103 -179 -292 -277q-188 -98 -436 -98q-246 0 -428 124q-182 -125 -426 -124q-248 0 -438 98q-189 98 -293 277q-103 179 -103 413q0 233 103 413
q103 179 293 277q189 98 438 98q244 0 426 -124q182 125 428 124q248 0 436 -98zM1309 135q-129 104 -199 266t-70 367t70 367t199 266q-115 63 -250 63q-166 0 -291 -87t-194 -244q-69 -158 -68 -365q0 -207 68 -365q69 -158 194 -244q125 -87 291 -87q135 0 250 63z
M1928 159q126 87 195 244q69 158 68 365q0 207 -68 365q-69 158 -195 244q-126 87 -292 87q-133 0 -250 -61q129 -106 199 -269t70 -366t-70 -366t-199 -269q117 -61 250 -61q166 0 292 87zM1154 1134q-69 -159 -69 -366t69 -366t194 -244q125 86 193 244q69 159 69 366
t-69 366t-193 244q-125 -85 -194 -244z" />
    <glyph glyph-name="Odieresis_O.dlig" horiz-adv-x="2695" 
d="M830.5 1701q-46.5 -42 -119.5 -42q-76 0 -122 42t-46 111q0 70 46 112t122 42q74 0 120 -42t46 -112q0 -69 -46.5 -111zM1252 1701q-46 -42 -122 -42t-120.5 42t-44.5 111q0 70 45 112t120 42q76 0 122 -42t46 -112q0 -69 -46 -111zM2211.5 1458q188.5 -98 292 -277.5
t103.5 -412.5t-103.5 -412.5t-292 -277.5t-435.5 -98q-246 0 -428 124q-182 -125 -426 -124q-248 0 -437.5 98t-293 277.5t-103.5 412.5t103.5 412.5t293 277.5t437.5 98q244 0 426 -124q182 125 428 124q247 0 435.5 -98zM1309 135q-129 104 -199 266t-70 367t70 366.5
t199 266.5q-115 63 -250 63q-166 0 -291 -87t-193.5 -244.5t-68.5 -364.5t68.5 -364.5t193.5 -244.5t291 -87q135 0 250 63zM1928 159q126 87 194.5 244.5t68.5 364.5t-68.5 364.5t-194.5 244.5t-292 87q-133 0 -250 -61q129 -106 199 -269t70 -366t-69.5 -365.5
t-199.5 -269.5q117 -61 250 -61q166 0 292 87zM1154 1133.5q-69 -158.5 -69 -365.5t69 -365.5t194 -244.5q125 86 193.5 244.5t68.5 365.5t-68.5 365.5t-193.5 244.5q-125 -86 -194 -244.5z" />
    <glyph glyph-name="Odieresis_Odieresis.dlig" horiz-adv-x="2695" 
d="M1684 1701q-46 -42 -119 -42q-76 0 -122 42t-46 111q0 70 46 112t122 42q74 0 119 -42q46 -42 47 -112q-1 -69 -47 -111zM2106 1701q-46 -42 -121 -42q-76 0 -121 42t-45 111q0 70 45 112t121 42t121 -42q46 -42 46 -112q0 -69 -46 -111zM2212 1458q188 -98 292 -277
q103 -179 103 -413q0 -233 -103 -413q-103 -179 -292 -277q-188 -98 -436 -98q-246 0 -428 124q-182 -125 -426 -124q-248 0 -438 98q-189 98 -293 277q-103 179 -103 413q0 233 103 413q103 179 293 277q189 98 438 98q244 0 426 -124q182 125 428 124q248 0 436 -98z
M1309 135q-129 104 -199 266t-70 367t70 367t199 266q-115 63 -250 63q-166 0 -291 -87t-194 -244q-69 -158 -68 -365q0 -207 68 -365q69 -158 194 -244q125 -87 291 -87q135 0 250 63zM1928 159q126 87 195 244q69 158 68 365q0 207 -68 365q-69 158 -195 244
q-126 87 -292 87q-133 0 -250 -61q129 -106 199 -269t70 -366t-70 -366t-199 -269q117 -61 250 -61q166 0 292 87zM1154 1134q-69 -159 -69 -366t69 -366t194 -244q125 86 193 244q69 159 69 366t-69 366t-193 244q-125 -85 -194 -244zM830 1701q-46 -42 -119 -42
q-76 0 -122 42t-46 111q0 70 46 112t122 42q74 0 119 -42q46 -42 47 -112q-1 -69 -47 -111zM1252 1701q-46 -42 -122 -42t-120 42q-45 42 -45 111q0 70 45 112t120 42q76 0 122 -42t46 -112q0 -69 -46 -111z" />
    <glyph glyph-name="Ohungarumlaut_O.dlig" horiz-adv-x="2695" 
d="M1122 2040l21 -29l-565 -391l-17 25zM1571 2040l20 -29l-565 -391l-16 25zM2211.5 1458q188.5 -98 292 -277.5t103.5 -412.5t-103.5 -412.5t-292 -277.5t-435.5 -98q-246 0 -428 124q-182 -125 -426 -124q-248 0 -437.5 98t-293 277.5t-103.5 412.5t103.5 412.5
t293 277.5t437.5 98q244 0 426 -124q182 125 428 124q247 0 435.5 -98zM1309 135q-129 104 -199 266t-70 367t70 366.5t199 266.5q-115 63 -250 63q-166 0 -291 -87t-193.5 -244.5t-68.5 -364.5t68.5 -364.5t193.5 -244.5t291 -87q135 0 250 63zM1928 159
q126 87 194.5 244.5t68.5 364.5t-68.5 364.5t-194.5 244.5t-292 87q-133 0 -250 -61q129 -106 199 -269t70 -366t-69.5 -365.5t-199.5 -269.5q117 -61 250 -61q166 0 292 87zM1154 1133.5q-69 -158.5 -69 -365.5t69 -365.5t194 -244.5q125 86 193.5 244.5t68.5 365.5
t-68.5 365.5t-193.5 244.5q-125 -86 -194 -244.5z" />
    <glyph glyph-name="Ohungarumlaut_Oacute.dlig" horiz-adv-x="2695" 
d="M1477 1622l-11 29l643 235l13 -33zM2212 1458q188 -98 292 -277q103 -179 103 -413q0 -233 -103 -413q-103 -179 -292 -277q-188 -98 -436 -98q-246 0 -428 124q-182 -125 -426 -124q-248 0 -438 98q-189 98 -293 277q-103 179 -103 413q0 233 103 413q103 179 293 277
q189 98 438 98q244 0 426 -124q182 125 428 124q248 0 436 -98zM1309 135q-129 104 -199 266t-70 367t70 367t199 266q-115 63 -250 63q-166 0 -291 -87t-194 -244q-69 -158 -68 -365q0 -207 68 -365q69 -158 194 -244q125 -87 291 -87q135 0 250 63zM1928 159
q126 87 195 244q69 158 68 365q0 207 -68 365q-69 158 -195 244q-126 87 -292 87q-133 0 -250 -61q129 -106 199 -269t70 -366t-70 -366t-199 -269q117 -61 250 -61q166 0 292 87zM1154 1134q-69 -159 -69 -366t69 -366t194 -244q125 86 193 244q69 159 69 366t-69 366
t-193 244q-125 -85 -194 -244zM1122 2040l21 -29l-565 -391l-17 25zM1571 2040l20 -29l-565 -391l-16 25z" />
    <glyph glyph-name="Ohungarumlaut_Ohungarumlaut.dlig" horiz-adv-x="2695" 
d="M1976 2040l21 -29l-565 -391l-17 25zM2425 2040l20 -29l-565 -391l-16 25zM2212 1458q188 -98 292 -277q103 -179 103 -413q0 -233 -103 -413q-103 -179 -292 -277q-188 -98 -436 -98q-246 0 -428 124q-182 -125 -426 -124q-248 0 -438 98q-189 98 -293 277
q-103 179 -103 413q0 233 103 413q103 179 293 277q189 98 438 98q244 0 426 -124q182 125 428 124q248 0 436 -98zM1309 135q-129 104 -199 266t-70 367t70 367t199 266q-115 63 -250 63q-166 0 -291 -87t-194 -244q-69 -158 -68 -365q0 -207 68 -365q69 -158 194 -244
q125 -87 291 -87q135 0 250 63zM1928 159q126 87 195 244q69 158 68 365q0 207 -68 365q-69 158 -195 244q-126 87 -292 87q-133 0 -250 -61q129 -106 199 -269t70 -366t-70 -366t-199 -269q117 -61 250 -61q166 0 292 87zM1154 1134q-69 -159 -69 -366t69 -366t194 -244
q125 86 193 244q69 159 69 366t-69 366t-193 244q-125 -85 -194 -244zM1122 2040l21 -29l-565 -391l-17 25zM1571 2040l20 -29l-565 -391l-16 25z" />
    <glyph glyph-name="Otilde_O.dlig" horiz-adv-x="2695" 
d="M621.5 1825q-48.5 -43 -91.5 -125l-22 10q86 190 244 191q55 0 96 -25t92 -72q45 -43 80 -64.5t78 -21.5q74 0 122 42t91 122l22 -10q-84 -188 -243 -189q-55 0 -96.5 25t-94.5 74q-47 43 -81 64.5t-77 21.5q-71 0 -119.5 -43zM2211.5 1458q188.5 -98 292 -277.5
t103.5 -412.5t-103.5 -412.5t-292 -277.5t-435.5 -98q-246 0 -428 124q-182 -125 -426 -124q-248 0 -437.5 98t-293 277.5t-103.5 412.5t103.5 412.5t293 277.5t437.5 98q244 0 426 -124q182 125 428 124q247 0 435.5 -98zM1309 135q-129 104 -199 266t-70 367t70 366.5
t199 266.5q-115 63 -250 63q-166 0 -291 -87t-193.5 -244.5t-68.5 -364.5t68.5 -364.5t193.5 -244.5t291 -87q135 0 250 63zM1928 159q126 87 194.5 244.5t68.5 364.5t-68.5 364.5t-194.5 244.5t-292 87q-133 0 -250 -61q129 -106 199 -269t70 -366t-69.5 -365.5
t-199.5 -269.5q117 -61 250 -61q166 0 292 87zM1154 1133.5q-69 -158.5 -69 -365.5t69 -365.5t194 -244.5q125 86 193.5 244.5t68.5 365.5t-68.5 365.5t-193.5 244.5q-125 -86 -194 -244.5z" />
    <glyph glyph-name="Otilde_Otilde.dlig" horiz-adv-x="2695" 
d="M1476 1825q-48 -43 -92 -125l-22 10q86 190 244 191q55 0 96 -25t92 -72q45 -43 80 -64q35 -22 78 -22q74 0 122 42t91 122l22 -10q-84 -188 -243 -189q-55 0 -97 25q-41 25 -94 74q-47 43 -81 64q-34 22 -77 22q-71 0 -119 -43zM2212 1458q188 -98 292 -277
q103 -179 103 -413q0 -233 -103 -413q-103 -179 -292 -277q-188 -98 -436 -98q-246 0 -428 124q-182 -125 -426 -124q-248 0 -438 98q-189 98 -293 277q-103 179 -103 413q0 233 103 413q103 179 293 277q189 98 438 98q244 0 426 -124q182 125 428 124q248 0 436 -98z
M1309 135q-129 104 -199 266t-70 367t70 367t199 266q-115 63 -250 63q-166 0 -291 -87t-194 -244q-69 -158 -68 -365q0 -207 68 -365q69 -158 194 -244q125 -87 291 -87q135 0 250 63zM1928 159q126 87 195 244q69 158 68 365q0 207 -68 365q-69 158 -195 244
q-126 87 -292 87q-133 0 -250 -61q129 -106 199 -269t70 -366t-70 -366t-199 -269q117 -61 250 -61q166 0 292 87zM1154 1134q-69 -159 -69 -366t69 -366t194 -244q125 86 193 244q69 159 69 366t-69 366t-193 244q-125 -85 -194 -244zM622 1825q-48 -43 -92 -125l-22 10
q86 190 244 191q55 0 96 -25t92 -72q45 -43 80 -64q35 -22 78 -22q74 0 122 42t91 122l22 -10q-84 -188 -243 -189q-55 0 -97 25q-41 25 -94 74q-47 43 -81 64q-34 22 -77 22q-71 0 -119 -43z" />
    <glyph glyph-name="R_A.dlig" horiz-adv-x="2746" 
d="M2355 0l-174 375h-686l504 1181h31l729 -1556h-404zM1228 887.5q-93 -99.5 -257 -146.5l495 -741h-446l-453 705h-4v-705h-393v1536h518q188 0 331.5 -51t222.5 -145.5t79 -217.5q0 -135 -93 -234.5zM629 737q125 0 200.5 105.5t75.5 279.5q0 172 -75.5 276.5
t-200.5 104.5h-66v-766h66zM2165 408l-320 686l-293 -686h613z" />
    <glyph glyph-name="R_A_A.dlig" horiz-adv-x="3977" 
d="M2030 1556l729 -1556h-404l-174 375h-686l504 1181h31zM3584 0l-174 375h-686l506 1181h30l730 -1556h-406zM1228 887.5q-93 -99.5 -257 -146.5l495 -741h-446l-453 705h-4v-705h-393v1536h518q188 0 331.5 -51t222.5 -145.5t79 -217.5q0 -135 -93 -234.5zM629 737
q125 0 200.5 105.5t75.5 279.5q0 172 -75.5 276.5t-200.5 104.5h-66v-766h66zM3396 408l-320 686l-295 -686h615zM2165 408l-320 686l-293 -686h613z" />
    <glyph glyph-name="R_A_Aring.dlig" horiz-adv-x="3977" 
d="M3405 1680q-60 -58 -161 -58q-98 0 -159 58q-60 58 -60 153q0 94 60 153q60 58 159 58q100 0 161 -58q60 -58 60 -153t-60 -153zM3115 1703q49 -48 129 -48q82 0 131 48t49 130t-49 130t-131 48q-80 0 -129 -48t-49 -130t49 -130zM2030 1556l729 -1556h-404l-174 375
h-686l504 1181h31zM3584 0l-174 375h-686l506 1181h30l730 -1556h-406zM1228 888q-93 -99 -257 -147l495 -741h-446l-453 705h-4v-705h-393v1536h518q188 0 332 -51q143 -51 222 -146q79 -94 79 -217q0 -135 -93 -234zM629 737q125 0 200 106q76 105 76 279q0 172 -76 277
q-76 104 -200 104h-66v-766h66zM3396 408l-320 686l-295 -686h615zM2165 408l-320 686l-293 -686h613z" />
    <glyph glyph-name="R_A_Atilde.dlig" horiz-adv-x="3977" 
d="M2946 1825q-48 -43 -91 -125l-23 10q86 190 244 191q55 0 96 -25t93 -72q45 -43 79 -64q35 -22 78 -22q74 0 122 42t91 122l23 -10q-84 -188 -244 -189q-55 0 -96 25t-94 74q-47 43 -81 64q-34 22 -77 22q-72 0 -120 -43zM2030 1556l729 -1556h-404l-174 375h-686
l504 1181h31zM3584 0l-174 375h-686l506 1181h30l730 -1556h-406zM1228 888q-93 -99 -257 -147l495 -741h-446l-453 705h-4v-705h-393v1536h518q188 0 332 -51q143 -51 222 -146q79 -94 79 -217q0 -135 -93 -234zM629 737q125 0 200 106q76 105 76 279q0 172 -76 277
q-76 104 -200 104h-66v-766h66zM3396 408l-320 686l-295 -686h615zM2165 408l-320 686l-293 -686h613z" />
    <glyph glyph-name="R_Aacute.dlig" horiz-adv-x="2746" 
d="M1718 1622l-10 29l643 235l12 -33zM2355 0l-174 375h-686l504 1181h31l729 -1556h-404zM1228 887.5q-93 -99.5 -257 -146.5l495 -741h-446l-453 705h-4v-705h-393v1536h518q188 0 331.5 -51t222.5 -145.5t79 -217.5q0 -135 -93 -234.5zM629 737q125 0 200.5 105.5
t75.5 279.5q0 172 -75.5 276.5t-200.5 104.5h-66v-766h66zM2165 408l-320 686l-293 -686h613z" />
    <glyph glyph-name="R_Abreve.dlig" horiz-adv-x="2746" 
d="M2252 1734q-110 -75 -237 -75t-236 75q-110 75 -161 197l22 11q59 -111 163 -179q103 -68 212 -67q111 0 215 67q104 68 162 179l21 -11q-51 -122 -161 -197zM2355 0l-174 375h-686l504 1181h31l729 -1556h-404zM1228 888q-93 -99 -257 -147l495 -741h-446l-453 705h-4
v-705h-393v1536h518q188 0 332 -51q143 -51 222 -146q79 -94 79 -217q0 -135 -93 -234zM629 737q125 0 200 106q76 105 76 279q0 172 -76 277q-76 104 -200 104h-66v-766h66zM2165 408l-320 686l-293 -686h613z" />
    <glyph glyph-name="R_Acircumflex.dlig" horiz-adv-x="2746" 
d="M1630 1630l-14 17l401 325l402 -325l-15 -17l-387 285zM2355 0l-174 375h-686l504 1181h31l729 -1556h-404zM1228 888q-93 -99 -257 -147l495 -741h-446l-453 705h-4v-705h-393v1536h518q188 0 332 -51q143 -51 222 -146q79 -94 79 -217q0 -135 -93 -234zM629 737
q125 0 200 106q76 105 76 279q0 172 -76 277q-76 104 -200 104h-66v-766h66zM2165 408l-320 686l-293 -686h613z" />
    <glyph glyph-name="R_Adieresis.dlig" horiz-adv-x="2746" 
d="M1926 1701q-46 -42 -120 -42q-76 0 -122 42t-46 111q0 70 46 112t122 42q74 0 120 -42t46 -112q0 -69 -46 -111zM2348 1701q-46 -42 -122 -42t-121 42t-45 111q0 70 45 112t121 42t122 -42t46 -112q0 -69 -46 -111zM2355 0l-174 375h-686l504 1181h31l729 -1556h-404z
M1228 888q-93 -99 -257 -147l495 -741h-446l-453 705h-4v-705h-393v1536h518q188 0 332 -51q143 -51 222 -146q79 -94 79 -217q0 -135 -93 -234zM629 737q125 0 200 106q76 105 76 279q0 172 -76 277q-76 104 -200 104h-66v-766h66zM2165 408l-320 686l-293 -686h613z" />
    <glyph glyph-name="R_Adieresis_Adieresis.dlig" horiz-adv-x="3977" 
d="M1684.5 1702q-46.5 43 -46.5 113q0 68 46.5 110.5t121.5 42.5q74 0 120 -43t46 -110q0 -70 -46 -113t-120 -43q-75 0 -121.5 43zM2105 1702q-45 43 -45 113q0 68 46 110.5t120 42.5q76 0 122 -43t46 -110q0 -70 -46 -113t-122 -43t-121 43zM2913 1702q-46 43 -46 113
q0 68 46 110.5t122 42.5q74 0 120 -43t46 -110q0 -70 -45 -113t-121 -43t-122 43zM3336 1702q-45 43 -45 113q0 68 46 110.5t120 42.5t120 -43t46 -110q0 -70 -46 -113t-120 -43q-76 0 -121 43zM2030 1556l729 -1556h-404l-174 375h-686l504 1181h31zM3584 0l-174 375h-686
l506 1181h30l730 -1556h-406zM1228 887.5q-93 -99.5 -257 -146.5l495 -741h-446l-453 705h-4v-705h-393v1536h518q188 0 331.5 -51t222.5 -145.5t79 -217.5q0 -135 -93 -234.5zM629 737q125 0 200.5 105.5t75.5 279.5q0 172 -75.5 276.5t-200.5 104.5h-66v-766h66zM3396 408
l-320 686l-295 -686h615zM2165 408l-320 686l-293 -686h613z" />
    <glyph glyph-name="R_Agrave.dlig" horiz-adv-x="2746" 
d="M2318 1622l-647 231l12 33l646 -235zM2355 0l-174 375h-686l504 1181h31l729 -1556h-404zM1228 888q-93 -99 -257 -147l495 -741h-446l-453 705h-4v-705h-393v1536h518q188 0 332 -51q143 -51 222 -146q79 -94 79 -217q0 -135 -93 -234zM629 737q125 0 200 106
q76 105 76 279q0 172 -76 277q-76 104 -200 104h-66v-766h66zM2165 408l-320 686l-293 -686h613z" />
    <glyph glyph-name="R_Amacron.dlig" horiz-adv-x="2746" 
d="M1683 1659v33h668v-33h-668zM2355 0l-174 375h-686l504 1181h31l729 -1556h-404zM1228 888q-93 -99 -257 -147l495 -741h-446l-453 705h-4v-705h-393v1536h518q188 0 332 -51q143 -51 222 -146q79 -94 79 -217q0 -135 -93 -234zM629 737q125 0 200 106q76 105 76 279
q0 172 -76 277q-76 104 -200 104h-66v-766h66zM2165 408l-320 686l-293 -686h613z" />
    <glyph glyph-name="R_Aogonek.dlig" horiz-adv-x="2746" 
d="M2777 -416q-45 -25 -109.5 -40t-121.5 -15q-100 0 -162 48t-62 126q0 86 100.5 165t278.5 132h-346l-174 375h-686l504 1181h31l729 -1556q-82 -55 -133.5 -129t-51.5 -139q0 -63 34 -101.5t89 -38.5q41 0 72 13zM1228 887.5q-93 -99.5 -257 -146.5l495 -741h-446
l-453 705h-4v-705h-393v1536h518q188 0 331.5 -51t222.5 -145.5t79 -217.5q0 -135 -93 -234.5zM629 737q125 0 200.5 105.5t75.5 279.5q0 172 -75.5 276.5t-200.5 104.5h-66v-766h66zM2165 408l-320 686l-293 -686h613z" />
    <glyph glyph-name="R_Aring.dlig" horiz-adv-x="2746" 
d="M2176 1680q-60 -58 -161 -58q-98 0 -158 58t-61 153q0 94 61 153q60 58 158 58q100 0 161 -58q60 -58 60 -153t-60 -153zM1886 1703q49 -48 129 -48q82 0 131 48t49 130t-49 130t-131 48q-80 0 -129 -48t-49 -130t49 -130zM2355 0l-174 375h-686l504 1181h31l729 -1556
h-404zM1228 888q-93 -99 -257 -147l495 -741h-446l-453 705h-4v-705h-393v1536h518q188 0 332 -51q143 -51 222 -146q79 -94 79 -217q0 -135 -93 -234zM629 737q125 0 200 106q76 105 76 279q0 172 -76 277q-76 104 -200 104h-66v-766h66zM2165 408l-320 686l-293 -686h613z
" />
    <glyph glyph-name="R_Atilde.dlig" horiz-adv-x="2746" 
d="M1717 1825q-48 -43 -91 -125l-22 10q86 190 243 191q55 0 97 -25q41 -25 92 -72q45 -43 80 -64q35 -22 77 -22q74 0 122 42t91 122l23 -10q-84 -188 -244 -189q-55 0 -96 25t-94 74q-47 43 -81 64q-34 22 -77 22q-72 0 -120 -43zM2355 0l-174 375h-686l504 1181h31
l729 -1556h-404zM1228 888q-93 -99 -257 -147l495 -741h-446l-453 705h-4v-705h-393v1536h518q188 0 332 -51q143 -51 222 -146q79 -94 79 -217q0 -135 -93 -234zM629 737q125 0 200 106q76 105 76 279q0 172 -76 277q-76 104 -200 104h-66v-766h66zM2165 408l-320 686
l-293 -686h613z" />
    <glyph glyph-name="Rcaron_Aacute.dlig" horiz-adv-x="2746" 
d="M1075 1972l15 -16l-402 -326l-401 326l14 16l387 -284zM2355 0l-174 375h-686l504 1181h31l729 -1556h-404zM1228 888q-93 -99 -257 -147l495 -741h-446l-453 705h-4v-705h-393v1536h518q188 0 332 -51q143 -51 222 -146q79 -94 79 -217q0 -135 -93 -234zM629 737
q125 0 200 106q76 105 76 279q0 172 -76 277q-76 104 -200 104h-66v-766h66zM2165 408l-320 686l-293 -686h613zM1718 1622l-10 29l643 235l12 -33z" />
    <glyph glyph-name="T_T.dlig" horiz-adv-x="2490" 
d="M2476 1503h-494v-1503h-393v1503h-690v-1503h-393v1503h-494v33h2464v-33z" />
    <glyph glyph-name="T_Y.dlig" horiz-adv-x="2590" 
d="M2083 684v-684h-393v657l-506 846h-285v-1503h-393v1503h-494v33h1590l464 -805l461 805h43z" />
    <glyph glyph-name="T_Y.dlig.ss03" horiz-adv-x="2531" 
d="M2570 1536l-870 -1536h-43l205 360l-678 1143h-285v-1503h-393v1503h-494v33h1590l464 -813l461 813h43z" />
    <glyph glyph-name="T_Yacute.dlig" horiz-adv-x="2590" 
d="M1694 1622l-11 29l644 235l12 -33zM2083 684v-684h-393v657l-506 846h-285v-1503h-393v1503h-494v33h1590l464 -805l461 805h43z" />
    <glyph glyph-name="T_Yacute.dlig.ss03" horiz-adv-x="2531" 
d="M1733 1622l-11 29l643 235l13 -33zM2570 1536l-870 -1536h-43l205 360l-678 1143h-285v-1503h-393v1503h-494v33h1590l464 -813l461 813h43z" />
    <glyph glyph-name="T_h.dlig" horiz-adv-x="2519" 
d="M2298 1041.5q94 -95.5 94 -253.5v-788h-381v905q0 66 -30.5 107t-82.5 41q-59 0 -116.5 -48.5t-91.5 -127.5v-877h-381v1503h-410v-1503h-393v1503h-494v33h1678v-584q51 84 147 134.5t211 50.5q156 0 250 -95.5z" />
    <glyph glyph-name="Tcaron_T.dlig" horiz-adv-x="2490" 
d="M1092 1972l14 -16l-401 -326l-402 326l14 16l388 -284zM2476 1503h-494v-1503h-393v1503h-690v-1503h-393v1503h-494v33h2464v-33z" />
    <glyph glyph-name="U_N.dlig" horiz-adv-x="2750" 
d="M2580 1536v-1556h-32l-1157 1060v-546q0 -236 -142.5 -375t-398.5 -139q-201 0 -358.5 72.5t-246.5 205.5t-89 305v973h393v-1053q0 -133 45 -234.5t128 -156.5t191 -55q129 0 228.5 55t154 156.5t54.5 234.5v1073h32l1158 -1060v1040h40z" />
    <glyph glyph-name="U_Nacute.dlig" horiz-adv-x="2750" 
d="M1688 1622l-11 29l643 235l13 -33zM2580 1536v-1556h-32l-1157 1060v-546q0 -236 -143 -375q-142 -139 -398 -139q-201 0 -358 72q-158 73 -247 206t-89 305v973h393v-1053q0 -133 45 -234t128 -157q83 -55 191 -55q129 0 229 55q99 55 153 157q54 101 55 234v1073h32
l1158 -1060v1040h40z" />
    <glyph glyph-name="U_Ncaron.dlig" horiz-adv-x="2750" 
d="M2374 1972l14 -16l-401 -326l-402 326l14 16l388 -284zM2580 1536v-1556h-32l-1157 1060v-546q0 -236 -142.5 -375t-398.5 -139q-201 0 -358.5 72.5t-246.5 205.5t-89 305v973h393v-1053q0 -133 45 -234.5t128 -156.5t191 -55q129 0 228.5 55t154 156.5t54.5 234.5v1073
h32l1158 -1060v1040h40z" />
    <glyph glyph-name="U_uni0145.dlig" horiz-adv-x="2750" 
d="M2085 -140.5q47 -52.5 47 -135.5q0 -100 -69.5 -181.5t-184.5 -115.5l-12 26q88 33 147.5 96.5t69.5 137.5q-41 -51 -135 -52q-66 0 -107 38t-41 100q0 63 44 101t116 38q78 0 125 -52.5zM2580 1536v-1556h-32l-1157 1060v-546q0 -236 -142.5 -375t-398.5 -139
q-201 0 -358.5 72.5t-246.5 205.5t-89 305v973h393v-1053q0 -133 45 -234.5t128 -156.5t191 -55q129 0 228.5 55t154 156.5t54.5 234.5v1073h32l1158 -1060v1040h40z" />
    <glyph glyph-name="U_Ntilde.dlig" horiz-adv-x="2750" 
d="M1686.5 1825q-48.5 -43 -91.5 -125l-22 10q86 190 244 191q55 0 96 -25t92 -72q45 -43 80 -64.5t78 -21.5q74 0 122 42t91 122l22 -10q-84 -188 -244 -189q-55 0 -96 25t-94 74q-47 43 -81 64.5t-77 21.5q-71 0 -119.5 -43zM2580 1536v-1556h-32l-1157 1060v-546
q0 -236 -142.5 -375t-398.5 -139q-201 0 -358.5 72.5t-246.5 205.5t-89 305v973h393v-1053q0 -133 45 -234.5t128 -156.5t191 -55q129 0 228.5 55t154 156.5t54.5 234.5v1073h32l1158 -1060v1040h40z" />
    <glyph glyph-name="Uacute_N.dlig" horiz-adv-x="2750" 
d="M604 1622l-10 29l643 237l12 -33zM2580 1536v-1556h-32l-1157 1060v-546q0 -236 -142.5 -375t-398.5 -139q-201 0 -358.5 72.5t-246.5 205.5t-89 305v973h393v-1053q0 -133 45 -234.5t128 -156.5t191 -55q129 0 228.5 55t154 156.5t54.5 234.5v1073h32l1158 -1060v1040
h40z" />
    <glyph glyph-name="Uacute_Ncaron.dlig" horiz-adv-x="2750" 
d="M606 1622l-10 29l643 235l12 -33zM2580 1536v-1556h-32l-1157 1060v-546q0 -236 -143 -375q-142 -139 -398 -139q-201 0 -358 72q-158 73 -247 206t-89 305v973h393v-1053q0 -133 45 -234t128 -157q83 -55 191 -55q129 0 229 55q99 55 153 157q54 101 55 234v1073h32
l1158 -1060v1040h40zM2374 1972l14 -16l-401 -326l-402 326l14 16l388 -284z" />
    <glyph glyph-name="Uacute_Ntilde.dlig" horiz-adv-x="2750" 
d="M606 1622l-10 29l643 235l12 -33zM2580 1536v-1556h-32l-1157 1060v-546q0 -236 -143 -375q-142 -139 -398 -139q-201 0 -358 72q-158 73 -247 206t-89 305v973h393v-1053q0 -133 45 -234t128 -157q83 -55 191 -55q129 0 229 55q99 55 153 157q54 101 55 234v1073h32
l1158 -1060v1040h40zM1687 1825q-48 -43 -92 -125l-22 10q86 190 244 191q55 0 96 -25t92 -72q45 -43 80 -64q35 -22 78 -22q74 0 122 42t91 122l22 -10q-84 -188 -244 -189q-55 0 -96 25t-94 74q-47 43 -81 64q-34 22 -77 22q-71 0 -119 -43z" />
    <glyph glyph-name="Udieresis_N.dlig" horiz-adv-x="2750" 
d="M572 1702q-46 43 -46 113q0 68 46 110.5t122 42.5q74 0 119 -43t45 -110q0 -70 -45 -113t-119 -43q-76 0 -122 43zM993 1702q-45 43 -45 113q0 68 46 110.5t120 42.5q76 0 122 -43t46 -110q0 -70 -46 -113t-122 -43t-121 43zM2580 1536v-1556h-32l-1157 1060v-546
q0 -236 -142.5 -375t-398.5 -139q-201 0 -358.5 72.5t-246.5 205.5t-89 305v973h393v-1053q0 -133 45 -234.5t128 -156.5t191 -55q129 0 228.5 55t154 156.5t54.5 234.5v1073h32l1158 -1060v1040h40z" />
    <glyph glyph-name="Uhungarumlaut_Ntilde.dlig" horiz-adv-x="2750" 
d="M1104 2040l20 -29l-565 -391l-16 25zM1552 2040l21 -29l-565 -391l-17 25zM2580 1536v-1556h-32l-1157 1060v-546q0 -236 -143 -375q-142 -139 -398 -139q-201 0 -358 72q-158 73 -247 206t-89 305v973h393v-1053q0 -133 45 -234t128 -157q83 -55 191 -55q129 0 229 55
q99 55 153 157q54 101 55 234v1073h32l1158 -1060v1040h40zM1687 1825q-48 -43 -92 -125l-22 10q86 190 244 191q55 0 96 -25t92 -72q45 -43 80 -64q35 -22 78 -22q74 0 122 42t91 122l22 -10q-84 -188 -244 -189q-55 0 -96 25t-94 74q-47 43 -81 64q-34 22 -77 22
q-71 0 -119 -43z" />
    <glyph glyph-name="Umacron_N.dlig" horiz-adv-x="2750" 
d="M1237 1659h-666v33h666v-33zM2580 1536v-1556h-32l-1157 1060v-546q0 -236 -142.5 -375t-398.5 -139q-201 0 -358.5 72.5t-246.5 205.5t-89 305v973h393v-1053q0 -133 45 -234.5t128 -156.5t191 -55q129 0 228.5 55t154 156.5t54.5 234.5v1073h32l1158 -1060v1040h40z
" />
    <glyph glyph-name="Umacron_uni0145.dlig" horiz-adv-x="2750" 
d="M571 1659v33h668v-33h-668zM2580 1536v-1556h-32l-1157 1060v-546q0 -236 -143 -375q-142 -139 -398 -139q-201 0 -358 72q-158 73 -247 206t-89 305v973h393v-1053q0 -133 45 -234t128 -157q83 -55 191 -55q129 0 229 55q99 55 153 157q54 101 55 234v1073h32
l1158 -1060v1040h40zM2085 -140q47 -52 47 -136q0 -100 -70 -182q-70 -81 -184 -115l-12 26q88 33 147 96t70 138q-41 -51 -135 -52q-66 0 -107 38t-41 100q0 63 44 101t116 38q78 0 125 -52z" />
    <glyph glyph-name="Uring_N.dlig" horiz-adv-x="2750" 
d="M744.5 1680.5q-60.5 58.5 -60.5 152.5q0 96 60.5 154.5t158.5 58.5q100 0 160.5 -58.5t60.5 -154.5q0 -94 -60 -152.5t-161 -58.5q-98 0 -158.5 58.5zM774 1964q-49 -49 -49 -131q0 -80 49 -129t129 -49q82 0 131 49t49 129q0 82 -49 131t-131 49q-80 0 -129 -49z
M2580 1536v-1556h-32l-1157 1060v-546q0 -236 -142.5 -375t-398.5 -139q-201 0 -358.5 72.5t-246.5 205.5t-89 305v973h393v-1053q0 -133 45 -234.5t128 -156.5t191 -55q129 0 228.5 55t154 156.5t54.5 234.5v1073h32l1158 -1060v1040h40z" />
    <glyph glyph-name="f_b.dlig" horiz-adv-x="2297" 
d="M588 1116h293v-33h-293v-1083h-381v1083h-195v33h195v109q0 117 53 206t149.5 138t221.5 49q66 0 133 -18.5t115 -49.5l-9 -18q-20 10 -48.5 18.5t-53.5 8.5q-82 0 -131 -70t-49 -186v-187zM1991.5 1065q109.5 -72 170 -203t60.5 -303t-60.5 -303t-170 -203.5
t-252.5 -72.5q-113 0 -199 61t-115 160l-20 -201h-340v1597h381v-630q41 78 120 124t173 46q143 0 252.5 -72zM1766.5 196.5q56.5 137.5 56.5 362.5q0 223 -56.5 360.5t-146.5 137.5q-53 0 -100 -48t-74 -128v-645q23 -80 71 -128.5t103 -48.5q90 0 146.5 137.5z" />
    <glyph glyph-name="f_b.dlig.salt" horiz-adv-x="2297" 
d="M588 1116h293v-33h-293v-1083h-381v1083h-195v33h195v109q0 117 53 206t149.5 138t221.5 49q66 0 133 -18.5t115 -49.5l-9 -18q-20 10 -48.5 18.5t-53.5 8.5q-82 0 -131 -70t-49 -186v-187zM1991.5 1065q109.5 -72 170 -203t60.5 -303t-60.5 -303t-170 -203.5
t-252.5 -72.5q-113 0 -199 61t-115 160l-340 -221h-20v1617h381v-630q41 78 120 124t173 46q143 0 252.5 -72zM1766.5 196.5q56.5 137.5 56.5 362.5q0 223 -56.5 360.5t-146.5 137.5q-53 0 -100 -48t-74 -128v-645q23 -80 71 -128.5t103 -48.5q90 0 146.5 137.5z" />
    </font>
</defs>
</svg>
