<?xml version="1.0" standalone="no"?>
<!DOCTYPE svg PUBLIC "-//W3C//DTD SVG 1.1//EN" "http://www.w3.org/Graphics/SVG/1.1/DTD/svg11.dtd" >
<svg xmlns="http://www.w3.org/2000/svg" xmlns:xlink="http://www.w3.org/1999/xlink" version="1.1">
<metadata>
Created by FontForge 20201107 at Fri May 11 09:44:30 2018
 By 
Copyright (c) 2018 by Moritz Kleinsorge &#38; Alberto Romanos. All rights reserved.
</metadata>
<defs>
<font id="Unnamed-bwvivantregular" horiz-adv-x="0" >
  <font-face 
    font-family="bw-vivant-regular"
    font-weight="400"
    font-stretch="normal"
    units-per-em="2048"
    panose-1="0 0 5 0 0 0 0 0 0 0"
    ascent="1597"
    descent="-451"
    x-height="1100"
    cap-height="1536"
    bbox="-1622 -516 5460 2007"
    underline-thickness="0"
    underline-position="0"
    unicode-range="U+000D-FB02"
  />
<missing-glyph horiz-adv-x="2541" 
d="M1694 -6q-14 -14 -35 -14q-27 0 -34 13t-7 34v663l-694 -696q-14 -14 -35 -14q-27 0 -34 13t-7 34v663l-696 -696q-14 -14 -35 -14q-14 0 -24.5 10t-10.5 26q0 20 10 31l701 698h-664q-47 0 -47 39q0 18 14 33l697 701h-670q-18 0 -29.5 10t-11.5 28v3q0 18 11 28t30 10
h758q20 0 33.5 -7t13.5 -34q0 -18 -17 -34l-698 -697h676q16 0 28.5 -12t12.5 -29v-669l694 692q16 16 35 16q37 0 37 -45v-663l696 692q16 16 33 16q14 0 24.5 -11t10.5 -28q0 -16 -13 -28z" />
    <glyph glyph-name="uniFB01" unicode="fi" horiz-adv-x="1368" 
d="M436 1100h361v-33h-361v-1067h-200v1067h-207v33h207v174q0 154 97 249t257 95q53 0 108.5 -15.5t94.5 -41.5l-9 -17q-25 12 -62.5 20.5t-72.5 8.5q-96 0 -154.5 -71.5t-58.5 -192.5v-209zM1010.5 1373q-33.5 32 -33.5 83t33.5 84t87.5 33q55 0 88 -32t33 -85t-33 -84
t-88 -31q-54 0 -87.5 32zM999 1100h201v-1100h-201v1100z" />
    <glyph glyph-name="uniFB02" unicode="fl" horiz-adv-x="1368" 
d="M436 1100h361v-33h-361v-1067h-200v1067h-207v33h207v174q0 154 97 249t257 95q53 0 108.5 -15.5t94.5 -41.5l-9 -17q-25 12 -62.5 20.5t-72.5 8.5q-96 0 -154.5 -71.5t-58.5 -192.5v-209zM1200 1597v-1597h-201v1597h201z" />
    <glyph glyph-name="f_f.liga" unicode="ff" horiz-adv-x="1583" 
d="M1499 1588.5q76 -29.5 123 -77.5l-14 -14q-33 35 -87.5 55.5t-109.5 20.5q-100 0 -161.5 -71.5t-61.5 -192.5v-209h371v-33h-371v-1067h-201v1067h-551v-1067h-200v1067h-207v33h207v174q0 154 97 249t257 95q63 0 128.5 -21.5t112.5 -58.5l-8 -18q-35 25 -83 39t-91 14
q-96 0 -154.5 -71.5t-58.5 -192.5v-209h551v174q0 154 98.5 249t257.5 95q80 0 156 -29.5z" />
    <glyph glyph-name="f_f_i.liga" unicode="ffi" horiz-adv-x="2121" 
d="M1188 1100h362v-33h-362v-1067h-201v1067h-551v-1067h-200v1067h-207v33h207v174q0 154 97 249t257 95q63 0 128.5 -21.5t112.5 -58.5l-8 -18q-35 25 -83 39t-91 14q-96 0 -154.5 -71.5t-58.5 -192.5v-209h551v174q0 154 98.5 249t257.5 95q51 0 107.5 -15.5t95.5 -41.5
l-8 -17q-27 14 -64.5 21.5t-70.5 7.5q-96 0 -155.5 -73t-59.5 -191v-209zM1763.5 1372q-32.5 31 -32.5 84t32.5 85t87.5 32q53 0 87 -33t34 -84t-33.5 -83t-87.5 -32q-55 0 -87.5 31zM1751 1100h201v-1100h-201v1100z" />
    <glyph glyph-name="f_f_l.liga" unicode="ffl" horiz-adv-x="2121" 
d="M1188 1100h362v-33h-362v-1067h-201v1067h-551v-1067h-200v1067h-207v33h207v174q0 154 97 249t257 95q63 0 128.5 -21.5t112.5 -58.5l-8 -18q-35 25 -83 39t-91 14q-96 0 -154.5 -71.5t-58.5 -192.5v-209h551v174q0 154 98.5 249t257.5 95q51 0 107.5 -15.5t95.5 -41.5
l-8 -17q-27 14 -64.5 21.5t-70.5 7.5q-96 0 -155.5 -73t-59.5 -191v-209zM1952 1597v-1597h-201v1597h201z" />
    <glyph glyph-name=".notdef" horiz-adv-x="2541" 
d="M1694 -6q-14 -14 -35 -14q-27 0 -34 13t-7 34v663l-694 -696q-14 -14 -35 -14q-27 0 -34 13t-7 34v663l-696 -696q-14 -14 -35 -14q-14 0 -24.5 10t-10.5 26q0 20 10 31l701 698h-664q-47 0 -47 39q0 18 14 33l697 701h-670q-18 0 -29.5 10t-11.5 28v3q0 18 11 28t30 10
h758q20 0 33.5 -7t13.5 -34q0 -18 -17 -34l-698 -697h676q16 0 28.5 -12t12.5 -29v-669l694 692q16 16 35 16q37 0 37 -45v-663l696 692q16 16 33 16q14 0 24.5 -11t10.5 -28q0 -16 -13 -28z" />
    <glyph glyph-name="glyph1" 
 />
    <glyph glyph-name="uni000D" unicode="&#xd;" horiz-adv-x="542" 
 />
    <glyph glyph-name="space" unicode=" " horiz-adv-x="542" 
 />
    <glyph glyph-name="exclam" unicode="!" horiz-adv-x="544" 
d="M260 389q0 258 -22.5 454.5t-59.5 424.5q-23 117 -22 153q0 59 30.5 97t85.5 38t86 -37.5t31 -97.5q0 -37 -22 -153q-37 -227 -59.5 -424t-22.5 -455h-25zM361.5 13.5q-33.5 -33.5 -89.5 -33.5q-55 0 -90 33.5t-35 86.5q0 55 35 88t90 33t89 -32.5t34 -88.5
q0 -53 -33.5 -86.5z" />
    <glyph glyph-name="quotedbl" unicode="&#x22;" horiz-adv-x="712" 
d="M500 1128l-70 383q-4 16 -4 25q0 37 27 59q27 23 63 23q39 0 65 -24t25 -58q0 -10 -4 -27l-74 -381h-28zM182 1128l-69 383q-4 16 -4 25q0 37 26 59q27 23 64 23q39 0 64 -24q26 -24 26 -58q0 -10 -4 -27l-74 -381h-29z" />
    <glyph glyph-name="numbersign" unicode="#" horiz-adv-x="1429" 
d="M1030 840l-86 -406h309l-6 -33h-311l-84 -401h-41l84 401h-465l-84 -401h-41l84 401h-309l6 33h311l86 406h-309l6 32h309l82 385h41l-82 -385h465l82 385h41l-82 -385h310l-7 -32h-309zM989 840h-465l-86 -406h465z" />
    <glyph glyph-name="dollar" unicode="$" horiz-adv-x="1126" 
d="M975.5 183.5q-60.5 -97.5 -165.5 -149.5t-237 -54v-185h-41v185q-139 6 -260.5 66t-199.5 159l20 22q72 -90 182.5 -143t223.5 -53q147 0 238 87t91 230q0 98 -45 167t-110.5 115t-177.5 105q-121 66 -191 115t-119 128t-49 191q0 174 113.5 278.5t294.5 108.5v185h41
v-185q113 -6 214 -51t173 -121l-17 -18q-66 63 -157.5 101t-180.5 38q-121 0 -196.5 -74.5t-75.5 -193.5q0 -88 43 -152.5t104.5 -106.5t170.5 -101q123 -68 196.5 -120t125.5 -137t52 -208q0 -131 -60.5 -228.5z" />
    <glyph glyph-name="percent" unicode="%" horiz-adv-x="1830" 
d="M1703 194.5q-42 -98.5 -118 -152.5t-174 -54t-174 54t-118 152.5t-42 227.5t42 227.5t118 152.5t174 54t174 -54t118 -152.5t42 -227.5t-42 -227.5zM1280 124q49 -114 131 -114q80 0 130 114t50 298t-50 298t-130 114q-82 0 -131 -113t-49 -299q0 -184 49 -298zM369 0
l1050 1536h43l-1050 -1536h-43zM712 884.5q-42 -98.5 -118 -152.5t-174 -54t-174 54t-118 152.5t-42 227.5t42 227.5t118 152.5t174 54t174 -54t118 -152.5t42 -227.5t-42 -227.5zM289 814q49 -114 131 -114q80 0 130 114t50 298t-50 298t-130 114q-82 0 -131 -113t-49 -299
q0 -184 49 -298z" />
    <glyph glyph-name="ampersand" unicode="&#x26;" horiz-adv-x="1495" 
d="M1225 0l-183 195q-104 -104 -230 -159.5t-263 -55.5q-135 0 -235.5 53t-155 145t-54.5 209q0 131 74 241.5t232 239.5q-76 90 -118 173t-42 171q0 156 113.5 250t302.5 94q109 0 215 -45t172 -118l-15 -19q-68 61 -154.5 98t-170.5 37q-117 0 -187.5 -70.5t-70.5 -181.5
q0 -92 54 -184t163 -207l463 -497q78 117 120.5 264t44.5 313h29q0 -174 -44 -327.5t-126 -278.5l318 -340h-252zM849 116q89 38 165 107l-547 580l-31 33q-90 -86 -133 -169t-43 -184q0 -109 53.5 -202t146.5 -148t208 -55q92 0 181 38z" />
    <glyph glyph-name="quotesingle" unicode="'" horiz-adv-x="397" 
d="M182 1128l-69 383q-4 16 -4 25q0 37 26.5 59.5t63.5 22.5q39 0 64.5 -23.5t25.5 -58.5q0 -10 -4 -27l-74 -381h-29z" />
    <glyph glyph-name="parenleft" unicode="(" horiz-adv-x="518" 
d="M204.5 57q-100.5 301 -100.5 588q0 307 100.5 608t264.5 488h31q-158 -186 -254 -488.5t-96 -607.5q0 -281 96 -583t254 -513h-31q-164 207 -264.5 508z" />
    <glyph glyph-name="parenright" unicode=")" horiz-adv-x="518" 
d="M313.5 1253q100.5 -301 100.5 -608q0 -287 -100.5 -588t-264.5 -508h-31q158 211 254.5 513.5t96.5 582.5q0 305 -96.5 607t-254.5 489h31q164 -187 264.5 -488z" />
    <glyph glyph-name="asterisk" unicode="*" horiz-adv-x="788" 
d="M422 1430l166 -222l-33 -24l-162 229l-162 -229l-32 24l166 222l-265 83l13 39l264 -90l-4 279h41l-4 -279l264 90l12 -39z" />
    <glyph glyph-name="plus" unicode="+" horiz-adv-x="970" 
d="M844 557h-338v-332h-41v332h-338v33h338v332h41v-332h338v-33z" />
    <glyph glyph-name="comma" unicode="," horiz-adv-x="503" 
d="M352 205q39 -51 39 -144q0 -129 -62.5 -242.5t-162.5 -170.5l-14 22q88 57 142 155.5t56 209.5q-39 -55 -114 -55q-57 0 -93.5 37.5t-36.5 101.5q0 61 39 99t101 38q67 0 106 -51z" />
    <glyph glyph-name="hyphen" unicode="-" horiz-adv-x="964" 
d="M141 557v33h682v-33h-682z" />
    <glyph glyph-name="period" unicode="." horiz-adv-x="528" 
d="M364.5 17.5q-38.5 -37.5 -100.5 -37.5q-61 0 -99 37.5t-38 101.5q0 61 38 99t99 38t100 -38t39 -99q0 -64 -38.5 -101.5z" />
    <glyph glyph-name="slash" unicode="/" horiz-adv-x="1048" 
d="M51 -451l903 2192h45l-905 -2192h-43z" />
    <glyph glyph-name="zero" unicode="0" horiz-adv-x="1433" 
d="M1230 355q-73 -179 -205 -277t-306 -98t-307 98t-207 277t-74 413q0 233 74 413q74 179 207 277t307 98t306 -98t205 -277t73 -413t-73 -413zM399 373q45 -172 128 -267q83 -94 192 -94q106 0 188 94t127 267q45 172 45 395t-45 395t-127 267q-82 94 -188 94
q-109 0 -192 -94t-128 -267q-45 -172 -45 -395t45 -395z" />
    <glyph glyph-name="one" unicode="1" horiz-adv-x="972" 
d="M758 1556v-1556h-207v1417l-494 -276l-14 26l686 389h29z" />
    <glyph glyph-name="two" unicode="2" horiz-adv-x="1210" 
d="M1108 33v-33h-1055v20q367 301 583 593t216 526q0 102 -43 186t-119 132t-174 48q-96 0 -197 -45q-100 -45 -178 -121l-16 19q88 90 209 144t256 54q137 0 248 -56t174 -158q63 -101 63 -232q0 -238 -206 -522q-206 -285 -558 -555h797z" />
    <glyph glyph-name="three" unicode="3" horiz-adv-x="1271" 
d="M1020 679q127 -112 127 -278q0 -125 -69 -221t-194 -148q-126 -52 -290 -52q-143 0 -285 56q-141 56 -229 148l18 21q82 -80 194 -127t222 -47q186 0 298 104t112 275q0 115 -56 202q-55 88 -155 137q-100 48 -232 48h-41v32h25q180 0 290 99q110 98 109 260
q0 143 -90 230t-239 87q-94 0 -198 -40q-103 -40 -177 -105l-17 20q84 78 207 127t240 49q147 0 260 -45t175 -126t62 -187q0 -150 -110 -251q-111 -101 -299 -130q215 -26 342 -138z" />
    <glyph glyph-name="four" unicode="4" horiz-adv-x="1323" 
d="M1253 360h-227v-360h-209v360h-772v23l954 1173h27v-1163h227v-33zM817 393v879l-715 -879h715z" />
    <glyph glyph-name="five" unicode="5" horiz-adv-x="1226" 
d="M863 913q124 -61 193 -174t68 -260q0 -147 -71 -261q-72 -114 -202 -176t-300 -62q-141 0 -269 56t-196 150l18 21q61 -80 165 -128q103 -48 212 -48q125 0 220 56t148 158q52 101 52 234q0 131 -50 233q-50 101 -141 156t-210 56q-72 0 -157 -27t-150 -70l-13 23l92 686
h789v-33h-584l-76 -555q96 27 177 27q161 -1 285 -62z" />
    <glyph glyph-name="six" unicode="6" horiz-adv-x="1345" 
d="M999 892q111 -58 171 -164q60 -105 61 -245q0 -150 -68 -263q-68 -114 -191 -177q-124 -63 -288 -63t-290 89t-195 249q-70 161 -70 372q0 258 85 455t241 304q156 108 358 107q111 0 215 -42t166 -109l-14 -19q-53 53 -139 85q-85 32 -169 32q-145 0 -258 -92t-180 -261
q-68 -169 -80 -392q68 88 171 140t218 52q145 0 256 -58zM854 70q74 57 114 162t40 243q0 195 -85 311q-85 117 -227 117q-96 0 -190 -56t-154 -151v-30q0 -195 41 -342t117 -230q76 -82 174 -82q96 1 170 58z" />
    <glyph glyph-name="seven" unicode="7" horiz-adv-x="1136" 
d="M1085 1536v-20l-624 -1516h-219l618 1503h-819v33h1044z" />
    <glyph glyph-name="eight" unicode="8" horiz-adv-x="1372" 
d="M1137 673q115 -112 114 -276q0 -125 -70 -219q-71 -94 -199 -146t-296 -52t-295 52t-197 146q-71 94 -71 219q0 164 114 276t310 142q-166 29 -262 126t-97 237q0 113 63 198q62 86 175 133t260 47t260 -47t175 -133t63 -198q0 -139 -97 -237q-96 -97 -262 -126
q197 -30 312 -142zM487 926q76 -96 199 -97q125 0 200 96q75 95 75 253q0 156 -75 250q-75 95 -200 96q-123 0 -199 -96q-76 -95 -75 -250q-1 -156 75 -252zM934 118q94 105 94 279q0 180 -94 290t-248 110t-247 -110t-93 -290q0 -174 93 -279t247 -106q154 1 248 106z" />
    <glyph glyph-name="nine" unicode="9" horiz-adv-x="1345" 
d="M942 1464q131 -92 203 -260t72 -387q0 -250 -81 -439t-227 -294q-145 -104 -338 -104q-123 0 -238 42q-116 42 -183 109l16 19q59 -53 152 -88q93 -34 184 -33q145 0 256 100t172 283q61 182 61 419q-66 -94 -169 -149t-220 -55q-145 0 -257 55t-172 157q-60 101 -60 234
q0 143 65 253q66 110 186 170t275 60q172 0 303 -92zM837 732q93 58 154 155q-4 190 -49 335q-45 144 -124 223t-179 79q-137 0 -220 -122t-83 -321q0 -184 86 -296t225 -111q97 0 190 58z" />
    <glyph glyph-name="colon" unicode=":" horiz-adv-x="563" 
d="M381 880q-39 -38 -100 -38t-100 38q-38 38 -38 101q0 61 38 99t100 38q61 0 100 -38t39 -99q0 -63 -39 -101zM381 17q-39 -38 -100 -37q-61 0 -100 37q-38 38 -38 102q0 61 38 99t100 38q61 0 100 -38t39 -99q0 -64 -39 -102z" />
    <glyph glyph-name="semicolon" unicode=";" horiz-adv-x="575" 
d="M385 880q-39 -38 -100 -38t-100 38q-38 38 -38 101q0 61 38 99t100 38q61 0 100 -38t39 -99q0 -63 -39 -101zM391 205q39 -51 39 -144q0 -129 -62 -242q-62 -114 -163 -171l-15 22q88 57 143 156q54 98 56 209q-39 -55 -115 -55q-57 0 -93 37q-36 38 -36 102q0 61 39 99
t101 38q67 0 106 -51z" />
    <glyph glyph-name="less" unicode="&#x3c;" horiz-adv-x="970" 
d="M90 590l717 287v-37l-664 -267l664 -245v-37l-717 266v33z" />
    <glyph glyph-name="equal" unicode="=" horiz-adv-x="970" 
d="M127 705v32h717v-32h-717zM127 410v32h717v-32h-717z" />
    <glyph glyph-name="greater" unicode="&#x3e;" horiz-adv-x="970" 
d="M164 291v37l663 245l-663 267v37l717 -287v-33z" />
    <glyph glyph-name="question" unicode="?" horiz-adv-x="1067" 
d="M432 389v17q0 141 45 240t131 218q76 104 112 180t36 175q0 131 -85 208.5t-225 77.5q-92 0 -194 -46t-174 -122l-17 21q88 90 212 144t241 54q137 0 242.5 -43t164 -121.5t58.5 -181.5q0 -94 -38 -169.5t-91 -131t-145 -133.5q-82 -68 -132.5 -117t-83 -113.5
t-32.5 -139.5v-17h-25zM534.5 13.5q-34.5 -33.5 -90.5 -33.5q-55 0 -88.5 33.5t-33.5 86.5t33.5 87t88.5 34t90 -33.5t35 -87.5q0 -53 -34.5 -86.5z" />
    <glyph glyph-name="at" unicode="@" horiz-adv-x="2168" 
d="M1501 1036v-702q0 -115 48 -184.5t132 -69.5q94 0 170 73.5t119 207t43 305.5q0 256 -116.5 450.5t-329.5 301t-492 106.5q-276 0 -486 -122t-326 -344t-116 -515q0 -291 117 -513.5t330 -345t491 -122.5q143 0 297 45t263 119l10 -19q-111 -80 -269.5 -129t-308.5 -49
q-289 0 -510 127t-343 357.5t-122 529.5q0 301 121 531.5t342 356t510 125.5q293 0 515 -110.5t345 -312t123 -467.5q0 -193 -51 -337.5t-147.5 -223t-229.5 -78.5q-123 0 -203.5 65.5t-111.5 181.5q-43 -113 -134 -180t-200 -67q-123 0 -218 64.5t-147.5 181t-52.5 270.5
t52.5 270.5t147.5 180t218 63.5q104 0 195.5 -64.5t136.5 -175.5l14 219h174zM1186.5 146.5q70.5 64.5 113.5 170.5v449q-43 106 -113.5 170.5t-146.5 64.5q-78 0 -138 -57t-93 -161.5t-33 -239.5t33 -239.5t93.5 -163t137.5 -58.5q76 0 146.5 64.5z" />
    <glyph glyph-name="A" unicode="A" horiz-adv-x="1421" 
d="M983 428h-721l-176 -428h-43l641 1556h27l671 -1556h-217zM969 461l-353 829l-342 -829h695z" />
    <glyph glyph-name="B" unicode="B" horiz-adv-x="1292" 
d="M1066 680.5q122 -105.5 122 -260.5q0 -125 -74 -220.5t-206 -147.5t-306 -52h-393v1536h393q147 0 260 -46t174.5 -129t61.5 -190q0 -137 -96.5 -232t-262.5 -124q205 -29 327 -134.5zM791.5 1412q-82.5 91 -220.5 91h-153v-674h153q137 0 220 94.5t83 247.5
q0 150 -82.5 241zM856.5 139.5q108.5 106.5 108.5 280.5q0 170 -108.5 273.5t-285.5 103.5h-153v-764h153q177 0 285.5 106.5z" />
    <glyph glyph-name="C" unicode="C" horiz-adv-x="1472" 
d="M1178.5 41q-152.5 -61 -308.5 -61q-223 0 -393 98t-264 277.5t-94 412.5t94 412.5t264 277.5t393 98q152 0 298.5 -55t236.5 -145l-19 -19q-80 76 -205.5 122t-246.5 46q-176 0 -310.5 -92t-208 -259t-73.5 -386t73.5 -386t209 -259t311.5 -92q125 0 257 54t218 142
l16 -24q-96 -101 -248.5 -162z" />
    <glyph glyph-name="D" unicode="D" horiz-adv-x="1669" 
d="M1157.5 1439.5q188.5 -96.5 291.5 -270.5t103 -401t-103 -401t-291.5 -270.5t-434.5 -96.5h-514v1536h514q246 0 434.5 -96.5zM1025 125q144 92 224 259t80 384t-80 384t-224 259t-333 92h-274v-1470h274q189 0 333 92z" />
    <glyph glyph-name="E" unicode="E" horiz-adv-x="1095" 
d="M1010 33v-33h-801v1536h786v-33h-577v-674h483v-32h-483v-764h592z" />
    <glyph glyph-name="F" unicode="F" horiz-adv-x="1073" 
d="M418 1503v-696h497v-33h-497v-774h-209v1536h815v-33h-606z" />
    <glyph glyph-name="G" unicode="G" horiz-adv-x="1613" 
d="M1481 815v-625q-102 -94 -271.5 -152t-339.5 -58q-223 0 -393 98t-264 277.5t-94 412.5t94 412.5t264 277.5t393 98q160 0 315.5 -58t250.5 -152l-15 -19q-88 80 -222 129t-265 49q-176 0 -310.5 -92t-208 -259t-73.5 -386t73.5 -386t209 -259t311.5 -92q168 0 336 67
v717h209z" />
    <glyph glyph-name="H" unicode="H" horiz-adv-x="1531" 
d="M1323 1536v-1536h-209v797h-696v-797h-209v1536h209v-707h696v707h209z" />
    <glyph glyph-name="I" unicode="I" horiz-adv-x="626" 
d="M209 0v1536h209v-1536h-209z" />
    <glyph glyph-name="J" unicode="J" horiz-adv-x="847" 
d="M555 70q-94 -90 -250 -90q-80 0 -150.5 25.5t-113.5 70.5l16 20q33 -33 80 -51t99 -18q92 0 148 68.5t56 178.5v1262h209v-1227q0 -149 -94 -239z" />
    <glyph glyph-name="K" unicode="K" horiz-adv-x="1353" 
d="M209 1536h209v-1536h-209v1536zM1358 0h-246l-649 809l749 727h54l-633 -614z" />
    <glyph glyph-name="L" unicode="L" horiz-adv-x="1056" 
d="M1020 33v-33h-811v1536h209v-1503h602z" />
    <glyph glyph-name="M" unicode="M" horiz-adv-x="1933" 
d="M1579 0l-104 1178l-562 -1198h-30l-588 1210l-111 -1190h-43l152 1556h29l661 -1351l629 1351h28l152 -1556h-213z" />
    <glyph glyph-name="N" unicode="N" horiz-adv-x="1531" 
d="M209 0v1556h31l1042 -1273v1253h41v-1556h-29l-1044 1273v-1253h-41z" />
    <glyph glyph-name="O" unicode="O" horiz-adv-x="1812" 
d="M1597.5 355.5q-98.5 -179.5 -277.5 -277.5t-415 -98q-233 0 -412.5 98t-277.5 277.5t-98 412.5t98 412.5t277.5 277.5t412.5 98q236 0 415 -98t277.5 -277.5t98.5 -412.5t-98.5 -412.5zM410.5 373q70.5 -172 198.5 -266.5t296 -94.5t297 94.5t200 266.5t71 395t-71 395
t-200 266.5t-297 94.5t-296 -94.5t-198.5 -266.5t-70.5 -395t70.5 -395z" />
    <glyph glyph-name="P" unicode="P" horiz-adv-x="1249" 
d="M908 1483q128 -53 199 -150.5t71 -224.5t-71 -224.5t-199 -150.5t-296 -53h-194v-680h-209v1536h403q168 0 296 -53zM852 822.5q102 109.5 102 285.5q0 178 -102 286.5t-270 108.5h-164v-790h164q168 0 270 109.5z" />
    <glyph glyph-name="Q" unicode="Q" horiz-adv-x="1812" 
d="M1592.5 346q-103.5 -182 -287.5 -276l311 -303l-29 -29l-321 313q-162 -72 -361 -71q-233 0 -412.5 98t-277.5 277.5t-98 412.5t98 412.5t277.5 277.5t412.5 98q236 0 415 -98t277.5 -277.5t98.5 -412.5q0 -240 -103.5 -422zM1204 109l-336 327l29 29l340 -330
q113 98 174.5 261t61.5 372q0 223 -71 395t-200 266.5t-297 94.5t-296 -94.5t-198.5 -266.5t-70.5 -395t70.5 -395t198.5 -266.5t296 -94.5q168 1 299 97z" />
    <glyph glyph-name="R" unicode="R" horiz-adv-x="1333" 
d="M1298 0h-245l-631 723h-4v-723h-209v1536h420q164 0 287.5 -50t192.5 -142.5t69 -210.5q0 -117 -64.5 -208t-181.5 -144.5t-270 -57.5zM598 756q160 0 258 104.5t98 272.5t-98 269t-258 101h-180v-747h180z" />
    <glyph glyph-name="S" unicode="S" horiz-adv-x="1138" 
d="M982 180.5q-62 -98.5 -171 -149.5t-244 -51q-147 0 -276 61t-211 164l20 22q70 -88 180.5 -142t225.5 -54q147 0 238.5 87t91.5 230q0 98 -45.5 167t-111 115t-177.5 105q-121 66 -190.5 115t-119 128t-49.5 191q0 176 116 281.5t300 105.5q121 0 231.5 -46t186.5 -126
l-16 -18q-66 63 -157 101t-179 38q-121 0 -198 -74.5t-77 -193.5q0 -88 43 -152.5t104.5 -106.5t172.5 -101q123 -68 196.5 -120t125.5 -137t52 -208q0 -133 -62 -231.5z" />
    <glyph glyph-name="T" unicode="T" horiz-adv-x="1310" 
d="M1286 1503h-526v-1503h-209v1503h-526v33h1261v-33z" />
    <glyph glyph-name="U" unicode="U" horiz-adv-x="1515" 
d="M1256.5 242q-64.5 -125 -185.5 -193.5t-283 -68.5q-176 0 -311 72.5t-209.5 203.5t-74.5 303v977h208v-1012q0 -147 51.5 -262t145.5 -177t217 -62q139 0 244.5 62t163 176t57.5 263v1012h41v-1006q0 -163 -64.5 -288z" />
    <glyph glyph-name="V" unicode="V" horiz-adv-x="1404" 
d="M1360 1536l-631 -1556h-27l-663 1556h217l541 -1292l520 1292h43z" />
    <glyph glyph-name="W" unicode="W" horiz-adv-x="1882" 
d="M1823 1536l-471 -1556h-33l-371 1224l-370 -1224h-31l-490 1556h215l375 -1233l365 1253h35l372 -1249l361 1229h43z" />
    <glyph glyph-name="X" unicode="X" horiz-adv-x="1361" 
d="M1102 0l-490 702l-522 -702h-49l549 737l-557 799h237l471 -678l521 678h51l-549 -711l573 -825h-235z" />
    <glyph glyph-name="Y" unicode="Y" horiz-adv-x="1421" 
d="M829 684v-684h-206v672l-564 864h238l514 -803l500 803h45z" />
    <glyph glyph-name="Z" unicode="Z" horiz-adv-x="1204" 
d="M35 0v20l883 1483h-816v33h1051v-20l-893 -1483h889v-33h-1114z" />
    <glyph glyph-name="bracketleft" unicode="[" horiz-adv-x="645" 
d="M240 1708v-2126h395v-33h-436v2192h436v-33h-395z" />
    <glyph glyph-name="backslash" unicode="\" horiz-adv-x="1048" 
d="M51 1741h43l905 -2192h-45z" />
    <glyph glyph-name="bracketright" unicode="]" horiz-adv-x="645" 
d="M449 1741v-2192h-437v33h396v2126h-396v33h437z" />
    <glyph glyph-name="asciicircum" unicode="^" horiz-adv-x="970" 
d="M57 870l414 666h29l413 -666h-43l-385 619l-385 -619h-43z" />
    <glyph glyph-name="underscore" unicode="_" horiz-adv-x="993" 
d="M2 -242v33h989v-33h-989z" />
    <glyph glyph-name="grave" unicode="`" horiz-adv-x="1228" 
d="M631 1198l-443 256l17 29l440 -258z" />
    <glyph glyph-name="a" unicode="a" horiz-adv-x="1175" 
d="M899 1020q119 -100 119 -270v-750h-174l-15 246q-61 -121 -173.5 -193.5t-239.5 -72.5q-156 0 -251 87t-95 230q0 135 123.5 217t328.5 82h295v164q0 147 -82 231t-225 84q-90 0 -182 -35.5t-164 -97.5l-14 14q78 76 194.5 120t235.5 44q200 0 319 -100zM676 108.5
q88 69.5 141 182.5v272h-256q-127 0 -202.5 -70.5t-75.5 -189.5t58 -191.5t155 -72.5q92 0 180 69.5z" />
    <glyph glyph-name="b" unicode="b" horiz-adv-x="1294" 
d="M971.5 1048.5q105.5 -71.5 164 -200.5t58.5 -299t-58.5 -299t-164 -199.5t-244.5 -70.5q-125 0 -226.5 73.5t-142.5 194.5l-16 -248h-174v1597h201v-720q47 113 144 178t214 65q139 0 244.5 -71.5zM833.5 97.5q69.5 64.5 108.5 181t39 270.5t-39 271.5t-108.5 182
t-161.5 64.5q-96 0 -179 -73.5t-124 -192.5v-502q39 -121 121.5 -193.5t181.5 -72.5q92 0 161.5 64.5z" />
    <glyph glyph-name="c" unicode="c" horiz-adv-x="1042" 
d="M823.5 20.5q-102.5 -40.5 -209.5 -40.5q-154 0 -270.5 70.5t-181 200.5t-64.5 300q0 168 64.5 297t181.5 200.5t270 71.5q98 0 195.5 -36.5t153.5 -96.5l-13 -18q-51 47 -123.5 76.5t-142.5 29.5q-111 0 -196 -65.5t-131 -184t-46 -274.5t47.5 -275.5t132 -185
t197.5 -65.5q72 0 149.5 34.5t135.5 90.5l16 -19q-63 -70 -165.5 -110.5z" />
    <glyph glyph-name="d" unicode="d" horiz-adv-x="1294" 
d="M1124 1597v-1597h-174l-14 252q-41 -123 -143.5 -197.5t-227.5 -74.5q-137 0 -242.5 70.5t-164 199.5t-58.5 299t58.5 299t164 200.5t242.5 71.5q119 0 215.5 -65.5t143.5 -175.5v718h200zM801 105.5q82 72.5 123 193.5v502q-39 119 -121 192.5t-180 73.5
q-92 0 -163 -64.5t-110 -182.5t-39 -271q0 -154 39 -270.5t109.5 -181t163.5 -64.5q96 0 178 72.5z" />
    <glyph glyph-name="e" unicode="e" horiz-adv-x="1204" 
d="M311 573v-24q0 -156 48.5 -274.5t137.5 -184t205 -65.5q88 0 183.5 33.5t163.5 93.5l12 -17q-72 -70 -188.5 -112.5t-237.5 -42.5q-160 0 -282 71.5t-188.5 200.5t-66.5 297q0 170 65.5 299t186.5 200.5t279 71.5q147 0 259.5 -67.5t175 -190.5t62.5 -282v-7h-815z
M409 956q-85 -131 -96 -350h602q0 143 -35.5 252t-101 169t-149.5 60q-135 0 -220 -131z" />
    <glyph glyph-name="f" unicode="f" horiz-adv-x="831" 
d="M497.5 1501.5q-61.5 -71.5 -61.5 -192.5v-209h371v-33h-371v-1067h-200v1067h-207v33h207v174q0 154 98 249t256 95q82 0 157.5 -29.5t120.5 -77.5l-12 -14q-35 35 -88 55.5t-109 20.5q-100 0 -161.5 -71.5z" />
    <glyph glyph-name="g" unicode="g" horiz-adv-x="1294" 
d="M1124 1100v-1082q0 -145 -71.5 -256.5t-201.5 -172t-302 -60.5q-98 0 -204.5 37t-178.5 98l16 19q63 -51 155.5 -83t178.5 -32q121 0 214 52t143.5 146.5t50.5 217.5v237q-47 -111 -143.5 -176t-215.5 -65q-137 0 -242.5 70.5t-164 199.5t-58.5 299t58.5 299t164 200.5
t242.5 71.5q127 0 228.5 -74.5t142.5 -197.5l14 252h174zM801 105.5q82 72.5 123 193.5v502q-39 119 -121 192.5t-180 73.5q-92 0 -163 -64.5t-110 -182.5t-39 -271q0 -154 39 -270.5t109.5 -181t163.5 -64.5q96 0 178 72.5z" />
    <glyph glyph-name="h" unicode="h" horiz-adv-x="1273" 
d="M1024 1028q90 -92 90 -242v-786h-201v834q0 104 -54 167.5t-142 63.5q-102 0 -198.5 -73.5t-149.5 -192.5v-799h-201v1597h201v-733q61 117 174.5 186.5t242.5 69.5q148 0 238 -92z" />
    <glyph glyph-name="i" unicode="i" horiz-adv-x="538" 
d="M354.5 1372q-32.5 -31 -88.5 -31q-53 0 -87 32t-34 83t34 84t87 33q55 0 88 -32t33 -85t-32.5 -84zM168 0v1100h201v-1100h-201z" />
    <glyph glyph-name="j" unicode="j" horiz-adv-x="542" 
d="M360.5 1372q-32.5 -31 -88.5 -31q-53 0 -86.5 32t-33.5 83t33.5 84t86.5 33q55 0 88 -32t33 -85t-32.5 -84zM292 -293.5q-83 -105.5 -241 -177.5l-10 20q133 104 133 381v1170h201v-1108q0 -180 -83 -285.5z" />
    <glyph glyph-name="k" unicode="k" horiz-adv-x="1130" 
d="M168 1597h201v-1597h-201v1597zM1133 0h-232l-489 604l592 496h53l-475 -398z" />
    <glyph glyph-name="l" unicode="l" horiz-adv-x="538" 
d="M168 0v1597h201v-1597h-201z" />
    <glyph glyph-name="m" unicode="m" horiz-adv-x="1978" 
d="M1733 1031q88 -89 88 -234v-797h-201v844q0 100 -52 160.5t-136 60.5q-98 0 -189.5 -69.5t-148.5 -188.5v-10v-797h-201v844q0 100 -51 160.5t-135 60.5q-100 0 -193.5 -70.5t-144.5 -185.5v-809h-201v1100h174l16 -246q59 121 173 193.5t245 72.5q125 0 209 -69.5
t102 -186.5q61 117 174 186.5t240 69.5q144 0 232 -89z" />
    <glyph glyph-name="n" unicode="n" horiz-adv-x="1273" 
d="M1024 1028q90 -92 90 -242v-786h-201v834q0 104 -54 167.5t-142 63.5q-102 0 -198.5 -73.5t-149.5 -192.5v-799h-201v1100h174l16 -256q59 125 176 200.5t252 75.5q148 0 238 -92z" />
    <glyph glyph-name="o" unicode="o" horiz-adv-x="1290" 
d="M1123.5 250q-68.5 -129 -192.5 -199.5t-286 -70.5t-285.5 70.5t-192.5 199.5t-69 299t69 299t192.5 200.5t285.5 71.5t286 -71.5t192.5 -200.5t68.5 -299t-68.5 -299zM351 267q42 -122 118 -188.5t176 -66.5q98 0 174 66.5t118 188.5t42 282t-42 281.5t-118 189
t-174 67.5t-175 -67.5t-119 -189t-42 -281.5t42 -282z" />
    <glyph glyph-name="p" unicode="p" horiz-adv-x="1294" 
d="M971.5 1048.5q105.5 -71.5 164 -200.5t58.5 -299t-58.5 -299t-164 -199.5t-244.5 -70.5q-119 0 -215 65.5t-143 175.5v-672h-201v1551h174l16 -248q43 121 143.5 194.5t225.5 73.5q139 0 244.5 -71.5zM833.5 97.5q69.5 64.5 108.5 181t39 270.5t-39 271.5t-108.5 182
t-161.5 64.5q-96 0 -179 -73.5t-124 -192.5v-502q39 -121 121.5 -193.5t181.5 -72.5q92 0 161.5 64.5z" />
    <glyph glyph-name="q" unicode="q" horiz-adv-x="1294" 
d="M1124 1100v-1551h-200v672q-47 -111 -143.5 -176t-215.5 -65q-137 0 -242.5 70.5t-164 199.5t-58.5 299t58.5 299t164 200.5t242.5 71.5q127 0 228.5 -74.5t142.5 -197.5l14 252h174zM801 105.5q82 72.5 123 193.5v502q-39 119 -121 192.5t-180 73.5q-92 0 -163 -64.5
t-110 -182.5t-39 -271q0 -154 39 -270.5t109.5 -181t163.5 -64.5q96 0 178 72.5z" />
    <glyph glyph-name="r" unicode="r" horiz-adv-x="819" 
d="M525.5 1017q113.5 83 250.5 83v-33q-137 0 -249.5 -89t-157.5 -235v-743h-201v1100h174l16 -305q54 139 167.5 222z" />
    <glyph glyph-name="s" unicode="s" horiz-adv-x="1021" 
d="M823 70q-121 -90 -313 -90q-133 0 -246.5 43t-187.5 118l16 19q63 -63 163.5 -101.5t203.5 -38.5q129 0 210 59.5t81 158.5q0 68 -39 112.5t-97.5 72.5t-158.5 64q-113 41 -180.5 76t-115.5 95.5t-48 152.5q0 141 110.5 225t282.5 84q117 0 215 -40t164 -107l-13 -17
q-63 57 -146 90t-167 33q-106 0 -179 -54t-73 -144q0 -63 38 -107.5t95.5 -72t155.5 -64.5q115 -41 184.5 -77t117.5 -96.5t48 -154.5q0 -149 -121 -239z" />
    <glyph glyph-name="t" unicode="t" horiz-adv-x="823" 
d="M829 78q-47 -45 -119.5 -71.5t-148.5 -26.5q-150 0 -241 90t-91 239v758h-198v33h198l179 360h22v-360h367v-33h-367v-793q0 -113 56.5 -181t148.5 -68q51 0 100 18t82 51z" />
    <glyph glyph-name="u" unicode="u" horiz-adv-x="1253" 
d="M1083 1100v-1100h-174l-14 246q-59 -121 -173 -193.5t-245 -72.5q-143 0 -231 88t-88 233v799h200v-846q0 -98 52.5 -158.5t136.5 -60.5q100 0 192 70.5t144 185.5v809h200z" />
    <glyph glyph-name="v" unicode="v" horiz-adv-x="1112" 
d="M1081 1100l-510 -1120h-24l-514 1120h217l397 -873l393 873h41z" />
    <glyph glyph-name="w" unicode="w" horiz-adv-x="1550" 
d="M1509 1100l-401 -1120h-23l-305 849l-301 -849h-24l-416 1120h211l301 -828l293 848h30l308 -850l288 830h39z" />
    <glyph glyph-name="x" unicode="x" horiz-adv-x="1069" 
d="M815 0l-354 502l-379 -502h-47l403 532l-401 568h237l330 -467l361 467h45l-385 -496l426 -604h-236z" />
    <glyph glyph-name="y" unicode="y" horiz-adv-x="1112" 
d="M1081 1100l-675 -1555h-41l182 420l-512 1135h219l395 -897l391 897h41z" />
    <glyph glyph-name="z" unicode="z" horiz-adv-x="980" 
d="M37 0v18l670 1049h-623v33h846v-21l-668 -1046h666v-33h-891z" />
    <glyph glyph-name="braceleft" unicode="{" horiz-adv-x="536" 
d="M338 -372q59 -79 158 -79l-4 -20q-115 0 -184.5 84t-69.5 223v578q0 96 -48.5 155.5t-126.5 59.5h-10v33h10q78 0 126.5 59t48.5 156v577q0 139 69.5 223t184.5 84l4 -20q-98 0 -157.5 -79t-59.5 -208v-577q0 -90 -39 -150.5t-109 -81.5q70 -20 109 -81.5t39 -149.5v-578
q0 -129 59 -208z" />
    <glyph glyph-name="bar" unicode="|" horiz-adv-x="436" 
d="M199 -438v2179h41v-2179h-41z" />
    <glyph glyph-name="braceright" unicode="}" horiz-adv-x="536" 
d="M483 662v-33h-10q-78 0 -126 -59.5t-48 -155.5v-578q0 -139 -69.5 -223t-184.5 -84l-4 20q98 0 157.5 79t59.5 208v578q0 88 39 149.5t109 81.5q-70 20 -109 80.5t-39 151.5v577q0 129 -59.5 208t-157.5 79l4 20q115 0 184.5 -84t69.5 -223v-577q0 -96 48 -155.5
t126 -59.5h10z" />
    <glyph glyph-name="asciitilde" unicode="~" horiz-adv-x="970" 
d="M53 479q0 102 61.5 166t161.5 64q66 0 114 -29t110 -84q61 -53 104 -78.5t103 -25.5q84 0 136 54t52 142h29q0 -102 -61.5 -165.5t-162.5 -63.5q-66 0 -113.5 28.5t-109.5 83.5q-61 53 -104 79t-103 26q-84 0 -136 -54.5t-52 -142.5h-29z" />
    <glyph glyph-name="uni00A0" unicode="&#xa0;" horiz-adv-x="542" 
 />
    <glyph glyph-name="exclamdown" unicode="&#xa1;" horiz-adv-x="520" 
d="M351 911.5q-34 -32.5 -91 -32.5q-55 0 -89 32.5t-34 87.5q0 53 34 87t89 34q57 0 91 -33.5t34 -87.5q0 -55 -34 -87.5zM347 -434q-30 -37 -87 -37q-55 0 -86 38t-31 97q0 39 23 158q35 209 58.5 416.5t23.5 472.5h24q0 -264 23.5 -472t58.5 -417q23 -119 23 -158
q0 -61 -30 -98z" />
    <glyph glyph-name="cent" unicode="&#xa2;" horiz-adv-x="1095" 
d="M851 244q-97 -41 -200 -45v-199h-41v199q-147 4 -258.5 76.5t-173 200.5t-61.5 294q0 164 61.5 291t173 199.5t258.5 76.5v199h41v-199q94 -2 185.5 -38.5t144.5 -92.5l-12 -18q-51 47 -124 75.5t-143 28.5q-111 0 -195.5 -65.5t-130.5 -183t-46 -273.5q0 -158 47 -276.5
t132 -184t198 -65.5q72 0 149.5 34.5t134.5 90.5l15 -19q-58 -65 -155 -106z" />
    <glyph glyph-name="sterling" unicode="&#xa3;" horiz-adv-x="1218" 
d="M1141 33v-33h-1022v16q100 53 160.5 172t60.5 263q0 150 -49 305h-197v32h187q-10 31 -15 39q-35 104 -50 166t-15 140q0 125 58 221t163.5 149t243.5 53q115 0 239.5 -55t212.5 -143l-16 -19q-74 74 -176.5 119t-196.5 45q-137 0 -221 -87t-84 -230q0 -90 16.5 -163
t51.5 -179l18 -56h422v-32h-412q43 -135 43 -269q0 -147 -77.5 -270t-209.5 -184h865z" />
    <glyph glyph-name="currency" unicode="&#xa4;" horiz-adv-x="1351" 
d="M1196 223l-229 228q-106 -106 -293 -107q-182 0 -289 102l-227 -227l-29 29l227 227q-90 109 -90 291t92 291l-227 227l29 29l225 -226q106 100 289 101q182 0 291 -105l229 230l29 -29l-230 -229q88 -111 88 -289q0 -176 -86 -287l230 -227zM942 480.5
q96 103.5 96 285.5t-96 285.5t-268 103.5t-268.5 -103.5t-96.5 -285.5t96.5 -285.5t268.5 -103.5t268 103.5z" />
    <glyph glyph-name="yen" unicode="&#xa5;" horiz-adv-x="1406" 
d="M831 696h287v-32h-295v-230h295v-33h-295v-401h-207v401h-297v33h297v230h-297v32h281l-547 840h238l514 -803l500 803h45z" />
    <glyph glyph-name="brokenbar" unicode="&#xa6;" horiz-adv-x="436" 
d="M199 815v926h41v-926h-41zM199 -451v928h41v-928h-41z" />
    <glyph glyph-name="section" unicode="&#xa7;" horiz-adv-x="1255" 
d="M1105 375q-54 -96 -153 -156q106 -123 107 -295q0 -117 -56.5 -207t-159 -139t-235.5 -49q-119 0 -237.5 47t-194.5 125l14 18q70 -63 166.5 -101t184.5 -38q139 0 223 79t84 210q0 88 -33 153.5t-92 118.5q-45 -6 -96 -6q-158 0 -278 57.5t-186.5 162t-66.5 239.5
q0 121 52.5 216t148.5 157q-102 106 -102 274q0 113 56 198t159.5 132t236.5 47q117 0 235.5 -47t196.5 -125l-16 -19q-70 63 -169 101.5t-189 38.5q-133 0 -215 -75t-82 -196q0 -150 116 -249q49 6 103 6q158 0 278.5 -57.5t187 -162t66.5 -239.5q0 -123 -54 -219z
M403 285.5q84 -117.5 224 -117.5q139 0 224 117.5t85 308.5q0 190 -85 308t-224 118t-223.5 -118t-84.5 -308q0 -191 84 -308.5z" />
    <glyph glyph-name="dieresis" unicode="&#xa8;" horiz-adv-x="1228" 
d="M337 1343q-28 -27 -73 -26q-45 0 -74 26q-29 27 -28 70q0 43 28 70q29 27 74 26q45 0 73 -26q28 -27 28 -70t-28 -70zM739 1343q-29 -27 -73 -26q-45 0 -73 26q-28 27 -28 70t28 70t73 26q45 0 73 -26q29 -27 29 -70t-29 -70z" />
    <glyph glyph-name="copyright" unicode="&#xa9;" horiz-adv-x="1841" 
d="M1624 355.5q-100 -179.5 -282.5 -277.5t-419.5 -98q-238 0 -420.5 98t-282.5 277.5t-100 412.5q0 236 100 414t282.5 276t420.5 98t420 -98t282 -276t100 -414q0 -233 -100 -412.5zM258 374q94 -171 266 -266.5t398 -95.5q225 0 397 95.5t266 266.5t94 394q0 225 -94 397
t-266 265.5t-397 93.5t-397.5 -93.5t-266.5 -265.5t-94 -397q0 -223 94 -394zM1113 336q-87 -35 -177 -35q-127 0 -225.5 58.5t-151.5 165t-53 247.5q0 139 53 245.5t151.5 165t225.5 58.5q84 0 166 -29.5t129 -78.5l-12 -19q-39 35 -96.5 57.5t-112.5 22.5
q-131 0 -211 -116.5t-80 -305.5q0 -190 81 -306t214 -116q57 0 118.5 25.5t106.5 66.5l14 -14q-53 -57 -140 -92z" />
    <glyph glyph-name="ordfeminine" unicode="&#xaa;" horiz-adv-x="790" 
d="M575.5 1498q67.5 -56 67.5 -155v-421h-104l-9 135q-35 -68 -97 -108t-134 -40q-88 0 -142.5 50.5t-54.5 130.5q0 76 72 123t186 47h164v92q0 80 -45 126t-127 46q-49 0 -101 -19.5t-91 -52.5l-13 10q45 43 112 67.5t134 24.5q115 0 182.5 -56zM446.5 988q49.5 38 77.5 99
v150h-141q-70 0 -112 -39t-42 -104q0 -63 32 -103.5t85 -40.5q51 0 100.5 38z" />
    <glyph glyph-name="guillemotleft" unicode="&#xab;" horiz-adv-x="837" 
d="M98 567v13l308 387l20 -13l-254 -381l254 -380l-20 -13zM375 567v13l307 387l20 -13l-253 -381l253 -380l-20 -13z" />
    <glyph glyph-name="logicalnot" unicode="&#xac;" horiz-adv-x="970" 
d="M846 420h-41v266h-676v33h717v-299z" />
    <glyph glyph-name="uni00AD" unicode="&#xad;" horiz-adv-x="964" 
d="M141 557v33h682v-33h-682z" />
    <glyph glyph-name="registered" unicode="&#xae;" horiz-adv-x="1103" 
d="M786.5 1593.5q100.5 -53.5 155.5 -149.5t55 -225q0 -127 -55 -224.5t-156.5 -150.5t-232.5 -53q-133 0 -234.5 53t-157 150.5t-55.5 224.5q0 129 55.5 225t157 149.5t234.5 53.5t233.5 -53.5zM773 862q95 51 147.5 143.5t52.5 213.5q0 184 -116 295.5t-304 111.5
q-190 0 -306 -111.5t-116 -295.5q0 -121 52.5 -213.5t148.5 -143.5t221 -51t220 51zM703.5 1263.5q-23.5 -32.5 -66.5 -51.5l162 -249h-111l-147 227h-21h-51v-227h-104v522h155q94 0 150.5 -40t56.5 -106q0 -43 -23.5 -75.5zM585.5 1245q30.5 37 30.5 94t-30.5 92t-79.5 35
h-37v-258h37q49 0 79.5 37z" />
    <glyph glyph-name="macron" unicode="&#xaf;" horiz-adv-x="1228" 
d="M170 1321v33h592v-33h-592z" />
    <glyph glyph-name="degree" unicode="&#xb0;" horiz-adv-x="696" 
d="M528.5 1177.5q-67.5 -69.5 -180.5 -69.5t-180.5 69.5t-67.5 184.5t68 185.5t180 70.5q113 0 180.5 -70.5t67.5 -185.5t-67.5 -184.5zM197.5 1201.5q56.5 -60.5 150.5 -60.5t150.5 60.5t56.5 160.5t-56.5 161.5t-150.5 61.5t-150.5 -61.5t-56.5 -161.5t56.5 -160.5z" />
    <glyph glyph-name="plusminus" unicode="&#xb1;" horiz-adv-x="970" 
d="M844 725v-33h-338v-291h-41v291h-338v33h338v291h41v-291h338zM127 264h717v-33h-717v33z" />
    <glyph glyph-name="acute" unicode="&#xb4;" horiz-adv-x="1228" 
d="M184 1198l-14 27l438 258l17 -29z" />
    <glyph glyph-name="paragraph" unicode="&#xb6;" horiz-adv-x="1085" 
d="M159.5 1498q96.5 99 252.5 99h145v-2048h-41v1323h-104q-156 0 -252.5 99.5t-96.5 263.5t96.5 263zM860 1597v-2048h-41v2048h41z" />
    <glyph glyph-name="periodcentered" unicode="&#xb7;" horiz-adv-x="548" 
d="M375 560q-39 -38 -101 -38q-61 0 -99 38t-38 102q0 61 38 99t99 38t101 -38q39 -38 39 -99q0 -64 -39 -102z" />
    <glyph glyph-name="cedilla" unicode="&#xb8;" horiz-adv-x="1228" 
d="M446 -177q72 -42 72 -110q0 -82 -111 -133q-112 -51 -292 -51l4 20q113 0 183 45q71 45 71 117q0 53 -45 88t-121 41l61 180l35 -20l-47 -131q118 -4 190 -46z" />
    <glyph glyph-name="ordmasculine" unicode="&#xba;" horiz-adv-x="827" 
d="M639 998q-86 -89 -225 -89t-225.5 89t-86.5 235q0 145 86 234t226 89q139 0 225 -89t86 -234q0 -146 -86 -235zM278.5 1015q51.5 -83 135.5 -83t135 83t51 218t-51 218t-135 83t-135.5 -83t-51.5 -218t51.5 -218z" />
    <glyph glyph-name="guillemotright" unicode="&#xbb;" horiz-adv-x="837" 
d="M412 193l254 380l-254 381l20 13l307 -387v-13l-307 -387zM135 193l254 380l-254 381l21 13l307 -387v-13l-307 -387z" />
    <glyph glyph-name="onequarter" unicode="&#xbc;" horiz-adv-x="1646" 
d="M1571 195h-119v-195h-145v195h-406v12l535 649h16v-639h119v-22zM1307 217v440l-365 -440h365zM209 0l1051 1536h43l-1051 -1536h-43zM469 1546v-856h-143v760l-254 -139l-11 18l392 217h16z" />
    <glyph glyph-name="onehalf" unicode="&#xbd;" horiz-adv-x="1585" 
d="M1489 23v-23h-596v12q195 168 308 331q114 163 114 280q0 88 -49 142t-131 54q-47 0 -101 -23q-53 -24 -92 -63l-12 15q49 49 120 78q71 30 140 30q125 0 202 -70t76 -182q0 -123 -109 -277q-110 -155 -296 -304h426zM209 0l1051 1536h43l-1051 -1536h-43zM469 1546v-856
h-143v760l-254 -139l-11 18l392 217h16z" />
    <glyph glyph-name="threequarters" unicode="&#xbe;" horiz-adv-x="1740" 
d="M1671 195h-119v-195h-145v195h-406v12l535 649h16v-639h119v-22zM1407 217v440l-365 -440h365zM309 0l1051 1536h43l-1051 -1536h-43zM616 1063q70 -59 70 -150q0 -106 -86 -171t-227 -64q-80 0 -162 32t-131 81l12 16q45 -41 104 -66q58 -25 115 -24q100 0 161 56
q60 56 60 147q0 92 -63 149t-170 57h-23v23h15q94 0 151 52t58 138q0 76 -49 123t-132 47q-47 0 -101 -21q-54 -22 -93 -54l-12 14q49 45 117 72q69 27 135 26q131 0 209 -55q79 -55 79 -145q0 -80 -60 -136q-60 -55 -165 -71q118 -17 188 -76z" />
    <glyph glyph-name="questiondown" unicode="&#xbf;" horiz-adv-x="1052" 
d="M703.5 912.5q-33.5 -33.5 -89.5 -33.5q-55 0 -90 33.5t-35 86.5t35 87t90 34t89 -33.5t34 -87.5q0 -53 -33.5 -86.5zM785.5 -416.5q-123.5 -54.5 -240.5 -54.5q-137 0 -242.5 43t-164 122t-58.5 181q0 96 38 172t93 133.5t143 130.5q84 72 133.5 122t82 113.5t32.5 141.5
v23h25v-23q0 -141 -45 -241.5t-131 -221.5q-76 -109 -112 -183.5t-36 -174.5q0 -131 85 -209t224 -78q92 0 194.5 46t174.5 122l16 -20q-88 -90 -211.5 -144.5z" />
    <glyph glyph-name="Agrave" unicode="&#xc0;" horiz-adv-x="1421" 
d="M954 1638l-569 201l12 33l568 -205zM983 428h-721l-176 -428h-43l641 1556h27l671 -1556h-217zM969 461l-353 829l-342 -829h695z" />
    <glyph glyph-name="Aacute" unicode="&#xc1;" horiz-adv-x="1421" 
d="M440 1638l-10 29l565 205l13 -33zM983 428h-721l-176 -428h-43l641 1556h27l671 -1556h-217zM969 461l-353 829l-342 -829h695z" />
    <glyph glyph-name="Acircumflex" unicode="&#xc2;" horiz-adv-x="1421" 
d="M367 1626l-15 16l346 261l346 -261l-14 -16l-332 223zM983 428h-721l-176 -428h-43l641 1556h27l671 -1556h-217zM969 461l-353 829l-342 -829h695z" />
    <glyph glyph-name="Atilde" unicode="&#xc3;" horiz-adv-x="1421" 
d="M443 1802q-40 -35 -72 -104l-23 10q68 162 201 162q47 0 83 -20.5t81 -61.5q43 -37 71.5 -54.5t65.5 -17.5q55 0 95 36t73 106l22 -11q-27 -72 -76 -118t-124 -46q-47 0 -84 21.5t-80 60.5q-39 35 -70 53.5t-67 18.5q-56 0 -96 -35zM983 428h-721l-176 -428h-43l641 1556
h27l671 -1556h-217zM969 461l-353 829l-342 -829h695z" />
    <glyph glyph-name="Adieresis" unicode="&#xc4;" horiz-adv-x="1421" 
d="M570.5 1699.5q-27.5 -26.5 -72.5 -26.5t-74 26.5t-29 69.5t29 70t74 27t72.5 -27t27.5 -70t-27.5 -69.5zM972.5 1699.5q-28.5 -26.5 -73.5 -26.5t-72.5 26.5t-27.5 69.5t27.5 70t72.5 27t73.5 -27t28.5 -70t-28.5 -69.5zM983 428h-721l-176 -428h-43l641 1556h27
l671 -1556h-217zM969 461l-353 829l-342 -829h695z" />
    <glyph glyph-name="Aring" unicode="&#xc5;" horiz-adv-x="1421" 
d="M844.5 1676.5q-56.5 -52.5 -146.5 -52.5t-145 52.5t-55 138.5t55 139t145 53t146.5 -53t56.5 -139t-56.5 -138.5zM583 1700q44 -43 115 -43q72 0 117 44t45 114q0 72 -45 115.5t-117 43.5t-115.5 -44t-43.5 -115q0 -72 44 -115zM983 428h-721l-176 -428h-43l641 1556h27
l671 -1556h-217zM969 461l-353 829l-342 -829h695z" />
    <glyph glyph-name="AE" unicode="&#xc6;" horiz-adv-x="1902" 
d="M1819 33v-33h-803l-64 481h-663l-252 -481h-45l807 1536h1003v-33h-774l90 -672h592v-32h-588l103 -766h594zM946 516l-129 971l-510 -971h639z" />
    <glyph glyph-name="Ccedilla" unicode="&#xc7;" horiz-adv-x="1472" 
d="M1184.5 44q-148.5 -60 -299.5 -64l-41 -111q119 -4 190.5 -46t71.5 -110q0 -82 -111.5 -133t-292.5 -51l5 20q113 0 183.5 45.5t70.5 116.5q0 53 -45.5 88t-120.5 41l47 140q-215 6 -379 106t-254 276.5t-90 405.5q0 233 94 412.5t264 277.5t393 98q152 0 298.5 -55
t236.5 -145l-19 -19q-80 76 -205.5 122t-246.5 46q-176 0 -310.5 -92t-208 -259t-73.5 -386t73.5 -386t209 -259t311.5 -92q125 0 257 54t218 142l16 -24q-94 -99 -242.5 -159z" />
    <glyph glyph-name="Egrave" unicode="&#xc8;" horiz-adv-x="1095" 
d="M866 1638l-569 201l12 33l568 -205zM1010 33v-33h-801v1536h786v-33h-577v-674h483v-32h-483v-764h592z" />
    <glyph glyph-name="Eacute" unicode="&#xc9;" horiz-adv-x="1095" 
d="M352 1638l-10 29l565 205l13 -33zM1010 33v-33h-801v1536h786v-33h-577v-674h483v-32h-483v-764h592z" />
    <glyph glyph-name="Ecircumflex" unicode="&#xca;" horiz-adv-x="1095" 
d="M279 1626l-15 16l346 261l346 -261l-14 -16l-332 223zM1010 33v-33h-801v1536h786v-33h-577v-674h483v-32h-483v-764h592z" />
    <glyph glyph-name="Edieresis" unicode="&#xcb;" horiz-adv-x="1095" 
d="M482.5 1699.5q-27.5 -26.5 -72.5 -26.5t-74 26.5t-29 69.5t29 70t74 27t72.5 -27t27.5 -70t-27.5 -69.5zM884.5 1699.5q-28.5 -26.5 -73.5 -26.5t-72.5 26.5t-27.5 69.5t27.5 70t72.5 27t73.5 -27t28.5 -70t-28.5 -69.5zM1010 33v-33h-801v1536h786v-33h-577v-674h483
v-32h-483v-764h592z" />
    <glyph glyph-name="Igrave" unicode="&#xcc;" horiz-adv-x="626" 
d="M516 1636l-512 185l12 30l510 -186zM209 0v1536h209v-1536h-209z" />
    <glyph glyph-name="Iacute" unicode="&#xcd;" horiz-adv-x="626" 
d="M113 1636l-11 29l510 186l13 -30zM209 0v1536h209v-1536h-209z" />
    <glyph glyph-name="Icircumflex" unicode="&#xce;" horiz-adv-x="626" 
d="M57 1626l-14 16l270 261l271 -261l-15 -16l-256 221zM209 0v1536h209v-1536h-209z" />
    <glyph glyph-name="Idieresis" unicode="&#xcf;" horiz-adv-x="626" 
d="M240.5 1699.5q-27.5 -26.5 -72.5 -26.5t-73.5 26.5t-28.5 69.5t28.5 70t73.5 27t72.5 -27t27.5 -70t-27.5 -69.5zM533.5 1699.5q-27.5 -26.5 -72.5 -26.5t-74 26.5t-29 69.5t29 70t74 27t72.5 -27t27.5 -70t-27.5 -69.5zM209 0v1536h209v-1536h-209z" />
    <glyph glyph-name="Eth" unicode="&#xd0;" horiz-adv-x="1685" 
d="M1171.5 1439.5q188.5 -96.5 293 -270.5t104.5 -401t-104.5 -401t-293 -270.5t-434.5 -96.5h-512v799h-174v32h174v705h512q246 0 434.5 -96.5zM1041.5 125q144.5 92 224.5 259t80 384t-80 384t-224.5 259t-334.5 92h-273v-672h387v-32h-387v-766h273q190 0 334.5 92z" />
    <glyph glyph-name="Ntilde" unicode="&#xd1;" horiz-adv-x="1531" 
d="M527 1802q-40 -35 -72 -104l-23 10q68 162 201 162q47 0 83 -20.5t81 -61.5q43 -37 71.5 -54.5t65.5 -17.5q55 0 95 36t73 106l22 -11q-27 -72 -76 -118t-124 -46q-47 0 -84 21.5t-80 60.5q-39 35 -70 53.5t-67 18.5q-56 0 -96 -35zM209 0v1556h31l1042 -1273v1253h41
v-1556h-29l-1044 1273v-1253h-41z" />
    <glyph glyph-name="Ograve" unicode="&#xd2;" horiz-adv-x="1812" 
d="M1163 1638l-569 201l12 33l568 -205zM1597.5 355.5q-98.5 -179.5 -277.5 -277.5t-415 -98q-233 0 -412.5 98t-277.5 277.5t-98 412.5t98 412.5t277.5 277.5t412.5 98q236 0 415 -98t277.5 -277.5t98.5 -412.5t-98.5 -412.5zM410.5 373q70.5 -172 198.5 -266.5t296 -94.5
t297 94.5t200 266.5t71 395t-71 395t-200 266.5t-297 94.5t-296 -94.5t-198.5 -266.5t-70.5 -395t70.5 -395z" />
    <glyph glyph-name="Oacute" unicode="&#xd3;" horiz-adv-x="1812" 
d="M649 1638l-10 29l565 205l13 -33zM1597.5 355.5q-98.5 -179.5 -277.5 -277.5t-415 -98q-233 0 -412.5 98t-277.5 277.5t-98 412.5t98 412.5t277.5 277.5t412.5 98q236 0 415 -98t277.5 -277.5t98.5 -412.5t-98.5 -412.5zM410.5 373q70.5 -172 198.5 -266.5t296 -94.5
t297 94.5t200 266.5t71 395t-71 395t-200 266.5t-297 94.5t-296 -94.5t-198.5 -266.5t-70.5 -395t70.5 -395z" />
    <glyph glyph-name="Ocircumflex" unicode="&#xd4;" horiz-adv-x="1812" 
d="M575 1626l-14 16l346 261l346 -261l-14 -16l-332 223zM1597.5 355.5q-98.5 -179.5 -277.5 -277.5t-415 -98q-233 0 -412.5 98t-277.5 277.5t-98 412.5t98 412.5t277.5 277.5t412.5 98q236 0 415 -98t277.5 -277.5t98.5 -412.5t-98.5 -412.5zM410.5 373
q70.5 -172 198.5 -266.5t296 -94.5t297 94.5t200 266.5t71 395t-71 395t-200 266.5t-297 94.5t-296 -94.5t-198.5 -266.5t-70.5 -395t70.5 -395z" />
    <glyph glyph-name="Otilde" unicode="&#xd5;" horiz-adv-x="1812" 
d="M654 1802q-40 -35 -72 -104l-23 10q68 162 201 162q47 0 83 -20.5t81 -61.5q43 -37 71.5 -54.5t65.5 -17.5q55 0 95 36t73 106l22 -11q-27 -72 -76 -118t-124 -46q-47 0 -84 21.5t-80 60.5q-39 35 -70 53.5t-67 18.5q-56 0 -96 -35zM1597.5 355.5
q-98.5 -179.5 -277.5 -277.5t-415 -98q-233 0 -412.5 98t-277.5 277.5t-98 412.5t98 412.5t277.5 277.5t412.5 98q236 0 415 -98t277.5 -277.5t98.5 -412.5t-98.5 -412.5zM410.5 373q70.5 -172 198.5 -266.5t296 -94.5t297 94.5t200 266.5t71 395t-71 395t-200 266.5
t-297 94.5t-296 -94.5t-198.5 -266.5t-70.5 -395t70.5 -395z" />
    <glyph glyph-name="Odieresis" unicode="&#xd6;" horiz-adv-x="1812" 
d="M779.5 1699.5q-27.5 -26.5 -72.5 -26.5t-74 26.5t-29 69.5t29 70t74 27t72.5 -27t27.5 -70t-27.5 -69.5zM1181.5 1699.5q-28.5 -26.5 -73.5 -26.5t-72.5 26.5t-27.5 69.5t27.5 70t72.5 27t73.5 -27t28.5 -70t-28.5 -69.5zM1597.5 355.5q-98.5 -179.5 -277.5 -277.5
t-415 -98q-233 0 -412.5 98t-277.5 277.5t-98 412.5t98 412.5t277.5 277.5t412.5 98q236 0 415 -98t277.5 -277.5t98.5 -412.5t-98.5 -412.5zM410.5 373q70.5 -172 198.5 -266.5t296 -94.5t297 94.5t200 266.5t71 395t-71 395t-200 266.5t-297 94.5t-296 -94.5
t-198.5 -266.5t-70.5 -395t70.5 -395z" />
    <glyph glyph-name="multiply" unicode="&#xd7;" horiz-adv-x="970" 
d="M754 281l-267 264l-272 -273l-29 29l273 272l-266 267l28 30l268 -266l256 256l29 -29l-256 -256l264 -266z" />
    <glyph glyph-name="Oslash" unicode="&#xd8;" horiz-adv-x="1812" 
d="M1617 1142q79 -165 79 -374q0 -233 -98.5 -412.5t-277.5 -277.5t-415 -98q-264 0 -452 122l-138 -190l-30 22l135 189q-145 104 -224 270t-79 375q0 233 98 412.5t277.5 277.5t412.5 98q264 0 457 -122l133 186l33 -25l-133 -184q143 -104 222 -269zM379 463
q39 -139 113 -240l804 1118q-74 88 -174 135.5t-217 47.5q-168 0 -296 -94.5t-198.5 -266.5t-70.5 -395q0 -166 39 -305zM1202 106.5q129 94.5 200 266.5t71 395q0 166 -39 303t-113 238l-803 -1116q74 -88 172 -134.5t215 -46.5q168 0 297 94.5z" />
    <glyph glyph-name="Ugrave" unicode="&#xd9;" horiz-adv-x="1515" 
d="M1081 1638l-569 201l12 33l568 -205zM1256.5 242q-64.5 -125 -185.5 -193.5t-283 -68.5q-176 0 -311 72.5t-209.5 203.5t-74.5 303v977h208v-1012q0 -147 51.5 -262t145.5 -177t217 -62q139 0 244.5 62t163 176t57.5 263v1012h41v-1006q0 -163 -64.5 -288z" />
    <glyph glyph-name="Uacute" unicode="&#xda;" horiz-adv-x="1515" 
d="M565 1638l-10 29l565 205l13 -33zM1256.5 242q-64.5 -125 -185.5 -193.5t-283 -68.5q-176 0 -311 72.5t-209.5 203.5t-74.5 303v977h208v-1012q0 -147 51.5 -262t145.5 -177t217 -62q139 0 244.5 62t163 176t57.5 263v1012h41v-1006q0 -163 -64.5 -288z" />
    <glyph glyph-name="Ucircumflex" unicode="&#xdb;" horiz-adv-x="1515" 
d="M494 1626l-15 16l346 261l346 -261l-14 -16l-332 223zM1256.5 242q-64.5 -125 -185.5 -193.5t-283 -68.5q-176 0 -311 72.5t-209.5 203.5t-74.5 303v977h208v-1012q0 -147 51.5 -262t145.5 -177t217 -62q139 0 244.5 62t163 176t57.5 263v1012h41v-1006
q0 -163 -64.5 -288z" />
    <glyph glyph-name="Udieresis" unicode="&#xdc;" horiz-adv-x="1515" 
d="M695.5 1699.5q-27.5 -26.5 -72.5 -26.5t-74 26.5t-29 69.5t29 70t74 27t72.5 -27t27.5 -70t-27.5 -69.5zM1097.5 1699.5q-28.5 -26.5 -73.5 -26.5t-72.5 26.5t-27.5 69.5t27.5 70t72.5 27t73.5 -27t28.5 -70t-28.5 -69.5zM1256.5 242q-64.5 -125 -185.5 -193.5
t-283 -68.5q-176 0 -311 72.5t-209.5 203.5t-74.5 303v977h208v-1012q0 -147 51.5 -262t145.5 -177t217 -62q139 0 244.5 62t163 176t57.5 263v1012h41v-1006q0 -163 -64.5 -288z" />
    <glyph glyph-name="Yacute" unicode="&#xdd;" horiz-adv-x="1421" 
d="M512 1638l-10 29l565 205l12 -33zM829 684v-684h-206v672l-564 864h238l514 -803l500 803h45z" />
    <glyph glyph-name="Thorn" unicode="&#xde;" horiz-adv-x="1277" 
d="M908 1186q128 -53 199 -149.5t71 -221.5q0 -127 -71 -224t-199 -150.5t-296 -53.5h-194v-387h-209v1536h209v-297h194q168 0 296 -53zM852 528.5q102 108.5 102 286.5q0 176 -102 283.5t-270 107.5h-164v-786h164q168 0 270 108.5z" />
    <glyph glyph-name="germandbls" unicode="&#xdf;" horiz-adv-x="1284" 
d="M1117.5 66q-101.5 -86 -265.5 -86q-92 0 -171 26.5t-126 73.5l10 16q39 -33 101.5 -52t121.5 -19q100 0 159 58t59 157q0 88 -41 143t-125 125q-84 72 -126 129t-42 147q0 76 32.5 131.5t98.5 128.5q66 74 99.5 131.5t33.5 135.5q0 115 -77 188.5t-202 73.5
q-129 0 -208.5 -79t-79.5 -210v-1284h-201v1249q0 109 55.5 193t153.5 130t225 46q174 0 276.5 -84t102.5 -221q0 -66 -20.5 -115t-61.5 -125q-37 -59 -54.5 -102t-17.5 -92q0 -76 44 -129.5t135 -122.5q72 -57 112.5 -97.5t70.5 -99.5t30 -135q0 -143 -101.5 -229z" />
    <glyph glyph-name="agrave" unicode="&#xe0;" horiz-adv-x="1175" 
d="M801 1251l-443 256l17 29l440 -258zM899 1020q119 -100 119 -270v-750h-174l-15 246q-61 -121 -173.5 -193.5t-239.5 -72.5q-156 0 -251 87t-95 230q0 135 123.5 217t328.5 82h295v164q0 147 -82 231t-225 84q-90 0 -182 -35.5t-164 -97.5l-14 14q78 76 194.5 120
t235.5 44q200 0 319 -100zM676 108.5q88 69.5 141 182.5v272h-256q-127 0 -202.5 -70.5t-75.5 -189.5t58 -191.5t155 -72.5q92 0 180 69.5z" />
    <glyph glyph-name="aacute" unicode="&#xe1;" horiz-adv-x="1175" 
d="M403 1251l-14 27l438 258l17 -29zM899 1020q119 -100 119 -270v-750h-174l-15 246q-61 -121 -173.5 -193.5t-239.5 -72.5q-156 0 -251 87t-95 230q0 135 123.5 217t328.5 82h295v164q0 147 -82 231t-225 84q-90 0 -182 -35.5t-164 -97.5l-14 14q78 76 194.5 120t235.5 44
q200 0 319 -100zM676 108.5q88 69.5 141 182.5v272h-256q-127 0 -202.5 -70.5t-75.5 -189.5t58 -191.5t155 -72.5q92 0 180 69.5z" />
    <glyph glyph-name="acircumflex" unicode="&#xe2;" horiz-adv-x="1175" 
d="M317 1255l-14 17l297 280l299 -280l-14 -17l-285 242zM899 1020q119 -100 119 -270v-750h-174l-15 246q-61 -121 -173.5 -193.5t-239.5 -72.5q-156 0 -251 87t-95 230q0 135 123.5 217t328.5 82h295v164q0 147 -82 231t-225 84q-90 0 -182 -35.5t-164 -97.5l-14 14
q78 76 194.5 120t235.5 44q200 0 319 -100zM676 108.5q88 69.5 141 182.5v272h-256q-127 0 -202.5 -70.5t-75.5 -189.5t58 -191.5t155 -72.5q92 0 180 69.5z" />
    <glyph glyph-name="atilde" unicode="&#xe3;" horiz-adv-x="1175" 
d="M347 1427.5q-40 -34.5 -73 -104.5l-22 10q70 162 201 162q47 0 82.5 -20.5t80.5 -61.5q43 -37 72 -54.5t66 -17.5q55 0 95 36t73 106l22 -10q-27 -72 -76 -118t-125 -46q-47 0 -83.5 21.5t-79.5 60.5q-39 35 -70 53t-68 18q-55 0 -95 -34.5zM899 1020q119 -100 119 -270
v-750h-174l-15 246q-61 -121 -173.5 -193.5t-239.5 -72.5q-156 0 -251 87t-95 230q0 135 123.5 217t328.5 82h295v164q0 147 -82 231t-225 84q-90 0 -182 -35.5t-164 -97.5l-14 14q78 76 194.5 120t235.5 44q200 0 319 -100zM676 108.5q88 69.5 141 182.5v272h-256
q-127 0 -202.5 -70.5t-75.5 -189.5t58 -191.5t155 -72.5q92 0 180 69.5z" />
    <glyph glyph-name="adieresis" unicode="&#xe4;" horiz-adv-x="1175" 
d="M472 1396.5q-28 -26.5 -73 -26.5t-73.5 26.5t-28.5 69.5t28.5 70t73.5 27t73 -27t28 -70t-28 -69.5zM874.5 1396.5q-28.5 -26.5 -73.5 -26.5t-73 26.5t-28 69.5t28 70t73 27t73.5 -27t28.5 -70t-28.5 -69.5zM899 1020q119 -100 119 -270v-750h-174l-15 246
q-61 -121 -173.5 -193.5t-239.5 -72.5q-156 0 -251 87t-95 230q0 135 123.5 217t328.5 82h295v164q0 147 -82 231t-225 84q-90 0 -182 -35.5t-164 -97.5l-14 14q78 76 194.5 120t235.5 44q200 0 319 -100zM676 108.5q88 69.5 141 182.5v272h-256q-127 0 -202.5 -70.5
t-75.5 -189.5t58 -191.5t155 -72.5q92 0 180 69.5z" />
    <glyph glyph-name="aring" unicode="&#xe5;" horiz-adv-x="1175" 
d="M746.5 1289q-56.5 -52 -146.5 -52t-145.5 52t-55.5 138t55.5 139.5t145.5 53.5t146.5 -53.5t56.5 -139.5t-56.5 -138zM484 1313q44 -43 116 -43t117 43t45 114q0 72 -45 116t-117 44t-116 -44t-44 -116q0 -71 44 -114zM899 1020q119 -100 119 -270v-750h-174l-15 246
q-61 -121 -173.5 -193.5t-239.5 -72.5q-156 0 -251 87t-95 230q0 135 123.5 217t328.5 82h295v164q0 147 -82 231t-225 84q-90 0 -182 -35.5t-164 -97.5l-14 14q78 76 194.5 120t235.5 44q200 0 319 -100zM676 108.5q88 69.5 141 182.5v272h-256q-127 0 -202.5 -70.5
t-75.5 -189.5t58 -191.5t155 -72.5q92 0 180 69.5z" />
    <glyph glyph-name="ae" unicode="&#xe6;" horiz-adv-x="1916" 
d="M1026 571v-22q0 -156 49 -274.5t137 -184t203 -65.5q88 0 183.5 33.5t162.5 93.5l13 -17q-74 -72 -191 -113.5t-235 -41.5q-170 0 -295 83.5t-185 233.5q-70 -145 -190.5 -231t-259.5 -86q-156 0 -251 87t-95 228q0 139 120.5 224t319.5 85h313v154q0 147 -84 232
t-231 85q-90 0 -183.5 -35.5t-162.5 -97.5l-14 14q78 76 194.5 120t235.5 44q137 0 234 -55t140 -156q61 100 162 155.5t225 55.5q147 0 260 -68.5t175.5 -191.5t62.5 -285v-4h-813zM1123 955q-85 -132 -95 -351h598q0 143 -35 253t-99.5 170t-150.5 60q-133 0 -218 -132z
M694.5 121q98.5 82 159.5 217q-29 98 -29 209v24h-274q-121 0 -194.5 -73.5t-73.5 -196.5q0 -119 58 -190.5t155 -71.5q100 0 198.5 82z" />
    <glyph glyph-name="ccedilla" unicode="&#xe7;" horiz-adv-x="1042" 
d="M823.5 20.5q-102.5 -40.5 -209.5 -40.5l-39 -111q121 -4 192 -46t71 -110q0 -82 -111 -133t-293 -51l4 20q115 0 185.5 45.5t70.5 116.5q0 53 -45 88t-121 41l47 142q-141 8 -249.5 80.5t-168 198.5t-59.5 290q0 168 64.5 297t181.5 200.5t270 71.5q98 0 195.5 -36.5
t153.5 -96.5l-13 -18q-51 47 -123.5 76.5t-142.5 29.5q-111 0 -196 -65.5t-131 -184t-46 -274.5t47.5 -275.5t132 -185t197.5 -65.5q72 0 149.5 34.5t135.5 90.5l16 -19q-63 -70 -165.5 -110.5z" />
    <glyph glyph-name="egrave" unicode="&#xe8;" horiz-adv-x="1204" 
d="M817 1251l-442 256l16 29l440 -258zM311 573v-24q0 -156 48.5 -274.5t137.5 -184t205 -65.5q88 0 183.5 33.5t163.5 93.5l12 -17q-72 -70 -188.5 -112.5t-237.5 -42.5q-160 0 -282 71.5t-188.5 200.5t-66.5 297q0 170 65.5 299t186.5 200.5t279 71.5q147 0 259.5 -67.5
t175 -190.5t62.5 -282v-7h-815zM409 956q-85 -131 -96 -350h602q0 143 -35.5 252t-101 169t-149.5 60q-135 0 -220 -131z" />
    <glyph glyph-name="eacute" unicode="&#xe9;" horiz-adv-x="1204" 
d="M418 1251l-15 27l439 258l16 -29zM311 573v-24q0 -156 48.5 -274.5t137.5 -184t205 -65.5q88 0 183.5 33.5t163.5 93.5l12 -17q-72 -70 -188.5 -112.5t-237.5 -42.5q-160 0 -282 71.5t-188.5 200.5t-66.5 297q0 170 65.5 299t186.5 200.5t279 71.5q147 0 259.5 -67.5
t175 -190.5t62.5 -282v-7h-815zM409 956q-85 -131 -96 -350h602q0 143 -35.5 252t-101 169t-149.5 60q-135 0 -220 -131z" />
    <glyph glyph-name="ecircumflex" unicode="&#xea;" horiz-adv-x="1204" 
d="M334 1255l-15 17l297 280l299 -280l-14 -17l-285 242zM311 573v-24q0 -156 48.5 -274.5t137.5 -184t205 -65.5q88 0 183.5 33.5t163.5 93.5l12 -17q-72 -70 -188.5 -112.5t-237.5 -42.5q-160 0 -282 71.5t-188.5 200.5t-66.5 297q0 170 65.5 299t186.5 200.5t279 71.5
q147 0 259.5 -67.5t175 -190.5t62.5 -282v-7h-815zM409 956q-85 -131 -96 -350h602q0 143 -35.5 252t-101 169t-149.5 60q-135 0 -220 -131z" />
    <glyph glyph-name="edieresis" unicode="&#xeb;" horiz-adv-x="1204" 
d="M488.5 1396.5q-27.5 -26.5 -72.5 -26.5t-74 26.5t-29 69.5t29 70t74 27t72.5 -27t27.5 -70t-27.5 -69.5zM891 1396.5q-29 -26.5 -74 -26.5t-72.5 26.5t-27.5 69.5t27.5 70t72.5 27t74 -27t29 -70t-29 -69.5zM311 573v-24q0 -156 48.5 -274.5t137.5 -184t205 -65.5
q88 0 183.5 33.5t163.5 93.5l12 -17q-72 -70 -188.5 -112.5t-237.5 -42.5q-160 0 -282 71.5t-188.5 200.5t-66.5 297q0 170 65.5 299t186.5 200.5t279 71.5q147 0 259.5 -67.5t175 -190.5t62.5 -282v-7h-815zM409 956q-85 -131 -96 -350h602q0 143 -35.5 252t-101 169
t-149.5 60q-135 0 -220 -131z" />
    <glyph glyph-name="igrave" unicode="&#xec;" horiz-adv-x="538" 
d="M459 1255l-402 250l17 29l399 -252zM168 0v1100h201v-1100h-201z" />
    <glyph glyph-name="iacute" unicode="&#xed;" horiz-adv-x="538" 
d="M80 1255l-14 27l399 252l16 -29zM168 0v1100h201v-1100h-201z" />
    <glyph glyph-name="icircumflex" unicode="&#xee;" horiz-adv-x="538" 
d="M8 1255l-14 17l276 280l275 -280l-15 -17l-260 240zM168 0v1100h201v-1100h-201z" />
    <glyph glyph-name="idieresis" unicode="&#xef;" horiz-adv-x="538" 
d="M197.5 1396.5q-27.5 -26.5 -72.5 -26.5t-73.5 26.5t-28.5 69.5t28.5 70t73.5 27t72.5 -27t27.5 -70t-27.5 -69.5zM490.5 1396.5q-27.5 -26.5 -72.5 -26.5t-74 26.5t-29 69.5t29 70t74 27t72.5 -27t27.5 -70t-27.5 -69.5zM168 0v1100h201v-1100h-201z" />
    <glyph glyph-name="eth" unicode="&#xf0;" horiz-adv-x="1302" 
d="M1071 1145q119 -223 119 -516q0 -193 -67.5 -340.5t-191.5 -228t-286 -80.5q-164 0 -288 70.5t-191.5 197.5t-67.5 295q0 166 66.5 293t185.5 197.5t275 70.5q123 0 219 -61.5t151 -172.5q-39 190 -125 340t-211 244l-358 -168l-14 33l340 158q-170 113 -377 118l2 23
q252 -2 448 -107l228 107l14 -33l-203 -94q213 -123 332 -346zM819 78.5q76 66.5 117 186.5t41 278q0 156 -41 274.5t-117 184t-174 65.5q-100 0 -176 -65.5t-117 -184.5t-41 -274q0 -158 41 -278t117 -186.5t176 -66.5q98 0 174 66.5z" />
    <glyph glyph-name="ntilde" unicode="&#xf1;" horiz-adv-x="1273" 
d="M386 1427.5q-40 -34.5 -73 -104.5l-22 10q70 162 201 162q47 0 82.5 -20.5t80.5 -61.5q43 -37 72 -54.5t66 -17.5q55 0 95 36t73 106l22 -10q-27 -72 -76 -118t-125 -46q-47 0 -83.5 21.5t-80.5 60.5q-39 35 -69.5 53t-67.5 18q-55 0 -95 -34.5zM1024 1028
q90 -92 90 -242v-786h-201v834q0 104 -54 167.5t-142 63.5q-102 0 -198.5 -73.5t-149.5 -192.5v-799h-201v1100h174l16 -256q59 125 176 200.5t252 75.5q148 0 238 -92z" />
    <glyph glyph-name="ograve" unicode="&#xf2;" horiz-adv-x="1290" 
d="M846 1251l-443 256l17 29l440 -258zM1123.5 250q-68.5 -129 -192.5 -199.5t-286 -70.5t-285.5 70.5t-192.5 199.5t-69 299t69 299t192.5 200.5t285.5 71.5t286 -71.5t192.5 -200.5t68.5 -299t-68.5 -299zM351 267q42 -122 118 -188.5t176 -66.5q98 0 174 66.5t118 188.5
t42 282t-42 281.5t-118 189t-174 67.5t-175 -67.5t-119 -189t-42 -281.5t42 -282z" />
    <glyph glyph-name="oacute" unicode="&#xf3;" horiz-adv-x="1290" 
d="M446 1251l-14 27l438 258l17 -29zM1123.5 250q-68.5 -129 -192.5 -199.5t-286 -70.5t-285.5 70.5t-192.5 199.5t-69 299t69 299t192.5 200.5t285.5 71.5t286 -71.5t192.5 -200.5t68.5 -299t-68.5 -299zM351 267q42 -122 118 -188.5t176 -66.5q98 0 174 66.5t118 188.5
t42 282t-42 281.5t-118 189t-174 67.5t-175 -67.5t-119 -189t-42 -281.5t42 -282z" />
    <glyph glyph-name="ocircumflex" unicode="&#xf4;" horiz-adv-x="1290" 
d="M362 1255l-14 17l297 280l299 -280l-14 -17l-285 242zM1123.5 250q-68.5 -129 -192.5 -199.5t-286 -70.5t-285.5 70.5t-192.5 199.5t-69 299t69 299t192.5 200.5t285.5 71.5t286 -71.5t192.5 -200.5t68.5 -299t-68.5 -299zM351 267q42 -122 118 -188.5t176 -66.5
q98 0 174 66.5t118 188.5t42 282t-42 281.5t-118 189t-174 67.5t-175 -67.5t-119 -189t-42 -281.5t42 -282z" />
    <glyph glyph-name="otilde" unicode="&#xf5;" horiz-adv-x="1290" 
d="M392 1427.5q-40 -34.5 -73 -104.5l-22 10q70 162 201 162q47 0 82.5 -20.5t81.5 -61.5q43 -37 71.5 -54.5t65.5 -17.5q55 0 95 36t73 106l22 -10q-27 -72 -76 -118t-125 -46q-47 0 -83.5 21.5t-79.5 60.5q-39 35 -70 53t-68 18q-55 0 -95 -34.5zM1123.5 250
q-68.5 -129 -192.5 -199.5t-286 -70.5t-285.5 70.5t-192.5 199.5t-69 299t69 299t192.5 200.5t285.5 71.5t286 -71.5t192.5 -200.5t68.5 -299t-68.5 -299zM351 267q42 -122 118 -188.5t176 -66.5q98 0 174 66.5t118 188.5t42 282t-42 281.5t-118 189t-174 67.5t-175 -67.5
t-119 -189t-42 -281.5t42 -282z" />
    <glyph glyph-name="odieresis" unicode="&#xf6;" horiz-adv-x="1290" 
d="M517 1396.5q-28 -26.5 -73 -26.5t-73.5 26.5t-28.5 69.5t28.5 70t73.5 27t73 -27t28 -70t-28 -69.5zM919.5 1396.5q-28.5 -26.5 -73.5 -26.5t-73 26.5t-28 69.5t28 70t73 27t73.5 -27t28.5 -70t-28.5 -69.5zM1123.5 250q-68.5 -129 -192.5 -199.5t-286 -70.5t-285.5 70.5
t-192.5 199.5t-69 299t69 299t192.5 200.5t285.5 71.5t286 -71.5t192.5 -200.5t68.5 -299t-68.5 -299zM351 267q42 -122 118 -188.5t176 -66.5q98 0 174 66.5t118 188.5t42 282t-42 281.5t-118 189t-174 67.5t-175 -67.5t-119 -189t-42 -281.5t42 -282z" />
    <glyph glyph-name="divide" unicode="&#xf7;" horiz-adv-x="970" 
d="M555 774.5q-27 -26.5 -70 -26.5t-69.5 26.5t-26.5 71.5q0 43 26.5 69.5t69.5 26.5t70 -26.5t27 -69.5q0 -45 -27 -71.5zM127 557v33h717v-33h-717zM555 231.5q-27 -26.5 -70 -26.5t-69.5 26.5t-26.5 71.5q0 43 26.5 69.5t69.5 26.5t70 -26.5t27 -69.5q0 -45 -27 -71.5z
" />
    <glyph glyph-name="oslash" unicode="&#xf8;" horiz-adv-x="1290" 
d="M1142 811q50 -117 50 -262q0 -170 -68.5 -299t-192.5 -199.5t-286 -70.5q-188 0 -326 96l-108 -150l-29 23l109 149q-92 74 -142.5 191t-50.5 260q0 170 69 299t192.5 200.5t285.5 71.5q190 0 322 -94l108 148l29 -23l-107 -147q95 -76 145 -193zM375 211l520 715
q-45 78 -108.5 119.5t-141.5 41.5q-98 0 -175 -67.5t-119 -189t-42 -281.5q0 -201 66 -338zM819 78.5q76 66.5 118 188.5t42 282q0 205 -66 342l-520 -715q45 -80 108.5 -122t143.5 -42q98 0 174 66.5z" />
    <glyph glyph-name="ugrave" unicode="&#xf9;" horiz-adv-x="1253" 
d="M819 1251l-442 256l16 29l441 -258zM1083 1100v-1100h-174l-14 246q-59 -121 -173 -193.5t-245 -72.5q-143 0 -231 88t-88 233v799h200v-846q0 -98 52.5 -158.5t136.5 -60.5q100 0 192 70.5t144 185.5v809h200z" />
    <glyph glyph-name="uacute" unicode="&#xfa;" horiz-adv-x="1253" 
d="M422 1251l-14 27l438 258l16 -29zM1083 1100v-1100h-174l-14 246q-59 -121 -173 -193.5t-245 -72.5q-143 0 -231 88t-88 233v799h200v-846q0 -98 52.5 -158.5t136.5 -60.5q100 0 192 70.5t144 185.5v809h200z" />
    <glyph glyph-name="ucircumflex" unicode="&#xfb;" horiz-adv-x="1253" 
d="M336 1255l-14 17l296 280l300 -280l-15 -17l-285 242zM1083 1100v-1100h-174l-14 246q-59 -121 -173 -193.5t-245 -72.5q-143 0 -231 88t-88 233v799h200v-846q0 -98 52.5 -158.5t136.5 -60.5q100 0 192 70.5t144 185.5v809h200z" />
    <glyph glyph-name="udieresis" unicode="&#xfc;" horiz-adv-x="1253" 
d="M492.5 1396.5q-27.5 -26.5 -72.5 -26.5t-74 26.5t-29 69.5t29 70t74 27t72.5 -27t27.5 -70t-27.5 -69.5zM895 1396.5q-29 -26.5 -74 -26.5t-72.5 26.5t-27.5 69.5t27.5 70t72.5 27t74 -27t29 -70t-29 -69.5zM1083 1100v-1100h-174l-14 246q-59 -121 -173 -193.5
t-245 -72.5q-143 0 -231 88t-88 233v799h200v-846q0 -98 52.5 -158.5t136.5 -60.5q100 0 192 70.5t144 185.5v809h200z" />
    <glyph glyph-name="yacute" unicode="&#xfd;" horiz-adv-x="1112" 
d="M410 1251l-15 27l439 258l16 -29zM1081 1100l-675 -1555h-41l182 420l-512 1135h219l395 -897l391 897h41z" />
    <glyph glyph-name="thorn" unicode="&#xfe;" horiz-adv-x="1294" 
d="M971.5 1048.5q105.5 -71.5 164 -200.5t58.5 -299t-58.5 -299t-164 -199.5t-244.5 -70.5q-119 0 -215 65.5t-143 175.5v-672h-201v2048h201v-720q47 113 144 178t214 65q139 0 244.5 -71.5zM833.5 97.5q69.5 64.5 108.5 181t39 270.5t-39 271.5t-108.5 182t-161.5 64.5
q-96 0 -179 -73.5t-124 -192.5v-502q39 -121 121.5 -193.5t181.5 -72.5q92 0 161.5 64.5z" />
    <glyph glyph-name="ydieresis" unicode="&#xff;" horiz-adv-x="1112" 
d="M480.5 1396.5q-27.5 -26.5 -72.5 -26.5t-74 26.5t-29 69.5t28.5 70t74.5 27q45 0 72.5 -27t27.5 -70t-27.5 -69.5zM882.5 1396.5q-28.5 -26.5 -73.5 -26.5t-72.5 26.5t-27.5 69.5t27.5 70t72.5 27t73.5 -27t28.5 -70t-28.5 -69.5zM1081 1100l-675 -1555h-41l182 420
l-512 1135h219l395 -897l391 897h41z" />
    <glyph glyph-name="Amacron" unicode="&#x100;" horiz-adv-x="1421" 
d="M401 1673v33h592v-33h-592zM983 428h-721l-176 -428h-43l641 1556h27l671 -1556h-217zM969 461l-353 829l-342 -829h695z" />
    <glyph glyph-name="amacron" unicode="&#x101;" horiz-adv-x="1175" 
d="M305 1374v33h592v-33h-592zM899 1020q119 -100 119 -270v-750h-174l-15 246q-61 -121 -173.5 -193.5t-239.5 -72.5q-156 0 -251 87t-95 230q0 135 123.5 217t328.5 82h295v164q0 147 -82 231t-225 84q-90 0 -182 -35.5t-164 -97.5l-14 14q78 76 194.5 120t235.5 44
q200 0 319 -100zM676 108.5q88 69.5 141 182.5v272h-256q-127 0 -202.5 -70.5t-75.5 -189.5t58 -191.5t155 -72.5q92 0 180 69.5z" />
    <glyph glyph-name="Abreve" unicode="&#x102;" horiz-adv-x="1421" 
d="M896 1735.5q-91 -62.5 -198 -62.5q-106 0 -197 62.5t-136 165.5l22 10q49 -90 135 -145.5t176 -55.5t176.5 55.5t135.5 145.5l22 -10q-45 -103 -136 -165.5zM983 428h-721l-176 -428h-43l641 1556h27l671 -1556h-217zM969 461l-353 829l-342 -829h695z" />
    <glyph glyph-name="abreve" unicode="&#x103;" horiz-adv-x="1175" 
d="M772 1343.5q-80 -65.5 -172 -65.5t-172 65.5t-121 172.5l21 10q43 -94 117.5 -152.5t154.5 -58.5t154.5 58.5t117.5 152.5l21 -10q-41 -107 -121 -172.5zM899 1020q119 -100 119 -270v-750h-174l-15 246q-61 -121 -173.5 -193.5t-239.5 -72.5q-156 0 -251 87t-95 230
q0 135 123.5 217t328.5 82h295v164q0 147 -82 231t-225 84q-90 0 -182 -35.5t-164 -97.5l-14 14q78 76 194.5 120t235.5 44q200 0 319 -100zM676 108.5q88 69.5 141 182.5v272h-256q-127 0 -202.5 -70.5t-75.5 -189.5t58 -191.5t155 -72.5q92 0 180 69.5z" />
    <glyph glyph-name="Aogonek" unicode="&#x104;" horiz-adv-x="1421" 
d="M1397 -428q-35 -20 -84 -31.5t-96 -11.5q-94 0 -150.5 46t-56.5 124q0 86 83 167t228 134h-156l-182 428h-721l-176 -428h-43l641 1556h27l671 -1556q-102 -53 -164.5 -132t-62.5 -157q0 -61 36 -98t95 -37q63 0 103 16zM969 461l-353 829l-342 -829h695z" />
    <glyph glyph-name="aogonek" unicode="&#x105;" horiz-adv-x="1175" 
d="M1034 -428q-35 -20 -84 -31.5t-96 -11.5q-94 0 -150.5 46t-56.5 124q0 86 83 167t226 134h-112l-15 246q-61 -121 -173.5 -193.5t-239.5 -72.5q-156 0 -251 87t-95 230q0 135 123.5 217t328.5 82h295v164q0 147 -82 231t-225 84q-90 0 -182 -35.5t-164 -97.5l-14 14
q78 76 194.5 120t235.5 44q201 0 319.5 -100t118.5 -270v-750q-102 -53 -164.5 -133t-62.5 -156q0 -61 36.5 -98t96.5 -37q59 0 102 16zM676 108.5q88 69.5 141 182.5v272h-256q-127 0 -202.5 -70.5t-75.5 -189.5t58 -191.5t155 -72.5q92 0 180 69.5z" />
    <glyph glyph-name="Cacute" unicode="&#x106;" horiz-adv-x="1472" 
d="M612 1638l-10 29l565 205l13 -33zM1178.5 41q-152.5 -61 -308.5 -61q-223 0 -393 98t-264 277.5t-94 412.5t94 412.5t264 277.5t393 98q152 0 298.5 -55t236.5 -145l-19 -19q-80 76 -205.5 122t-246.5 46q-176 0 -310.5 -92t-208 -259t-73.5 -386t73.5 -386t209 -259
t311.5 -92q125 0 257 54t218 142l16 -24q-96 -101 -248.5 -162z" />
    <glyph glyph-name="cacute" unicode="&#x107;" horiz-adv-x="1042" 
d="M410 1251l-15 27l439 258l16 -29zM823.5 20.5q-102.5 -40.5 -209.5 -40.5q-154 0 -270.5 70.5t-181 200.5t-64.5 300q0 168 64.5 297t181.5 200.5t270 71.5q98 0 195.5 -36.5t153.5 -96.5l-13 -18q-51 47 -123.5 76.5t-142.5 29.5q-111 0 -196 -65.5t-131 -184
t-46 -274.5t47.5 -275.5t132 -185t197.5 -65.5q72 0 149.5 34.5t135.5 90.5l16 -19q-63 -70 -165.5 -110.5z" />
    <glyph glyph-name="Cdotaccent" unicode="&#x10a;" horiz-adv-x="1472" 
d="M959.5 1696q-33.5 -33 -89.5 -33q-57 0 -91 33t-34 86t34 86t91 33q55 0 89 -33t34 -86t-33.5 -86zM1178.5 41q-152.5 -61 -308.5 -61q-223 0 -393 98t-264 277.5t-94 412.5t94 412.5t264 277.5t393 98q152 0 298.5 -55t236.5 -145l-19 -19q-80 76 -205.5 122t-246.5 46
q-176 0 -310.5 -92t-208 -259t-73.5 -386t73.5 -386t209 -259t311.5 -92q125 0 257 54t218 142l16 -24q-96 -101 -248.5 -162z" />
    <glyph glyph-name="cdotaccent" unicode="&#x10b;" horiz-adv-x="1042" 
d="M692 1372q-33 -31 -88 -31q-53 0 -87 32t-34 83t34 84t87 33q55 0 88 -32t33 -85t-33 -84zM823.5 20.5q-102.5 -40.5 -209.5 -40.5q-154 0 -270.5 70.5t-181 200.5t-64.5 300q0 168 64.5 297t181.5 200.5t270 71.5q98 0 195.5 -36.5t153.5 -96.5l-13 -18
q-51 47 -123.5 76.5t-142.5 29.5q-111 0 -196 -65.5t-131 -184t-46 -274.5t47.5 -275.5t132 -185t197.5 -65.5q72 0 149.5 34.5t135.5 90.5l16 -19q-63 -70 -165.5 -110.5z" />
    <glyph glyph-name="Ccaron" unicode="&#x10c;" horiz-adv-x="1472" 
d="M1204 1903l15 -17l-347 -260l-346 260l15 17l331 -222zM1178.5 41q-152.5 -61 -308.5 -61q-223 0 -393 98t-264 277.5t-94 412.5t94 412.5t264 277.5t393 98q152 0 298.5 -55t236.5 -145l-19 -19q-80 76 -205.5 122t-246.5 46q-176 0 -310.5 -92t-208 -259t-73.5 -386
t73.5 -386t209 -259t311.5 -92q125 0 257 54t218 142l16 -24q-96 -101 -248.5 -162z" />
    <glyph glyph-name="ccaron" unicode="&#x10d;" horiz-adv-x="1042" 
d="M891 1552l14 -16l-299 -281l-297 281l15 16l282 -241zM823.5 20.5q-102.5 -40.5 -209.5 -40.5q-154 0 -270.5 70.5t-181 200.5t-64.5 300q0 168 64.5 297t181.5 200.5t270 71.5q98 0 195.5 -36.5t153.5 -96.5l-13 -18q-51 47 -123.5 76.5t-142.5 29.5q-111 0 -196 -65.5
t-131 -184t-46 -274.5t47.5 -275.5t132 -185t197.5 -65.5q72 0 149.5 34.5t135.5 90.5l16 -19q-63 -70 -165.5 -110.5z" />
    <glyph glyph-name="Dcaron" unicode="&#x10e;" horiz-adv-x="1669" 
d="M1077 1903l15 -17l-347 -260l-346 260l15 17l331 -222zM1157.5 1439.5q188.5 -96.5 291.5 -270.5t103 -401t-103 -401t-291.5 -270.5t-434.5 -96.5h-514v1536h514q246 0 434.5 -96.5zM1025 125q144 92 224 259t80 384t-80 384t-224 259t-333 92h-274v-1470h274
q189 0 333 92z" />
    <glyph glyph-name="dcaron" unicode="&#x10f;" horiz-adv-x="1294" 
d="M1374 1597l-102 -419l-29 8l96 420zM924 1597h200v-1597h-174l-14 252q-41 -123 -143.5 -197.5t-227.5 -74.5q-137 0 -242.5 70.5t-164 199.5t-58.5 299t58.5 299t164 200.5t242.5 71.5q119 0 215.5 -65.5t143.5 -175.5v718zM801 105.5q82 72.5 123 193.5v502
q-39 119 -121 192.5t-180 73.5q-92 0 -163 -64.5t-110 -182.5t-39 -271q0 -154 39 -270.5t109.5 -181t163.5 -64.5q96 0 178 72.5z" />
    <glyph glyph-name="Dcroat" unicode="&#x110;" horiz-adv-x="1685" 
d="M1171.5 1439.5q188.5 -96.5 293 -270.5t104.5 -401t-104.5 -401t-293 -270.5t-434.5 -96.5h-512v799h-174v32h174v705h512q246 0 434.5 -96.5zM1041.5 125q144.5 92 224.5 259t80 384t-80 384t-224.5 259t-334.5 92h-273v-672h387v-32h-387v-766h273q190 0 334.5 92z" />
    <glyph glyph-name="dcroat" unicode="&#x111;" horiz-adv-x="1294" 
d="M1303 1329h-179v-1329h-174l-14 252q-41 -123 -143.5 -197.5t-227.5 -74.5q-137 0 -242.5 70.5t-164 199.5t-58.5 299t58.5 299t164 200.5t242.5 71.5q119 0 215.5 -65.5t143.5 -175.5v450h-392v33h392v235h200v-235h179v-33zM801 105.5q82 72.5 123 193.5v502
q-39 119 -121 192.5t-180 73.5q-92 0 -163 -64.5t-110 -182.5t-39 -271q0 -154 39 -270.5t109.5 -181t163.5 -64.5q96 0 178 72.5z" />
    <glyph glyph-name="Emacron" unicode="&#x112;" horiz-adv-x="1095" 
d="M313 1673v33h592v-33h-592zM1010 33v-33h-801v1536h786v-33h-577v-674h483v-32h-483v-764h592z" />
    <glyph glyph-name="emacron" unicode="&#x113;" horiz-adv-x="1204" 
d="M319 1374v33h592v-33h-592zM311 573v-24q0 -156 48.5 -274.5t137.5 -184t205 -65.5q88 0 183.5 33.5t163.5 93.5l12 -17q-72 -70 -188.5 -112.5t-237.5 -42.5q-160 0 -282 71.5t-188.5 200.5t-66.5 297q0 170 65.5 299t186.5 200.5t279 71.5q147 0 259.5 -67.5
t175 -190.5t62.5 -282v-7h-815zM409 956q-85 -131 -96 -350h602q0 143 -35.5 252t-101 169t-149.5 60q-135 0 -220 -131z" />
    <glyph glyph-name="Edotaccent" unicode="&#x116;" horiz-adv-x="1095" 
d="M699.5 1696q-33.5 -33 -89.5 -33q-57 0 -91 33t-34 86t34 86t91 33q55 0 89 -33t34 -86t-33.5 -86zM1010 33v-33h-801v1536h786v-33h-577v-674h483v-32h-483v-764h592z" />
    <glyph glyph-name="edotaccent" unicode="&#x117;" horiz-adv-x="1204" 
d="M702.5 1372q-32.5 -31 -88.5 -31q-53 0 -86.5 32t-33.5 83t33.5 84t86.5 33q55 0 88 -32t33 -85t-32.5 -84zM311 573v-24q0 -156 48.5 -274.5t137.5 -184t205 -65.5q88 0 183.5 33.5t163.5 93.5l12 -17q-72 -70 -188.5 -112.5t-237.5 -42.5q-160 0 -282 71.5
t-188.5 200.5t-66.5 297q0 170 65.5 299t186.5 200.5t279 71.5q147 0 259.5 -67.5t175 -190.5t62.5 -282v-7h-815zM409 956q-85 -131 -96 -350h602q0 143 -35.5 252t-101 169t-149.5 60q-135 0 -220 -131z" />
    <glyph glyph-name="Eogonek" unicode="&#x118;" horiz-adv-x="1095" 
d="M1024 -428q-35 -20 -84 -31.5t-94 -11.5q-94 0 -151.5 47t-57.5 123q0 86 84 167t227 134h-739v1536h786v-33h-577v-674h483v-32h-483v-764h592v-33q-102 -53 -165 -133t-63 -156q0 -61 37 -98t96 -37t103 16z" />
    <glyph glyph-name="eogonek" unicode="&#x119;" horiz-adv-x="1204" 
d="M311 573v-24q0 -156 48.5 -274.5t137.5 -184t205 -65.5q88 0 183.5 33.5t163.5 93.5l12 -17q-57 -57 -148 -96q-135 -80 -202.5 -162t-67.5 -158q0 -66 34 -106.5t91 -40.5q66 0 111 22l8 -22q-35 -20 -84 -31.5t-96 -11.5q-94 0 -150.5 46t-56.5 124q0 80 73.5 157.5
t206.5 139.5q-76 -16 -145 -16q-160 0 -282 71.5t-188.5 200.5t-66.5 297q0 170 65.5 299t186.5 200.5t279 71.5q147 0 259.5 -67.5t175 -190.5t62.5 -282v-7h-815zM409 956q-85 -131 -96 -350h602q0 143 -35.5 252t-101 169t-149.5 60q-135 0 -220 -131z" />
    <glyph glyph-name="Ecaron" unicode="&#x11a;" horiz-adv-x="1095" 
d="M942 1903l14 -17l-346 -260l-346 260l15 17l331 -222zM1010 33v-33h-801v1536h786v-33h-577v-674h483v-32h-483v-764h592z" />
    <glyph glyph-name="ecaron" unicode="&#x11b;" horiz-adv-x="1204" 
d="M901 1552l14 -16l-299 -281l-297 281l15 16l282 -241zM311 573v-24q0 -156 48.5 -274.5t137.5 -184t205 -65.5q88 0 183.5 33.5t163.5 93.5l12 -17q-72 -70 -188.5 -112.5t-237.5 -42.5q-160 0 -282 71.5t-188.5 200.5t-66.5 297q0 170 65.5 299t186.5 200.5t279 71.5
q147 0 259.5 -67.5t175 -190.5t62.5 -282v-7h-815zM409 956q-85 -131 -96 -350h602q0 143 -35.5 252t-101 169t-149.5 60q-135 0 -220 -131z" />
    <glyph glyph-name="Gbreve" unicode="&#x11e;" horiz-adv-x="1613" 
d="M1068 1735.5q-91 -62.5 -198 -62.5q-106 0 -197 62.5t-136 165.5l22 10q49 -90 135 -145.5t176 -55.5t176.5 55.5t135.5 145.5l22 -10q-45 -103 -136 -165.5zM1481 815v-625q-102 -94 -271.5 -152t-339.5 -58q-223 0 -393 98t-264 277.5t-94 412.5t94 412.5t264 277.5
t393 98q160 0 315.5 -58t250.5 -152l-15 -19q-88 80 -222 129t-265 49q-176 0 -310.5 -92t-208 -259t-73.5 -386t73.5 -386t209 -259t311.5 -92q168 0 336 67v717h209z" />
    <glyph glyph-name="gbreve" unicode="&#x11f;" horiz-adv-x="1294" 
d="M831.5 1341.5q-79.5 -65.5 -172.5 -65.5q-92 0 -171.5 65.5t-120.5 171.5l20 11q43 -94 118 -152.5t154 -58.5q80 0 155 58.5t118 152.5l20 -11q-41 -106 -120.5 -171.5zM1124 1100v-1082q0 -145 -71.5 -256.5t-201.5 -172t-302 -60.5q-98 0 -204.5 37t-178.5 98l16 19
q63 -51 155.5 -83t178.5 -32q121 0 214 52t143.5 146.5t50.5 217.5v237q-47 -111 -143.5 -176t-215.5 -65q-137 0 -242.5 70.5t-164 199.5t-58.5 299t58.5 299t164 200.5t242.5 71.5q127 0 228.5 -74.5t142.5 -197.5l14 252h174zM801 105.5q82 72.5 123 193.5v502
q-39 119 -121 192.5t-180 73.5q-92 0 -163 -64.5t-110 -182.5t-39 -271q0 -154 39 -270.5t109.5 -181t163.5 -64.5q96 0 178 72.5z" />
    <glyph glyph-name="Gdotaccent" unicode="&#x120;" horiz-adv-x="1613" 
d="M959.5 1696q-33.5 -33 -89.5 -33q-57 0 -91 33t-34 86t34 86t91 33q55 0 89 -33t34 -86t-33.5 -86zM1481 815v-625q-102 -94 -271.5 -152t-339.5 -58q-223 0 -393 98t-264 277.5t-94 412.5t94 412.5t264 277.5t393 98q160 0 315.5 -58t250.5 -152l-15 -19
q-88 80 -222 129t-265 49q-176 0 -310.5 -92t-208 -259t-73.5 -386t73.5 -386t209 -259t311.5 -92q168 0 336 67v717h209z" />
    <glyph glyph-name="gdotaccent" unicode="&#x121;" horiz-adv-x="1294" 
d="M745.5 1370q-32.5 -31 -88.5 -31q-53 0 -86.5 32t-33.5 83t33.5 84t86.5 33q55 0 88 -32t33 -85t-32.5 -84zM1124 1100v-1082q0 -145 -71.5 -256.5t-201.5 -172t-302 -60.5q-98 0 -204.5 37t-178.5 98l16 19q63 -51 155.5 -83t178.5 -32q121 0 214 52t143.5 146.5
t50.5 217.5v237q-47 -111 -143.5 -176t-215.5 -65q-137 0 -242.5 70.5t-164 199.5t-58.5 299t58.5 299t164 200.5t242.5 71.5q127 0 228.5 -74.5t142.5 -197.5l14 252h174zM801 105.5q82 72.5 123 193.5v502q-39 119 -121 192.5t-180 73.5q-92 0 -163 -64.5t-110 -182.5
t-39 -271q0 -154 39 -270.5t109.5 -181t163.5 -64.5q96 0 178 72.5z" />
    <glyph glyph-name="uni0122" unicode="&#x122;" horiz-adv-x="1613" 
d="M951.5 -153.5q31.5 -36.5 31.5 -104.5q0 -80 -50 -151.5t-128 -106.5l-14 22q63 33 105 91.5t48 121.5q-31 -31 -84 -30q-45 0 -73.5 26.5t-28.5 69.5q0 45 30.5 71.5t79.5 26.5q52 0 83.5 -36.5zM1481 815v-625q-102 -94 -271.5 -152t-339.5 -58q-223 0 -393 98
t-264 277.5t-94 412.5t94 412.5t264 277.5t393 98q160 0 315.5 -58t250.5 -152l-15 -19q-88 80 -222 129t-265 49q-176 0 -310.5 -92t-208 -259t-73.5 -386t73.5 -386t209 -259t311.5 -92q168 0 336 67v717h209z" />
    <glyph glyph-name="uni0123" unicode="&#x123;" horiz-adv-x="1294" 
d="M738.5 1415q27.5 -31 27.5 -80t-30.5 -78.5t-80.5 -29.5q-51 0 -82.5 41t-31.5 114q0 106 50 202.5t130 144.5l14 -23q-68 -47 -109.5 -129t-45.5 -172q31 41 86 41q45 0 72.5 -31zM1124 1100v-1082q0 -145 -71.5 -256.5t-201.5 -172t-302 -60.5q-98 0 -204.5 37
t-178.5 98l16 19q63 -51 155.5 -83t178.5 -32q121 0 214 52t143.5 146.5t50.5 217.5v237q-47 -111 -143.5 -176t-215.5 -65q-137 0 -242.5 70.5t-164 199.5t-58.5 299t58.5 299t164 200.5t242.5 71.5q127 0 228.5 -74.5t142.5 -197.5l14 252h174zM801 105.5
q82 72.5 123 193.5v502q-39 119 -121 192.5t-180 73.5q-92 0 -163 -64.5t-110 -182.5t-39 -271q0 -154 39 -270.5t109.5 -181t163.5 -64.5q96 0 178 72.5z" />
    <glyph glyph-name="Hbar" unicode="&#x126;" horiz-adv-x="1536" 
d="M1462 1194h-137v-1194h-209v797h-696v-797h-209v1194h-135v33h135v309h209v-309h696v309h209v-309h137v-33zM1116 1194h-696v-365h696v365z" />
    <glyph glyph-name="hbar" unicode="&#x127;" horiz-adv-x="1273" 
d="M1024 1028q90 -92 90 -242v-786h-201v834q0 104 -54 167.5t-142 63.5q-102 0 -198.5 -73.5t-149.5 -192.5v-799h-201v1329h-193v33h193v235h201v-235h376v-33h-376v-465q61 117 174.5 186.5t242.5 69.5q148 0 238 -92z" />
    <glyph glyph-name="Imacron" unicode="&#x12a;" horiz-adv-x="626" 
d="M113 1673v33h403v-33h-403zM209 0v1536h209v-1536h-209z" />
    <glyph glyph-name="imacron" unicode="&#x12b;" horiz-adv-x="538" 
d="M68 1374v33h403v-33h-403zM168 0v1100h201v-1100h-201z" />
    <glyph glyph-name="Iogonek" unicode="&#x12e;" horiz-adv-x="626" 
d="M432 -428q-35 -20 -84 -31.5t-94 -11.5q-94 0 -151.5 47t-57.5 123q0 86 84 167t227 134h-147v1536h209v-1536q-102 -53 -165 -133t-63 -156q0 -61 37 -98t97 -37q59 0 102 16z" />
    <glyph glyph-name="iogonek" unicode="&#x12f;" horiz-adv-x="538" 
d="M180 1372q-33 31 -33 84t33 85t88 32q53 0 87 -33t34 -84t-33.5 -83t-87.5 -32q-55 0 -88 31zM377 -408l8 -20q-35 -20 -84 -31.5t-96 -11.5q-94 0 -150.5 46t-56.5 124q0 86 83 167t228 134h-141v1100h201v-1100q-102 -53 -165 -133t-63 -156q0 -61 37 -98t96 -37
q60 0 103 16z" />
    <glyph glyph-name="Idotaccent" unicode="&#x130;" horiz-adv-x="626" 
d="M402.5 1696q-33.5 -33 -89.5 -33q-57 0 -91 33t-34 86t34 86t91 33q55 0 89 -33t34 -86t-33.5 -86zM209 0v1536h209v-1536h-209z" />
    <glyph glyph-name="dotlessi" unicode="&#x131;" horiz-adv-x="538" 
d="M168 0v1100h201v-1100h-201z" />
    <glyph glyph-name="uni0136" unicode="&#x136;" horiz-adv-x="1353" 
d="M814 -153.5q32 -36.5 32 -104.5q0 -80 -50.5 -151.5t-127.5 -106.5l-15 22q63 33 105.5 91.5t48.5 121.5q-31 -31 -84 -30q-45 0 -73.5 26.5t-28.5 69.5q0 45 30.5 71.5t79.5 26.5q51 0 83 -36.5zM209 1536h209v-1536h-209v1536zM1358 0h-246l-649 809l749 727h54
l-633 -614z" />
    <glyph glyph-name="uni0137" unicode="&#x137;" horiz-adv-x="1130" 
d="M691 -153.5q32 -36.5 32 -104.5q0 -80 -50 -151.5t-128 -106.5l-15 22q63 33 105.5 91.5t48.5 121.5q-31 -31 -84 -30q-45 0 -73.5 26.5t-28.5 69.5q0 45 30.5 71.5t79.5 26.5q51 0 83 -36.5zM168 1597h201v-1597h-201v1597zM1133 0h-232l-489 604l592 496h53l-475 -398z
" />
    <glyph glyph-name="Lacute" unicode="&#x139;" horiz-adv-x="1056" 
d="M92 1638l-10 29l565 205l12 -33zM1020 33v-33h-811v1536h209v-1503h602z" />
    <glyph glyph-name="lacute" unicode="&#x13a;" horiz-adv-x="538" 
d="M68 1698l-11 28l510 187l13 -31zM168 0v1597h201v-1597h-201z" />
    <glyph glyph-name="uni013B" unicode="&#x13b;" horiz-adv-x="1056" 
d="M705.5 -153.5q31.5 -36.5 31.5 -104.5q0 -80 -50 -151.5t-128 -106.5l-14 22q63 33 105 91.5t48 121.5q-31 -31 -84 -30q-45 0 -73.5 26.5t-28.5 69.5q0 45 30.5 71.5t80.5 26.5q51 0 82.5 -36.5zM1020 33v-33h-811v1536h209v-1503h602z" />
    <glyph glyph-name="uni013C" unicode="&#x13c;" horiz-adv-x="538" 
d="M351 -153.5q32 -36.5 32 -104.5q0 -80 -50 -151.5t-128 -106.5l-15 22q63 33 105.5 91.5t48.5 121.5q-31 -31 -84 -30q-45 0 -73.5 26.5t-28.5 69.5q0 45 30.5 71.5t79.5 26.5q51 0 83 -36.5zM168 0v1597h201v-1597h-201z" />
    <glyph glyph-name="Lcaron" unicode="&#x13d;" horiz-adv-x="1062" 
d="M799 1178l-29 8l94 420l35 -9zM1020 33v-33h-811v1536h209v-1503h602z" />
    <glyph glyph-name="lcaron" unicode="&#x13e;" horiz-adv-x="538" 
d="M518 1178l-29 8l97 420l32 -9zM168 0v1597h201v-1597h-201z" />
    <glyph glyph-name="Lslash" unicode="&#x141;" horiz-adv-x="1101" 
d="M1061 33v-33h-809v731l-162 -110l-20 28l182 125v762h209v-647l330 231l18 -28l-348 -244v-815h600z" />
    <glyph glyph-name="lslash" unicode="&#x142;" horiz-adv-x="630" 
d="M420 975v-975h-201v862l-151 -104l-21 28l172 117v694h201v-579l149 102l21 -28z" />
    <glyph glyph-name="Nacute" unicode="&#x143;" horiz-adv-x="1531" 
d="M522 1638l-10 29l565 205l13 -33zM209 0v1556h31l1042 -1273v1253h41v-1556h-29l-1044 1273v-1253h-41z" />
    <glyph glyph-name="nacute" unicode="&#x144;" horiz-adv-x="1273" 
d="M440 1251l-14 27l438 258l17 -29zM1024 1028q90 -92 90 -242v-786h-201v834q0 104 -54 167.5t-142 63.5q-102 0 -198.5 -73.5t-149.5 -192.5v-799h-201v1100h174l16 -256q59 125 176 200.5t252 75.5q148 0 238 -92z" />
    <glyph glyph-name="uni0145" unicode="&#x145;" horiz-adv-x="1531" 
d="M849 -153.5q32 -36.5 32 -104.5q0 -80 -50.5 -151.5t-128.5 -106.5l-14 22q63 33 105.5 91.5t48.5 121.5q-31 -31 -84 -30q-45 0 -74 26.5t-29 69.5q0 45 31 71.5t80 26.5q51 0 83 -36.5zM209 0v1556h31l1042 -1273v1253h41v-1556h-29l-1044 1273v-1253h-41z" />
    <glyph glyph-name="uni0146" unicode="&#x146;" horiz-adv-x="1273" 
d="M720 -153.5q32 -36.5 32 -104.5q0 -80 -50.5 -151.5t-128.5 -106.5l-14 22q63 33 105.5 91.5t48.5 121.5q-31 -31 -84 -30q-45 0 -74 26.5t-29 69.5q0 45 31 71.5t80 26.5q51 0 83 -36.5zM1024 1028q90 -92 90 -242v-786h-201v834q0 104 -54 167.5t-142 63.5
q-102 0 -198.5 -73.5t-149.5 -192.5v-799h-201v1100h174l16 -256q59 125 176 200.5t252 75.5q148 0 238 -92z" />
    <glyph glyph-name="Ncaron" unicode="&#x147;" horiz-adv-x="1531" 
d="M1112 1903l14 -17l-346 -260l-346 260l15 17l331 -222zM209 0v1556h31l1042 -1273v1253h41v-1556h-29l-1044 1273v-1253h-41z" />
    <glyph glyph-name="ncaron" unicode="&#x148;" horiz-adv-x="1273" 
d="M922 1552l14 -16l-299 -281l-297 281l14 16l283 -241zM1024 1028q90 -92 90 -242v-786h-201v834q0 104 -54 167.5t-142 63.5q-102 0 -198.5 -73.5t-149.5 -192.5v-799h-201v1100h174l16 -256q59 125 176 200.5t252 75.5q148 0 238 -92z" />
    <glyph glyph-name="Eng" unicode="&#x14a;" horiz-adv-x="1531" 
d="M1323 1536v-1530q0 -129 -56.5 -209t-166.5 -143l-10 20q94 57 142 129t50 191l-1032 1259v-1253h-41v1556h31l1042 -1273v1253h41z" />
    <glyph glyph-name="eng" unicode="&#x14b;" horiz-adv-x="1273" 
d="M1024 1028q90 -92 90 -242v-794q0 -180 -83 -285.5t-238 -177.5l-13 20q133 104 133 390v895q0 104 -54 167.5t-142 63.5q-102 0 -198.5 -73.5t-149.5 -192.5v-799h-201v1100h178l12 -254q59 123 176 198.5t252 75.5q148 0 238 -92z" />
    <glyph glyph-name="Omacron" unicode="&#x14c;" horiz-adv-x="1812" 
d="M610 1673v33h592v-33h-592zM1597.5 355.5q-98.5 -179.5 -277.5 -277.5t-415 -98q-233 0 -412.5 98t-277.5 277.5t-98 412.5t98 412.5t277.5 277.5t412.5 98q236 0 415 -98t277.5 -277.5t98.5 -412.5t-98.5 -412.5zM410.5 373q70.5 -172 198.5 -266.5t296 -94.5t297 94.5
t200 266.5t71 395t-71 395t-200 266.5t-297 94.5t-296 -94.5t-198.5 -266.5t-70.5 -395t70.5 -395z" />
    <glyph glyph-name="omacron" unicode="&#x14d;" horiz-adv-x="1290" 
d="M348 1374v33h592v-33h-592zM1123.5 250q-68.5 -129 -192.5 -199.5t-286 -70.5t-285.5 70.5t-192.5 199.5t-69 299t69 299t192.5 200.5t285.5 71.5t286 -71.5t192.5 -200.5t68.5 -299t-68.5 -299zM351 267q42 -122 118 -188.5t176 -66.5q98 0 174 66.5t118 188.5t42 282
t-42 281.5t-118 189t-174 67.5t-175 -67.5t-119 -189t-42 -281.5t42 -282z" />
    <glyph glyph-name="Ohungarumlaut" unicode="&#x150;" horiz-adv-x="1812" 
d="M1047 2003l20 -29l-496 -344l-16 27zM1475 2003l20 -29l-498 -344l-16 27zM1597.5 355.5q-98.5 -179.5 -277.5 -277.5t-415 -98q-233 0 -412.5 98t-277.5 277.5t-98 412.5t98 412.5t277.5 277.5t412.5 98q236 0 415 -98t277.5 -277.5t98.5 -412.5t-98.5 -412.5z
M410.5 373q70.5 -172 198.5 -266.5t296 -94.5t297 94.5t200 266.5t71 395t-71 395t-200 266.5t-297 94.5t-296 -94.5t-198.5 -266.5t-70.5 -395t70.5 -395z" />
    <glyph glyph-name="ohungarumlaut" unicode="&#x151;" horiz-adv-x="1290" 
d="M737 1610l25 -23l-363 -362l-20 22zM1106 1610l24 -23l-360 -362l-22 22zM1123.5 250q-68.5 -129 -192.5 -199.5t-286 -70.5t-285.5 70.5t-192.5 199.5t-69 299t69 299t192.5 200.5t285.5 71.5t286 -71.5t192.5 -200.5t68.5 -299t-68.5 -299zM351 267q42 -122 118 -188.5
t176 -66.5q98 0 174 66.5t118 188.5t42 282t-42 281.5t-118 189t-174 67.5t-175 -67.5t-119 -189t-42 -281.5t42 -282z" />
    <glyph glyph-name="OE" unicode="&#x152;" horiz-adv-x="2179" 
d="M2095 33v-33h-801v119q-86 -66 -196.5 -102.5t-218.5 -36.5q-225 0 -397.5 98t-267.5 277.5t-95 412.5t95 412.5t267 277.5t398 98q111 0 220 -36.5t195 -102.5v119h785v-33h-578v-674h486v-32h-486v-764h594zM1125.5 64.5q93.5 33.5 168.5 93.5v1224q-72 57 -166 90
t-184 33q-180 0 -316 -92t-211 -259t-75 -386t76 -386t212 -259t316 -92q86 0 179.5 33.5z" />
    <glyph glyph-name="oe" unicode="&#x153;" horiz-adv-x="2084" 
d="M1192 571v-22q0 -156 49 -274.5t138 -184t206 -65.5q86 0 181.5 33.5t162.5 93.5l13 -17q-72 -70 -188 -112.5t-236 -42.5q-147 0 -259 73.5t-174 204.5q-61 -133 -174.5 -205.5t-265.5 -72.5q-162 0 -285.5 71.5t-192.5 200.5t-69 297q0 170 69 299t192.5 200.5
t285.5 71.5q152 0 265.5 -73.5t174.5 -204.5q57 131 167 204.5t255 73.5q150 0 262.5 -68.5t175 -191.5t62.5 -285v-4h-815zM819 78.5q76 66.5 118 188.5t42 282t-42 281.5t-118 189t-174 67.5t-175 -67.5t-119 -189t-42 -281.5t42 -281t119 -188.5t175 -67.5t174 66.5z
M1289 955q-85 -132 -95 -351h602q0 143 -36 253t-101.5 170t-151.5 60q-133 0 -218 -132z" />
    <glyph glyph-name="Racute" unicode="&#x154;" horiz-adv-x="1333" 
d="M375 1638l-10 29l565 205l12 -33zM1298 0h-245l-631 723h-4v-723h-209v1536h420q164 0 287.5 -50t192.5 -142.5t69 -210.5q0 -117 -64.5 -208t-181.5 -144.5t-270 -57.5zM598 756q160 0 258 104.5t98 272.5t-98 269t-258 101h-180v-747h180z" />
    <glyph glyph-name="racute" unicode="&#x155;" horiz-adv-x="819" 
d="M285 1251l-15 27l439 258l16 -29zM525.5 1017q113.5 83 250.5 83v-33q-137 0 -249.5 -89t-157.5 -235v-743h-201v1100h174l16 -305q54 139 167.5 222z" />
    <glyph glyph-name="uni0156" unicode="&#x156;" horiz-adv-x="1333" 
d="M789.5 -153.5q31.5 -36.5 31.5 -104.5q0 -80 -50 -151.5t-128 -106.5l-14 22q63 33 105 91.5t48 121.5q-31 -31 -84 -30q-45 0 -73.5 26.5t-28.5 69.5q0 45 30.5 71.5t80.5 26.5q51 0 82.5 -36.5zM1298 0h-245l-631 723h-4v-723h-209v1536h420q164 0 287.5 -50
t192.5 -142.5t69 -210.5q0 -117 -64.5 -208t-181.5 -144.5t-270 -57.5zM598 756q160 0 258 104.5t98 272.5t-98 269t-258 101h-180v-747h180z" />
    <glyph glyph-name="uni0157" unicode="&#x157;" horiz-adv-x="819" 
d="M351 -153.5q32 -36.5 32 -104.5q0 -80 -50 -151.5t-128 -106.5l-15 22q63 33 105.5 91.5t48.5 121.5q-31 -31 -84 -30q-45 0 -73.5 26.5t-28.5 69.5q0 45 30.5 71.5t79.5 26.5q51 0 83 -36.5zM525.5 1017q113.5 83 250.5 83v-33q-137 0 -249.5 -89t-157.5 -235v-743h-201
v1100h174l16 -305q54 139 167.5 222z" />
    <glyph glyph-name="Rcaron" unicode="&#x158;" horiz-adv-x="1333" 
d="M965 1903l14 -17l-346 -260l-346 260l14 17l332 -222zM1298 0h-245l-631 723h-4v-723h-209v1536h420q164 0 287.5 -50t192.5 -142.5t69 -210.5q0 -117 -64.5 -208t-181.5 -144.5t-270 -57.5zM598 756q160 0 258 104.5t98 272.5t-98 269t-258 101h-180v-747h180z" />
    <glyph glyph-name="rcaron" unicode="&#x159;" horiz-adv-x="819" 
d="M766 1552l14 -16l-299 -281l-297 281l15 16l282 -241zM525.5 1017q113.5 83 250.5 83v-33q-137 0 -249.5 -89t-157.5 -235v-743h-201v1100h174l16 -305q54 139 167.5 222z" />
    <glyph glyph-name="Sacute" unicode="&#x15a;" horiz-adv-x="1138" 
d="M313 1638l-10 29l565 205l13 -33zM982 180.5q-62 -98.5 -171 -149.5t-244 -51q-147 0 -276 61t-211 164l20 22q70 -88 180.5 -142t225.5 -54q147 0 238.5 87t91.5 230q0 98 -45.5 167t-111 115t-177.5 105q-121 66 -190.5 115t-119 128t-49.5 191q0 176 116 281.5
t300 105.5q121 0 231.5 -46t186.5 -126l-16 -18q-66 63 -157 101t-179 38q-121 0 -198 -74.5t-77 -193.5q0 -88 43 -152.5t104.5 -106.5t172.5 -101q123 -68 196.5 -120t125.5 -137t52 -208q0 -133 -62 -231.5z" />
    <glyph glyph-name="sacute" unicode="&#x15b;" horiz-adv-x="1021" 
d="M315 1251l-14 27l438 258l17 -29zM823 70q-121 -90 -313 -90q-133 0 -246.5 43t-187.5 118l16 19q63 -63 163.5 -101.5t203.5 -38.5q129 0 210 59.5t81 158.5q0 68 -39 112.5t-97.5 72.5t-158.5 64q-113 41 -180.5 76t-115.5 95.5t-48 152.5q0 141 110.5 225t282.5 84
q117 0 215 -40t164 -107l-13 -17q-63 57 -146 90t-167 33q-106 0 -179 -54t-73 -144q0 -63 38 -107.5t95.5 -72t155.5 -64.5q115 -41 184.5 -77t117.5 -96.5t48 -154.5q0 -149 -121 -239z" />
    <glyph glyph-name="Scedilla" unicode="&#x15e;" horiz-adv-x="1138" 
d="M982 180.5q-62 -98.5 -171 -149.5t-244 -51l-39 -111q119 -4 191 -46t72 -110q0 -82 -111 -133t-293 -51l4 20q115 0 185.5 45.5t70.5 116.5q0 53 -45 88t-121 41l47 142q-137 8 -254.5 67.5t-193.5 155.5l20 22q70 -88 180.5 -142t225.5 -54q147 0 238.5 87t91.5 230
q0 98 -45.5 167t-111 115t-177.5 105q-121 66 -190.5 115t-119 128t-49.5 191q0 176 116 281.5t300 105.5q121 0 231.5 -46t186.5 -126l-16 -18q-66 63 -157 101t-179 38q-121 0 -198 -74.5t-77 -193.5q0 -88 43 -152.5t104.5 -106.5t172.5 -101q123 -68 196.5 -120
t125.5 -137t52 -208q0 -133 -62 -231.5z" />
    <glyph glyph-name="scedilla" unicode="&#x15f;" horiz-adv-x="1021" 
d="M825.5 72q-118.5 -90 -311.5 -92l-39 -111q121 -4 192.5 -46t71.5 -110q0 -82 -111.5 -133t-293.5 -51l4 20q115 0 185.5 45.5t70.5 116.5q0 53 -45 88t-121 41l47 140q-123 6 -227.5 49t-171.5 112l16 19q63 -63 163.5 -101.5t203.5 -38.5q129 0 210 59.5t81 158.5
q0 68 -39 112.5t-97.5 72.5t-158.5 64q-113 41 -180.5 76t-115.5 95.5t-48 152.5q0 141 110.5 225t282.5 84q117 0 215 -40t164 -107l-13 -17q-63 57 -146 90t-167 33q-106 0 -179 -54t-73 -144q0 -63 38 -107.5t95.5 -72t155.5 -64.5q115 -41 184.5 -77t117.5 -96.5
t48 -154.5q0 -147 -118.5 -237z" />
    <glyph glyph-name="Scaron" unicode="&#x160;" horiz-adv-x="1138" 
d="M903 1903l15 -17l-347 -260l-346 260l15 17l331 -222zM982 180.5q-62 -98.5 -171 -149.5t-244 -51q-147 0 -276 61t-211 164l20 22q70 -88 180.5 -142t225.5 -54q147 0 238.5 87t91.5 230q0 98 -45.5 167t-111 115t-177.5 105q-121 66 -190.5 115t-119 128t-49.5 191
q0 176 116 281.5t300 105.5q121 0 231.5 -46t186.5 -126l-16 -18q-66 63 -157 101t-179 38q-121 0 -198 -74.5t-77 -193.5q0 -88 43 -152.5t104.5 -106.5t172.5 -101q123 -68 196.5 -120t125.5 -137t52 -208q0 -133 -62 -231.5z" />
    <glyph glyph-name="scaron" unicode="&#x161;" horiz-adv-x="1021" 
d="M799 1552l14 -16l-299 -281l-297 281l14 16l283 -241zM823 70q-121 -90 -313 -90q-133 0 -246.5 43t-187.5 118l16 19q63 -63 163.5 -101.5t203.5 -38.5q129 0 210 59.5t81 158.5q0 68 -39 112.5t-97.5 72.5t-158.5 64q-113 41 -180.5 76t-115.5 95.5t-48 152.5
q0 141 110.5 225t282.5 84q117 0 215 -40t164 -107l-13 -17q-63 57 -146 90t-167 33q-106 0 -179 -54t-73 -144q0 -63 38 -107.5t95.5 -72t155.5 -64.5q115 -41 184.5 -77t117.5 -96.5t48 -154.5q0 -149 -121 -239z" />
    <glyph glyph-name="uni0162" unicode="&#x162;" horiz-adv-x="1310" 
d="M676 0l-47 -131q119 -4 190.5 -46t71.5 -110q0 -82 -110.5 -133t-293.5 -51l5 20q115 0 184 45.5t69 116.5q0 53 -44 88t-119 41l53 160h-84v1503h-526v33h1261v-33h-526v-1503h-84z" />
    <glyph glyph-name="uni0163" unicode="&#x163;" horiz-adv-x="823" 
d="M522.5 -177q71.5 -42 71.5 -110q0 -82 -110.5 -133t-293.5 -51l5 20q115 0 184.5 45.5t69.5 116.5q0 51 -45.5 87t-118.5 42l67 203q-59 43 -91 111.5t-32 154.5v758h-198v33h198l179 360h22v-360h367v-33h-367v-793q0 -113 56.5 -181t148.5 -68q51 0 100 18t82 51
l12 -16q-47 -45 -119.5 -71.5t-148.5 -26.5q-98 0 -174 40l-55 -151q119 -4 190.5 -46z" />
    <glyph glyph-name="Tcaron" unicode="&#x164;" horiz-adv-x="1310" 
d="M989 1903l15 -17l-347 -260l-346 260l15 17l331 -222zM1286 1503h-526v-1503h-209v1503h-526v33h1261v-33z" />
    <glyph glyph-name="tcaron" unicode="&#x165;" horiz-adv-x="823" 
d="M623 1192l-29 8l96 420l33 -8zM829 78q-47 -45 -119.5 -71.5t-148.5 -26.5q-150 0 -241 90t-91 239v758h-198v33h198l179 360h22v-360h367v-33h-367v-793q0 -113 56.5 -181t148.5 -68q51 0 100 18t82 51z" />
    <glyph glyph-name="Tbar" unicode="&#x166;" horiz-adv-x="1331" 
d="M770 1503v-696h281v-33h-281v-774h-209v774h-280v33h280v696h-524v33h1259v-33h-526z" />
    <glyph glyph-name="tbar" unicode="&#x167;" horiz-adv-x="858" 
d="M850 78q-49 -45 -121 -71.5t-149 -26.5q-147 0 -238.5 90t-91.5 239v285h-199v33h199v440h-199v33h199l178 360h23v-360h366v-33h-366v-440h360v-33h-360v-320q0 -113 56 -181t148 -68q51 0 100.5 18t82.5 51z" />
    <glyph glyph-name="Umacron" unicode="&#x16a;" horiz-adv-x="1515" 
d="M528 1673v33h592v-33h-592zM1256.5 242q-64.5 -125 -185.5 -193.5t-283 -68.5q-176 0 -311 72.5t-209.5 203.5t-74.5 303v977h208v-1012q0 -147 51.5 -262t145.5 -177t217 -62q139 0 244.5 62t163 176t57.5 263v1012h41v-1006q0 -163 -64.5 -288z" />
    <glyph glyph-name="umacron" unicode="&#x16b;" horiz-adv-x="1253" 
d="M324 1374v33h591v-33h-591zM1083 1100v-1100h-174l-14 246q-59 -121 -173 -193.5t-245 -72.5q-143 0 -231 88t-88 233v799h200v-846q0 -98 52.5 -158.5t136.5 -60.5q100 0 192 70.5t144 185.5v809h200z" />
    <glyph glyph-name="Uring" unicode="&#x16e;" horiz-adv-x="1515" 
d="M969.5 1676.5q-56.5 -52.5 -146.5 -52.5t-145 52.5t-55 138.5t55 139t145 53t146.5 -53t56.5 -139t-56.5 -138.5zM708 1700q44 -43 115 -43q72 0 117 44t45 114q0 72 -45 115.5t-117 43.5t-115.5 -44t-43.5 -115q0 -72 44 -115zM1256.5 242q-64.5 -125 -185.5 -193.5
t-283 -68.5q-176 0 -311 72.5t-209.5 203.5t-74.5 303v977h208v-1012q0 -147 51.5 -262t145.5 -177t217 -62q139 0 244.5 62t163 176t57.5 263v1012h41v-1006q0 -163 -64.5 -288z" />
    <glyph glyph-name="uring" unicode="&#x16f;" horiz-adv-x="1253" 
d="M767 1289q-56 -52 -146 -52t-145.5 52t-55.5 138t55 139.5t146 53.5q90 0 146 -53.5t56 -139.5t-56 -138zM505 1313q44 -43 116 -43t116.5 43t44.5 114q0 72 -45 116t-116 44q-72 0 -116 -44t-44 -116q0 -71 44 -114zM1083 1100v-1100h-174l-14 246q-59 -121 -173 -193.5
t-245 -72.5q-143 0 -231 88t-88 233v799h200v-846q0 -98 52.5 -158.5t136.5 -60.5q100 0 192 70.5t144 185.5v809h200z" />
    <glyph glyph-name="Uhungarumlaut" unicode="&#x170;" horiz-adv-x="1515" 
d="M965 2003l20 -29l-496 -344l-16 27zM1393 2003l20 -29l-498 -344l-16 27zM1256.5 242q-64.5 -125 -185.5 -193.5t-283 -68.5q-176 0 -311 72.5t-209.5 203.5t-74.5 303v977h208v-1012q0 -147 51.5 -262t145.5 -177t217 -62q139 0 244.5 62t163 176t57.5 263v1012h41
v-1006q0 -163 -64.5 -288z" />
    <glyph glyph-name="uhungarumlaut" unicode="&#x171;" horiz-adv-x="1253" 
d="M713 1610l24 -23l-362 -362l-21 22zM1081 1610l25 -23l-361 -362l-22 22zM1083 1100v-1100h-174l-14 246q-59 -121 -173 -193.5t-245 -72.5q-143 0 -231 88t-88 233v799h200v-846q0 -98 52.5 -158.5t136.5 -60.5q100 0 192 70.5t144 185.5v809h200z" />
    <glyph glyph-name="Uogonek" unicode="&#x172;" horiz-adv-x="1515" 
d="M1321 1536v-1006q0 -207 -99.5 -347t-277.5 -185q-100 -53 -161.5 -132t-61.5 -155q0 -61 37 -98t96 -37t102 16l7 -20q-35 -20 -84.5 -31.5t-94.5 -11.5q-94 0 -151.5 47t-57.5 123q0 78 71 153.5t194 129.5q-16 -2 -52 -2q-176 0 -311 72.5t-209.5 203.5t-74.5 303v977
h208v-1012q0 -147 51.5 -262t145.5 -177t217 -62q139 0 244.5 62t163 176t57.5 263v1012h41z" />
    <glyph glyph-name="uogonek" unicode="&#x173;" horiz-adv-x="1253" 
d="M1098 -428q-35 -20 -84 -31.5t-96 -11.5q-92 0 -149.5 47t-57.5 123q0 86 84 167t227 134h-113l-14 246q-59 -121 -173 -193.5t-245 -72.5q-143 0 -231 88t-88 233v799h200v-846q0 -98 52.5 -158.5t136.5 -60.5q100 0 192 70.5t144 185.5v809h200v-1100
q-102 -53 -164.5 -133t-62.5 -156q0 -61 36 -98t95 -37q61 0 105 16z" />
    <glyph glyph-name="Wcircumflex" unicode="&#x174;" horiz-adv-x="1882" 
d="M680 1626l-14 16l346 261l346 -261l-15 -16l-331 223zM1823 1536l-471 -1556h-33l-371 1224l-370 -1224h-31l-490 1556h215l375 -1233l365 1253h35l372 -1249l361 1229h43z" />
    <glyph glyph-name="wcircumflex" unicode="&#x175;" horiz-adv-x="1550" 
d="M551 1255l-14 17l297 280l299 -280l-15 -17l-284 242zM1509 1100l-401 -1120h-23l-305 849l-301 -849h-24l-416 1120h211l301 -828l293 848h30l308 -850l288 830h39z" />
    <glyph glyph-name="Ycircumflex" unicode="&#x176;" horiz-adv-x="1421" 
d="M440 1626l-14 16l346 261l346 -261l-14 -16l-332 223zM829 684v-684h-206v672l-564 864h238l514 -803l500 803h45z" />
    <glyph glyph-name="ycircumflex" unicode="&#x177;" horiz-adv-x="1112" 
d="M326 1255l-15 17l297 280l299 -280l-14 -17l-285 242zM1081 1100l-675 -1555h-41l182 420l-512 1135h219l395 -897l391 897h41z" />
    <glyph glyph-name="Ydieresis" unicode="&#x178;" horiz-adv-x="1421" 
d="M642 1699.5q-28 -26.5 -73 -26.5t-73.5 26.5t-28.5 69.5t28.5 70t73.5 27t73 -27t28 -70t-28 -69.5zM1044.5 1699.5q-28.5 -26.5 -73.5 -26.5t-73 26.5t-28 69.5t28 70t73 27t73.5 -27t28.5 -70t-28.5 -69.5zM829 684v-684h-206v672l-564 864h238l514 -803l500 803h45z
" />
    <glyph glyph-name="Zacute" unicode="&#x179;" horiz-adv-x="1204" 
d="M369 1638l-11 29l566 205l12 -33zM35 0v20l883 1483h-816v33h1051v-20l-893 -1483h889v-33h-1114z" />
    <glyph glyph-name="zacute" unicode="&#x17a;" horiz-adv-x="980" 
d="M324 1251l-15 27l439 258l16 -29zM37 0v18l670 1049h-623v33h846v-21l-668 -1046h666v-33h-891z" />
    <glyph glyph-name="Zdotaccent" unicode="&#x17b;" horiz-adv-x="1204" 
d="M716 1696q-34 -33 -89 -33q-57 0 -91 33t-34 86t33.5 86t91.5 33q55 0 89 -33t34 -86t-34 -86zM35 0v20l883 1483h-816v33h1051v-20l-893 -1483h889v-33h-1114z" />
    <glyph glyph-name="zdotaccent" unicode="&#x17c;" horiz-adv-x="980" 
d="M606 1372q-33 -31 -88 -31q-53 0 -87 32t-34 83t34 84t87 33q55 0 88 -32t33 -85t-33 -84zM37 0v18l670 1049h-623v33h846v-21l-668 -1046h666v-33h-891z" />
    <glyph glyph-name="Zcaron" unicode="&#x17d;" horiz-adv-x="1204" 
d="M961 1903l14 -17l-346 -260l-346 260l14 17l332 -222zM35 0v20l883 1483h-816v33h1051v-20l-893 -1483h889v-33h-1114z" />
    <glyph glyph-name="zcaron" unicode="&#x17e;" horiz-adv-x="980" 
d="M805 1552l14 -16l-299 -281l-297 281l15 16l282 -241zM37 0v18l670 1049h-623v33h846v-21l-668 -1046h666v-33h-891z" />
    <glyph glyph-name="florin" unicode="&#x192;" horiz-adv-x="1159" 
d="M974 1526.5q73 -29.5 118 -76.5l-15 -16q-33 35 -85 55t-103 20q-94 0 -151.5 -66.5t-57.5 -176.5v-437h317v-32h-317v-486q0 -150 -97.5 -240.5t-254.5 -90.5q-78 0 -151 29.5t-118 76.5l15 16q33 -35 85 -55t103 -20q94 0 151.5 66.5t57.5 176.5v527h-276v32h276v396
q0 150 97.5 240.5t254.5 90.5q78 0 151 -29.5z" />
    <glyph glyph-name="uni0218" unicode="&#x218;" horiz-adv-x="1138" 
d="M638 -153.5q32 -36.5 32 -104.5q0 -80 -50.5 -151.5t-127.5 -106.5l-15 22q63 33 105.5 91.5t48.5 121.5q-31 -31 -84 -30q-45 0 -74 26.5t-29 69.5q0 45 31 71.5t80 26.5q51 0 83 -36.5zM982 180.5q-62 -98.5 -171 -149.5t-244 -51q-147 0 -276 61t-211 164l20 22
q70 -88 180.5 -142t225.5 -54q147 0 238.5 87t91.5 230q0 98 -45.5 167t-111 115t-177.5 105q-121 66 -190.5 115t-119 128t-49.5 191q0 176 116 281.5t300 105.5q121 0 231.5 -46t186.5 -126l-16 -18q-66 63 -157 101t-179 38q-121 0 -198 -74.5t-77 -193.5
q0 -88 43 -152.5t104.5 -106.5t172.5 -101q123 -68 196.5 -120t125.5 -137t52 -208q0 -133 -62 -231.5z" />
    <glyph glyph-name="uni0219" unicode="&#x219;" horiz-adv-x="1021" 
d="M584.5 -153.5q31.5 -36.5 31.5 -104.5q0 -80 -50 -151.5t-128 -106.5l-14 22q63 33 105 91.5t49 121.5q-31 -31 -84 -30q-45 0 -74 26.5t-29 69.5q0 45 31 71.5t80 26.5q51 0 82.5 -36.5zM823 70q-121 -90 -313 -90q-133 0 -246.5 43t-187.5 118l16 19
q63 -63 163.5 -101.5t203.5 -38.5q129 0 210 59.5t81 158.5q0 68 -39 112.5t-97.5 72.5t-158.5 64q-113 41 -180.5 76t-115.5 95.5t-48 152.5q0 141 110.5 225t282.5 84q117 0 215 -40t164 -107l-13 -17q-63 57 -146 90t-167 33q-106 0 -179 -54t-73 -144q0 -63 38 -107.5
t95.5 -72t155.5 -64.5q115 -41 184.5 -77t117.5 -96.5t48 -154.5q0 -149 -121 -239z" />
    <glyph glyph-name="uni021A" unicode="&#x21a;" horiz-adv-x="1310" 
d="M738.5 -153.5q31.5 -36.5 31.5 -104.5q0 -80 -50 -151.5t-128 -106.5l-14 22q63 33 105 91.5t48 121.5q-31 -31 -84 -30q-45 0 -73.5 26.5t-28.5 69.5q0 45 30.5 71.5t79.5 26.5q52 0 83.5 -36.5zM1286 1503h-526v-1503h-209v1503h-526v33h1261v-33z" />
    <glyph glyph-name="uni021B" unicode="&#x21b;" horiz-adv-x="823" 
d="M437.5 -153.5q31.5 -36.5 31.5 -104.5q0 -80 -50 -151.5t-128 -106.5l-15 22q63 33 105.5 91.5t48.5 121.5q-31 -31 -84 -30q-45 0 -73.5 26.5t-28.5 69.5q0 45 30.5 71.5t79.5 26.5q52 0 83.5 -36.5zM829 78q-47 -45 -119.5 -71.5t-148.5 -26.5q-150 0 -241 90t-91 239
v758h-198v33h198l179 360h22v-360h367v-33h-367v-793q0 -113 56.5 -181t148.5 -68q51 0 100 18t82 51z" />
    <glyph glyph-name="uni0237" unicode="&#x237;" horiz-adv-x="542" 
d="M292 -293.5q-83 -105.5 -241 -177.5l-10 20q133 104 133 381v1170h201v-1108q0 -180 -83 -285.5z" />
    <glyph glyph-name="circumflex" unicode="&#x2c6;" horiz-adv-x="1228" 
d="M221 1202l-14 17l297 280l299 -280l-15 -17l-284 242z" />
    <glyph glyph-name="caron" unicode="&#x2c7;" horiz-adv-x="1228" 
d="M791 1499l14 -16l-299 -281l-297 281l14 16l283 -242z" />
    <glyph glyph-name="breve" unicode="&#x2d8;" horiz-adv-x="1228" 
d="M635 1290q-80 -66 -172 -65q-92 0 -172 65q-80 66 -121 172l20 11q43 -94 118 -153q75 -58 155 -58t154 58q75 58 118 153l21 -11q-41 -106 -121 -172z" />
    <glyph glyph-name="dotaccent" unicode="&#x2d9;" horiz-adv-x="1228" 
d="M383 1372q-33 -31 -88 -31q-53 0 -87 32t-34 83t34 84t87 33q55 0 88 -32t33 -85t-33 -84z" />
    <glyph glyph-name="ring" unicode="&#x2da;" horiz-adv-x="1228" 
d="M531 1236q-56 -52 -146 -52t-145 52t-56 138q0 86 56 139q55 53 145 54q90 0 146 -54q56 -53 57 -139q-1 -86 -57 -138zM269 1260q44 -43 116 -43t117 43t45 114q0 72 -45 116t-117 44t-116 -44t-44 -116q0 -71 44 -114z" />
    <glyph glyph-name="ogonek" unicode="&#x2db;" horiz-adv-x="1228" 
d="M420 -460q-49 -11 -94 -11q-94 0 -152 47q-57 47 -57 123q0 92 95 178t257 137l20 -14q-102 -53 -164 -133t-63 -156q0 -61 37 -98t96 -37t103 16l6 -20q-35 -21 -84 -32z" />
    <glyph glyph-name="tilde" unicode="&#x2dc;" horiz-adv-x="1228" 
d="M304 1374q-40 -35 -73 -104l-22 10q70 162 201 162q47 0 83 -21q36 -20 80 -61q43 -37 72 -54t66 -18q55 0 95 36t73 106l22 -11q-27 -72 -76 -117q-49 -46 -125 -47q-47 0 -84 22t-79 60q-39 35 -70 54q-31 18 -68 18q-55 0 -95 -35z" />
    <glyph glyph-name="hungarumlaut" unicode="&#x2dd;" horiz-adv-x="1228" 
d="M639 1556l25 -22l-363 -363l-20 23zM1008 1556l24 -22l-360 -363l-23 23z" />
    <glyph glyph-name="gravecomb" unicode="&#x300;" 
d="M-182 1198l-443 256l17 29l440 -258z" />
    <glyph glyph-name="acutecomb" unicode="&#x301;" 
d="M-629 1198l-14 27l438 258l17 -29z" />
    <glyph glyph-name="uni0302" unicode="&#x302;" 
d="M-788 1202l-15 17l297 280l299 -280l-14 -17l-285 242z" />
    <glyph glyph-name="tildecomb" unicode="&#x303;" 
d="M-808 1374q-40 -35 -73 -104l-22 10q70 162 201 162q47 0 82.5 -20.5t80.5 -61.5q43 -37 72 -54.5t66 -17.5q55 0 95 36t73 106l22 -11q-27 -72 -76 -118t-125 -46q-47 0 -83.5 21.5t-79.5 60.5q-39 35 -70 53.5t-68 18.5q-55 0 -95 -35z" />
    <glyph glyph-name="uni0304" unicode="&#x304;" 
d="M-762 1321v33h592v-33h-592z" />
    <glyph glyph-name="uni0306" unicode="&#x306;" 
d="M-291 1290.5q-80 -65.5 -172 -65.5t-172 65.5t-121 171.5l21 11q43 -94 117.5 -152.5t154.5 -58.5t155 58t118 153l20 -11q-41 -106 -121 -171.5z" />
    <glyph glyph-name="uni0307" unicode="&#x307;" 
d="M-209 1372q-33 -31 -88 -31q-53 0 -87 32t-34 83t34 84t87 33q55 0 88 -32t33 -85t-33 -84z" />
    <glyph glyph-name="uni0308" unicode="&#x308;" 
d="M-593 1343.5q-28 -26.5 -73 -26.5t-73.5 26.5t-28.5 69.5t28.5 69.5t73.5 26.5t73 -26.5t28 -69.5t-28 -69.5zM-190.5 1343.5q-28.5 -26.5 -73.5 -26.5t-73 26.5t-28 69.5t28 69.5t73 26.5t73.5 -26.5t28.5 -69.5t-28.5 -69.5z" />
    <glyph glyph-name="uni030A" unicode="&#x30a;" 
d="M-238.5 1236q-56.5 -52 -146.5 -52t-145.5 52t-55.5 138t55.5 139.5t145.5 53.5t146.5 -53.5t56.5 -139.5t-56.5 -138zM-501 1260q44 -43 116 -43t117 43t45 114q0 72 -45 116t-117 44t-116 -44t-44 -116q0 -71 44 -114z" />
    <glyph glyph-name="uni030B" unicode="&#x30b;" 
d="M-590 1556l25 -22l-363 -363l-20 23zM-221 1556l24 -22l-360 -363l-23 23z" />
    <glyph glyph-name="uni030C" unicode="&#x30c;" 
d="M-334 1499l15 -16l-299 -281l-297 281l14 16l283 -242z" />
    <glyph glyph-name="uni0312" unicode="&#x312;" 
d="M-201.5 1417q27.5 -31 27.5 -80t-31 -78.5t-80 -29.5q-51 0 -82.5 41t-31.5 114q0 106 50 202.5t130 144.5l14 -23q-68 -47 -109.5 -129t-45.5 -172q31 41 86 41q45 0 72.5 -31z" />
    <glyph glyph-name="uni0326" unicode="&#x326;" 
d="M-206 -153.5q32 -36.5 32 -104.5q0 -80 -50 -151.5t-128 -106.5l-15 22q63 33 105.5 91.5t48.5 121.5q-31 -31 -84 -30q-45 0 -73.5 26.5t-28.5 69.5q0 45 30.5 71.5t79.5 26.5q51 0 83 -36.5z" />
    <glyph glyph-name="uni0327" unicode="&#x327;" 
d="M-190.5 -177q71.5 -42 71.5 -110q0 -82 -111.5 -133t-291.5 -51l4 20q113 0 183.5 45.5t70.5 116.5q0 53 -45 88t-121 41l61 180l35 -20l-47 -131q119 -4 190.5 -46z" />
    <glyph glyph-name="uni0328" unicode="&#x328;" 
d="M-209 -460q-49 -11 -94 -11q-94 0 -151.5 47t-57.5 123q0 92 95 178t257 137l21 -14q-102 -53 -165 -133t-63 -156q0 -61 37 -98t97 -37q59 0 102 16l6 -20q-35 -21 -84 -32z" />
    <glyph glyph-name="uni0335" unicode="&#x335;" 
d="M-999 725v33h770v-33h-770z" />
    <glyph glyph-name="uni0336" unicode="&#x336;" 
d="M-1583 1110v33h1421v-33h-1421z" />
    <glyph glyph-name="uni0337" unicode="&#x337;" 
d="M-381 705v24l-250 -172l-20 29l270 186v-24l250 172l20 -29z" />
    <glyph glyph-name="uni0338" unicode="&#x338;" 
d="M-936 -104l-29 22l893 1225l29 -23z" />
    <glyph glyph-name="uni0394" unicode="&#x394;" horiz-adv-x="1411" 
d="M1364 23v-23h-1317v20l633 1536h29zM1141 35l-533 1249l-512 -1249h1045z" />
    <glyph glyph-name="uni03A9" unicode="&#x3a9;" horiz-adv-x="1720" 
d="M1561.5 671.5q-50.5 -106.5 -120 -181t-177.5 -171.5q-109 -92 -160 -154.5t-51 -131.5h495v-33h-536v33q0 82 36.5 151.5t116.5 171.5q72 92 116 163t76 169t32 219q0 174 -66 307.5t-185.5 207t-277.5 73.5t-277.5 -73.5t-185 -207t-65.5 -307.5q0 -121 31.5 -219
t75.5 -168.5t116 -163.5q80 -102 117 -171.5t37 -151.5v-33h-539v33h498q0 70 -51.5 132t-159.5 154q-109 96 -178.5 171t-119.5 181.5t-50 235.5q0 193 94 340.5t264 228t393 80.5t393 -80.5t264.5 -228t94.5 -340.5q0 -129 -50.5 -235.5z" />
    <glyph glyph-name="uni03BC" unicode="&#x3bc;" horiz-adv-x="1253" 
d="M1094 1100v-799q0 -145 -87 -233t-231 -88q-127 0 -237.5 67.5t-169.5 179.5v-678h-201v1551h201v-809q51 -115 144 -185.5t194 -70.5q84 0 135 60.5t51 158.5v846h201z" />
    <glyph glyph-name="pi" unicode="&#x3c0;" horiz-adv-x="1415" 
d="M1137 1067v-903q0 -66 32.5 -106t87.5 -40q35 0 78 13l4 -17q-27 -16 -67.5 -25t-79.5 -9q-115 0 -185.5 68.5t-70.5 178.5v840h-475v-1067h-201v1067h-233v33h1343v-33h-233z" />
    <glyph glyph-name="Wgrave" unicode="&#x1e80;" horiz-adv-x="1882" 
d="M1268 1638l-570 201l13 33l567 -205zM1823 1536l-471 -1556h-33l-371 1224l-370 -1224h-31l-490 1556h215l375 -1233l365 1253h35l372 -1249l361 1229h43z" />
    <glyph glyph-name="wgrave" unicode="&#x1e81;" horiz-adv-x="1550" 
d="M1034 1251l-442 256l16 29l441 -258zM1509 1100l-401 -1120h-23l-305 849l-301 -849h-24l-416 1120h211l301 -828l293 848h30l308 -850l288 830h39z" />
    <glyph glyph-name="Wacute" unicode="&#x1e82;" horiz-adv-x="1882" 
d="M754 1638l-11 29l566 205l12 -33zM1823 1536l-471 -1556h-33l-371 1224l-370 -1224h-31l-490 1556h215l375 -1233l365 1253h35l372 -1249l361 1229h43z" />
    <glyph glyph-name="wacute" unicode="&#x1e83;" horiz-adv-x="1550" 
d="M637 1251l-14 27l438 258l16 -29zM1509 1100l-401 -1120h-23l-305 849l-301 -849h-24l-416 1120h211l301 -828l293 848h30l308 -850l288 830h39z" />
    <glyph glyph-name="Wdieresis" unicode="&#x1e84;" horiz-adv-x="1882" 
d="M883.5 1699.5q-27.5 -26.5 -72.5 -26.5t-73.5 26.5t-28.5 69.5t28.5 70t73.5 27t72.5 -27t27.5 -70t-27.5 -69.5zM1286 1699.5q-29 -26.5 -74 -26.5t-72.5 26.5t-27.5 69.5t27.5 70t72.5 27t74 -27t29 -70t-29 -69.5zM1823 1536l-471 -1556h-33l-371 1224l-370 -1224h-31
l-490 1556h215l375 -1233l365 1253h35l372 -1249l361 1229h43z" />
    <glyph glyph-name="wdieresis" unicode="&#x1e85;" horiz-adv-x="1550" 
d="M705.5 1396.5q-27.5 -26.5 -72.5 -26.5t-74 26.5t-29 69.5t29 70t74 27t72.5 -27t27.5 -70t-27.5 -69.5zM1108 1396.5q-29 -26.5 -74 -26.5t-72.5 26.5t-27.5 69.5t27.5 70t72.5 27t74 -27t29 -70t-29 -69.5zM1509 1100l-401 -1120h-23l-305 849l-301 -849h-24l-416 1120
h211l301 -828l293 848h30l308 -850l288 830h39z" />
    <glyph glyph-name="uni1E9E" unicode="&#x1e9e;" horiz-adv-x="1585" 
d="M1368 674q115 -121 115 -279q0 -123 -62.5 -217t-176.5 -146t-263 -52q-96 0 -195.5 32.5t-167.5 85.5l15 23q59 -45 137 -71.5t148 -26.5q152 0 247 102t95 270q0 160 -118 275.5t-311 144.5l361 688h-774v-1503h-209v1536h1223v-18l-373 -676q194 -47 309 -168z" />
    <glyph glyph-name="Ygrave" unicode="&#x1ef2;" horiz-adv-x="1421" 
d="M1028 1638l-569 201l12 33l567 -205zM829 684v-684h-206v672l-564 864h238l514 -803l500 803h45z" />
    <glyph glyph-name="ygrave" unicode="&#x1ef3;" horiz-adv-x="1112" 
d="M809 1251l-442 256l16 29l440 -258zM1081 1100l-675 -1555h-41l182 420l-512 1135h219l395 -897l391 897h41z" />
    <glyph glyph-name="endash" unicode="&#x2013;" horiz-adv-x="1171" 
d="M141 557v33h889v-33h-889z" />
    <glyph glyph-name="emdash" unicode="&#x2014;" horiz-adv-x="1517" 
d="M141 557v33h1235v-33h-1235z" />
    <glyph glyph-name="quoteleft" unicode="&#x2018;" horiz-adv-x="507" 
d="M360.5 1238q34.5 -38 34.5 -101t-38 -101.5t-101 -38.5q-66 0 -105.5 50.5t-39.5 136.5q0 117 62.5 219t162.5 153l14 -22q-84 -47 -137 -131t-59 -178q39 51 114 51q58 0 92.5 -38z" />
    <glyph glyph-name="quoteright" unicode="&#x2019;" horiz-adv-x="501" 
d="M362.5 1507q38.5 -49 38.5 -137q0 -117 -61 -218t-162 -155l-14 23q82 47 136 133t60 180q-41 -53 -114 -53q-57 0 -92 38t-35 99q0 63 38 101t99 38q68 0 106.5 -49z" />
    <glyph glyph-name="quotesinglbase" unicode="&#x201a;" horiz-adv-x="503" 
d="M352 207q39 -49 39 -137q0 -117 -61 -218t-162 -155l-14 22q82 47 136 134q54 86 60 180q-41 -53 -114 -53q-57 0 -93 37q-35 38 -34 100q0 63 37 101q38 38 100 38q67 0 106 -49z" />
    <glyph glyph-name="quotedblleft" unicode="&#x201c;" horiz-adv-x="876" 
d="M360 1238q35 -38 35 -101t-38 -102q-38 -38 -101 -38q-66 0 -105 51q-40 50 -40 136q0 117 62 219t163 153l14 -22q-84 -47 -137 -131t-59 -178q39 51 114 51q57 0 92 -38zM731 1238q35 -38 35 -101t-38 -102q-38 -38 -101 -38q-66 0 -106 51q-40 50 -40 136
q0 117 63 219q62 102 163 153l14 -22q-84 -47 -137 -131t-60 -178q39 51 115 51q57 0 92 -38z" />
    <glyph glyph-name="quotedblright" unicode="&#x201d;" horiz-adv-x="872" 
d="M362.5 1507q38.5 -49 38.5 -137q0 -117 -61 -218t-162 -155l-14 23q82 47 136 133t60 180q-41 -53 -114 -53q-57 0 -92 38t-35 99q0 63 38 101t99 38q68 0 106.5 -49zM733 1507q39 -49 39 -137q0 -117 -61.5 -218t-163.5 -155l-15 23q84 47 137.5 132t59.5 179
q-39 -51 -115 -51q-57 0 -92 38t-35 99q0 63 39 101t101 38q67 0 106 -49z" />
    <glyph glyph-name="quotedblbase" unicode="&#x201e;" horiz-adv-x="872" 
d="M350 207q39 -49 39 -137q0 -117 -61 -218t-162 -155l-14 22q82 47 136 134q54 86 60 180q-41 -53 -115 -53q-57 0 -92 37q-35 38 -35 100q0 63 38 101t100 38q67 0 106 -49zM721 207q39 -49 39 -137q0 -117 -62 -218q-61 -101 -163 -155l-15 22q84 47 137 133
q53 85 60 179q-39 -51 -115 -51q-57 0 -92 37q-35 38 -35 100q0 63 39 101t100 38q68 0 107 -49z" />
    <glyph glyph-name="dagger" unicode="&#x2020;" horiz-adv-x="669" 
d="M561 1440h-205v-498h-41v498h-204v33h204v268h41v-268h205v-33z" />
    <glyph glyph-name="daggerdbl" unicode="&#x2021;" horiz-adv-x="702" 
d="M373 1495v-307h205v-33h-205v-213h-41v213h-205v33h205v307h-205v33h205v213h41v-213h205v-33h-205z" />
    <glyph glyph-name="bullet" unicode="&#x2022;" horiz-adv-x="751" 
d="M513 601q-52 -52 -138 -52q-84 0 -136.5 52t-52.5 138t52.5 138.5t136.5 52.5q86 0 138 -52.5t52 -138.5t-52 -138z" />
    <glyph glyph-name="ellipsis" unicode="&#x2026;" horiz-adv-x="1544" 
d="M1380 17q-39 -38 -100 -37q-61 0 -99 37q-38 38 -38 102q0 61 38 99t99 38t100 -38t39 -99q0 -64 -39 -102zM872 17q-39 -38 -100 -37q-61 0 -99 37q-38 38 -38 102q0 61 38 99t99 38t100 -38t39 -99q0 -64 -39 -102zM365 17q-39 -38 -101 -37q-61 0 -99 37
q-38 38 -38 102q0 61 38 99t99 38t101 -38q39 -38 38 -99q1 -64 -38 -102z" />
    <glyph glyph-name="perthousand" unicode="&#x2030;" horiz-adv-x="2613" 
d="M2489 195q-42 -98 -117 -153q-76 -54 -174 -54t-175 54q-76 54 -117 153q-42 98 -42 227t42 227t117 153q76 54 175 54q98 0 174 -54t117 -153q42 -98 42 -227t-42 -227zM2066 124q49 -114 132 -114q80 0 130 114t50 298t-50 298t-130 114q-82 0 -132 -113
q-49 -113 -49 -299q0 -184 49 -298zM712 885q-42 -98 -118 -153q-76 -54 -174 -54t-174 54t-118 153q-42 98 -42 227t42 227t118 153q76 54 174 54t174 -54t118 -153q42 -98 42 -227t-42 -227zM289 814q49 -114 131 -114q80 0 130 114t50 298t-50 298t-130 114
q-82 0 -131 -113t-49 -299q0 -184 49 -298zM369 0l1050 1536h43l-1050 -1536h-43zM1703 195q-42 -98 -118 -153q-76 -54 -174 -54t-174 54t-118 153q-42 98 -42 227t42 227t118 153q76 54 174 54t174 -54t118 -153q42 -98 42 -227t-42 -227zM1280 124q49 -114 131 -114
q80 0 130 114t50 298t-50 298t-130 114q-82 0 -131 -113t-49 -299q0 -184 49 -298z" />
    <glyph glyph-name="guilsinglleft" unicode="&#x2039;" horiz-adv-x="561" 
d="M98 567v13l308 387l20 -13l-254 -381l254 -380l-20 -13z" />
    <glyph glyph-name="guilsinglright" unicode="&#x203a;" horiz-adv-x="561" 
d="M135 193l254 380l-254 381l21 13l307 -387v-13l-307 -387z" />
    <glyph glyph-name="fraction" unicode="&#x2044;" horiz-adv-x="225" 
d="M-436 0l1050 1536h43l-1050 -1536h-43z" />
    <glyph glyph-name="lira" unicode="&#x20a4;" horiz-adv-x="1275" 
d="M1202 698q0 -209 -89 -366.5t-253 -244.5t-379 -87h-209v795l-170 -45v34l170 45v226l-170 -45v34l170 46v446h209v-391l459 123v-35l-459 -123v-225l459 123v-35l-459 -123v-817q201 0 356.5 83t243.5 233.5t93 348.5h28z" />
    <glyph glyph-name="Euro" unicode="&#x20ac;" horiz-adv-x="1470" 
d="M1384 203q-78 -100 -210 -161.5t-265 -61.5q-176 0 -315 76.5t-228.5 219t-115.5 332.5h-174v33h170q-6 61 -6 127q0 37 4 102h-168v33h172q23 197 108.5 345.5t223 228t311.5 79.5q139 0 266 -54t205 -146l-16 -19q-68 76 -173.5 122t-207.5 46q-133 0 -238.5 -73.5
t-172.5 -210t-85 -318.5h512v-33h-514q-4 -66 -4 -102q0 -66 6 -127h512v-33h-508q33 -264 165 -420.5t329 -156.5q106 0 216.5 53t184.5 141z" />
    <glyph glyph-name="uni20B1" unicode="&#x20b1;" horiz-adv-x="1439" 
d="M1364 1161h-174q12 -55 12 -114t-12 -115h174v-33h-182q-47 -158 -186.5 -250t-338.5 -92h-174v-557h-209v899h-176v33h176v229h-176v33h176v342h383q199 0 338.5 -92t186.5 -250h182v-33zM483 1194h482q-33 143 -122 226t-216 83h-144v-309zM971 1161h-488v-229h488
q8 74 8 115q0 65 -8 114zM843 673q89 83 122 226h-482v-309h144q127 0 216 83z" />
    <glyph glyph-name="uni20B9" unicode="&#x20b9;" horiz-adv-x="1132" 
d="M1059 1503h-608q190 -39 300.5 -133t118.5 -223h189v-33h-189q-6 -147 -132 -247.5t-339 -135.5l480 -731h-242l-490 748h15q141 0 249.5 45t170 129t65.5 192h-500v33h500q-4 106 -66.5 187t-171 125t-247.5 44h-15v33h912v-33z" />
    <glyph glyph-name="uni20BD" unicode="&#x20bd;" horiz-adv-x="1318" 
d="M487 680v-229h445v-33h-445v-418h-208v418h-179v33h179v229h-179v33h179v823h401q168 0 296 -53t198.5 -150.5t70.5 -224.5t-70.5 -224.5t-198.5 -150.5t-296 -53h-193zM919.5 1394.5q-102.5 108.5 -270.5 108.5h-162v-790h162q168 0 270.5 109.5t102.5 285.5
q0 178 -102.5 286.5z" />
    <glyph glyph-name="uni20BF" unicode="&#x20bf;" horiz-adv-x="1286" 
d="M1068 149.5q-120 -110.5 -323 -139.5v-215h-40v209q-66 -4 -103 -4h-110v-205h-41v205h-242v1536h242v205h41v-205h110q53 0 103 -6v211h40v-217q162 -31 257.5 -125t95.5 -228q0 -137 -96.5 -232t-262.5 -124q205 -29 327 -134.5t122 -260.5q0 -160 -120 -270.5z
M791.5 1412q-82.5 91 -220.5 91h-153v-674h153q137 0 220 94.5t83 247.5q0 150 -82.5 241zM856.5 139.5q108.5 106.5 108.5 280.5q0 170 -108.5 273.5t-285.5 103.5h-153v-764h153q177 0 285.5 106.5z" />
    <glyph glyph-name="trademark" unicode="&#x2122;" horiz-adv-x="1501" 
d="M1219 922l-41 407l-211 -418h-17l-221 435l-43 -424h-24l65 624h18l265 -506l250 506h20l66 -624h-127zM70 1536h530v-20h-205v-594h-123v594h-202v20z" />
    <glyph glyph-name="oneeighth" unicode="&#x215b;" horiz-adv-x="1665" 
d="M1503 369q63 -61 64 -148q0 -106 -88 -170q-88 -63 -234 -63q-145 0 -234 63t-89 170q0 88 64 149q65 60 173 79q-92 16 -146 68t-55 128q0 94 79 153q79 58 208 58t208 -58t79 -153q0 -76 -54 -128t-147 -68q109 -19 172 -80zM1149 781q-37 -52 -37 -136t37 -135t96 -51
t96 51t37 135t-37 136t-96 53q-59 -1 -96 -53zM1368 69q47 58 47 152q0 96 -47 156q-47 59 -123 59t-123 -59t-47 -156q0 -96 47 -153t123 -58q76 1 123 59zM209 0l1051 1536h43l-1051 -1536h-43zM469 1546v-856h-143v760l-254 -139l-11 18l392 217h16z" />
    <glyph glyph-name="threeeighths" unicode="&#x215c;" horiz-adv-x="1751" 
d="M1599 369q63 -61 64 -148q0 -106 -88 -170q-88 -63 -234 -63q-145 0 -234 63t-89 170q0 88 64 149q65 60 173 79q-92 16 -146 68t-54 128q0 94 79 153q79 58 207 58q129 0 208 -58t79 -153q0 -76 -54 -128t-147 -68q109 -19 172 -80zM1245 781q-37 -52 -37 -136t37 -135
t96 -51t97 51q37 51 37 135t-37 136t-97 53q-59 -1 -96 -53zM1464 69q47 58 47 152q0 96 -47 156q-47 59 -123 59t-122 -59q-47 -59 -48 -156q0 -96 48 -153q47 -57 122 -58q76 1 123 59zM307 0l1051 1536h43l-1051 -1536h-43zM614 1063q70 -59 70 -150q0 -106 -86 -171
t-227 -64q-80 0 -162 32t-131 81l12 16q45 -41 104 -66q58 -25 115 -24q100 0 161 56q60 56 60 147q0 92 -63 149t-170 57h-23v23h15q94 0 151 52t58 138q0 76 -49 123t-132 47q-47 0 -101 -21q-54 -22 -93 -54l-12 14q49 45 117 72q69 27 134 26q131 0 210 -55t79 -145
q0 -80 -60 -136q-60 -55 -165 -71q118 -17 188 -76z" />
    <glyph glyph-name="fiveeighths" unicode="&#x215d;" horiz-adv-x="1736" 
d="M1583 369q63 -61 64 -148q0 -106 -88 -170q-88 -63 -234 -63q-145 0 -234 63t-90 170q0 88 65 149q65 60 173 79q-92 16 -146 68t-55 128q0 94 79 153q79 58 208 58t208 -58t79 -153q0 -76 -54 -128t-147 -68q109 -19 172 -80zM1229 781q-37 -52 -37 -136t37 -135t96 -51
t96 51t37 135t-37 136t-96 53q-59 -1 -96 -53zM1448 69q47 58 47 152q0 96 -47 156q-47 59 -123 59t-123 -59t-47 -156q0 -96 47 -153t123 -58q76 1 123 59zM291 0l1050 1536h43l-1050 -1536h-43zM585 1155q85 -76 85 -199q0 -125 -89 -201q-89 -77 -237 -77q-78 0 -149 32
q-72 32 -113 83l12 14q33 -41 87 -66t110 -24q102 0 164 65q61 66 61 174q0 106 -59 172t-156 66q-37 0 -80 -13t-78 -36l-8 14l53 377h449v-23h-307l-41 -290q33 8 71 8q140 0 225 -76z" />
    <glyph glyph-name="seveneighths" unicode="&#x215e;" horiz-adv-x="1683" 
d="M1524 369q63 -61 63 -148q0 -106 -88 -170q-88 -63 -233 -63t-235 63q-89 63 -89 170q0 88 65 149q65 60 173 79q-92 16 -147 68q-54 52 -54 128q0 94 79 153q79 58 208 58t208 -58t78 -153q0 -76 -54 -128t-146 -68q109 -19 172 -80zM1169 781q-37 -52 -36 -136
q0 -84 36 -135q37 -51 97 -51q59 0 96 51t37 135t-37 136t-96 53q-60 -1 -97 -53zM1389 69q47 58 47 152q0 96 -47 156q-47 59 -123 59t-123 -59t-47 -156q0 -96 47 -153t123 -58q76 1 123 59zM231 0l1051 1536h43l-1051 -1536h-43zM655 1536v-14l-338 -832h-149l336 823
h-438v23h589z" />
    <glyph glyph-name="partialdiff" unicode="&#x2202;" horiz-adv-x="1296" 
d="M738 1451q216 -134 329 -348t113 -489q0 -188 -70 -332.5t-196 -223t-291 -78.5q-162 0 -286 60t-192.5 169.5t-68.5 253.5q0 133 60.5 234.5t172 156.5t256.5 55q111 0 213.5 -50t169.5 -136q-33 348 -222 577.5t-515 296.5l6 21q305 -33 521 -167zM796.5 83
q75.5 71 116.5 200t41 299q0 47 -2 69q-59 94 -152 150.5t-190 56.5q-139 0 -225 -110.5t-86 -292.5q0 -199 89 -321t235 -122q98 0 173.5 71z" />
    <glyph glyph-name="emptyset" unicode="&#x2205;" horiz-adv-x="1441" 
d="M1153 1014q68 -80 104.5 -188.5t36.5 -235.5q0 -182 -71.5 -320.5t-201.5 -214t-302 -75.5q-123 0 -226.5 39.5t-179.5 115.5l-166 -174l-32 31l168 176q-68 80 -105 187.5t-37 234.5q0 182 72 320.5t203 214t303 75.5q123 0 226.5 -40t176.5 -113l168 174l31 -33z
M311 197l785 819q-70 74 -166 112.5t-211 38.5q-158 0 -279 -71.5t-187.5 -202.5t-66.5 -303q0 -235 125 -393zM1124 983l-784 -819q147 -152 379 -152q158 0 277.5 72t186 203t66.5 303q0 235 -125 393z" />
    <glyph glyph-name="product" unicode="&#x220f;" horiz-adv-x="1697" 
d="M1632 1565h-235v-2016h-207v2016h-680v-2016h-207v2016h-237v32h1566v-32z" />
    <glyph glyph-name="summation" unicode="&#x2211;" horiz-adv-x="1222" 
d="M72 -451v19l530 1046l-510 965v18h1051v-32h-832l520 -951l-540 -1032h872v-33h-1091z" />
    <glyph glyph-name="minus" unicode="&#x2212;" horiz-adv-x="970" 
d="M127 557v33h717v-33h-717z" />
    <glyph glyph-name="radical" unicode="&#x221a;" horiz-adv-x="1447" 
d="M1481 1597l-938 -2056h-33l-512 1108h223l395 -866l824 1814h41z" />
    <glyph glyph-name="infinity" unicode="&#x221e;" horiz-adv-x="1634" 
d="M1413 834.5q98 -95.5 98 -250.5q0 -156 -98 -251t-260 -95q-125 0 -214 62t-122 169q-33 -106 -122 -168.5t-214 -62.5q-162 0 -260 95t-98 251t98 251t260 95q125 0 214 -62.5t122 -169.5q33 106 122 169t214 63q162 0 260 -95.5zM709 356q86 86 86 228q0 141 -86 227
t-228 86q-141 0 -227 -86t-86 -227t86 -227.5t227 -86.5q142 0 228 86zM1380 356q86 86 86 228q0 141 -86 227t-227 86t-227 -86t-86 -227t86 -227.5t227 -86.5t227 86z" />
    <glyph glyph-name="integral" unicode="&#x222b;" horiz-adv-x="972" 
d="M492.5 -380q-97.5 -91 -254.5 -91q-76 0 -150 29.5t-117 76.5l15 17q33 -35 83 -55.5t101 -20.5q96 0 154.5 66.5t58.5 177.5v1466q0 150 97.5 241t254.5 91q76 0 148.5 -29.5t117.5 -77.5l-14 -16q-33 35 -86 55.5t-106 20.5q-94 0 -149.5 -63.5t-55.5 -172.5v-1474
q0 -150 -97.5 -241z" />
    <glyph glyph-name="approxequal" unicode="&#x2248;" horiz-adv-x="970" 
d="M51 664q0 102 62 165q61 63 161 64q66 0 114 -29t110 -84q61 -53 104 -79t103 -25q84 0 136 54t52 142h29q0 -102 -62 -165q-61 -63 -162 -64q-66 0 -113 29q-48 29 -110 84q-61 53 -104 79t-103 25q-84 0 -136 -54t-52 -142h-29zM51 299q0 102 62 166q61 63 161 63
q66 0 114 -28q48 -29 110 -84q61 -53 104 -79t103 -26q84 0 136 55q52 54 52 142h29q0 -102 -62 -166q-61 -63 -162 -63q-66 0 -113 28q-48 29 -110 84q-61 53 -104 79t-103 26q-84 0 -136 -55q-52 -54 -52 -142h-29z" />
    <glyph glyph-name="notequal" unicode="&#x2260;" horiz-adv-x="970" 
d="M580 705l-142 -263h406v-32h-424l-121 -222h-41l121 222h-252v32h270l142 263h-412v32h430l121 221h41l-121 -221h246v-32h-264z" />
    <glyph glyph-name="lessequal" unicode="&#x2264;" horiz-adv-x="970" 
d="M125 729l711 209v-37l-643 -188l643 -189v-37l-711 209v33zM125 264h717v-33h-717v33z" />
    <glyph glyph-name="greaterequal" unicode="&#x2265;" horiz-adv-x="970" 
d="M135 487v37l643 189l-643 188v37l711 -209v-33zM129 231v33h717v-33h-717z" />
    <glyph glyph-name="lozenge" unicode="&#x25ca;" horiz-adv-x="1034" 
d="M946 666l-414 -666h-28l-414 666l414 665h28zM903 666l-385 618l-385 -618l385 -619z" />
    <glyph glyph-name="uni261E" unicode="&#x261e;" horiz-adv-x="5521" 
d="M109 324l192 90q27 10 33 10t20.5 -6t34.5 -6l320 137q20 10 36 10q12 0 19 -2q18 -6 50 5t110 50q6 2 19 11.5t28 7.5q35 -2 78 8q41 8 63 8q10 0 82 27q14 4 65.5 22.5t73.5 20.5q37 2 86 33l41 20q23 8 41 8q14 0 28.5 -3t26.5 -3q14 0 21 2q23 6 53.5 9t40.5 10
q23 10 44.5 25.5t31.5 15.5q12 0 49 -15q18 27 43 27q10 0 36 -7.5t40 -7.5t33 7q53 18 266 78.5t252 68.5l45 8l33 21l217 88q14 6 22 -2q49 -49 99.5 -84t126.5 -76l372 -201l21 -18q6 -8 16 -8l1032 -4q20 0 29.5 7t21 11t44.5 2l276 -12l57 -8l70 4l434 -4l78 -4l-4 -97
l-39 -4l-573 2q-8 0 -13.5 2t-3.5 10l-305 5q-33 0 -45 7t-35 7l-975 10l27 -35q12 -16 50 -68t48 -71q96 -197 96 -262l-2 -8q-45 -29 -59 -29q-6 0 -23.5 5t-33.5 9l-47 7q-16 2 -71.5 10t-74.5 18l-80 62l21 -72q31 -98 30 -115q0 -10 -6 -15t-14 -11l-25 -25
q-20 -20 -36 -20q-10 0 -23 6l-76 63l-67 8q-59 6 -80 50l-62 110q-4 8 -9 13.5t-13 5.5q-10 0 -78 7t-121 7q45 0 -51 -3t-205.5 -6t-181.5 -3q-27 0 -81 14t-90 26.5t-52 16.5q-111 39 -150 45h-6q-14 0 -28.5 -11t-22.5 -16q-35 -14 -61.5 -20t-43.5 -10
q-35 -12 -47 -21.5t-22 -23.5q-10 -23 -45 -45q-8 -4 -19 -4l-37 2q-39 0 -65 -27q-53 -53 -75.5 -71.5t-51.5 -32t-100 -35.5q-16 -6 -42 -11.5t-40 -19.5q-10 -10 -35 -23.5t-35 -17.5q-109 -51 -131 -90q-20 -37 -46 -50.5t-89 -27.5l-109 -76l-170 -100
q-61 -53 -94 -70.5t-113 -36.5q-25 4 -59 52q-61 80 -125.5 206.5t-108 256t-43.5 215.5q1 25 46 45zM3447 212q51 -7 74 -7q-55 20 -76 33.5t-43 35.5q-33 33 -72 62q-6 4 -8 10t0 8l33 -12q45 -45 116.5 -93t143.5 -63l-168 250q-4 6 -15 56q-57 63 -143 102l-14 -2
l98 -74l47 -45l-2 -6q-113 102 -254 186q-18 12 -27.5 21.5t-11.5 25.5q-2 12 -7 16.5t-19 6.5l-43 6l-39 33l-86 45l-23 18l-112 56q-4 2 -19.5 8t-30.5 0l-159 -64l-52 -4q-70 -27 -100 -53q-2 2 -2 6q0 12 12 19q33 18 64 28t78 13l151 61q16 4 23 4q25 0 50 -11
t50 -26.5t39 -23.5l172 -80l78 -56l14 -16l125 -78q8 8 47 -20.5t80 -69.5t55 -67l150 -250q6 -12 10 -13l21 9q12 4 15 10t1 20q-20 94 -56 167t-90.5 145.5t-164.5 203.5q-213 94 -378 190.5t-204 162.5l-270 -115q-150 -27 -480 -135q-12 -4 -61 -20.5t-74 -16.5
q-16 0 -30 8q-6 -35 -19 -84q-23 -74 -24 -151l-9 -209h-4l-8 55q-2 27 -14 27q-4 0 -25 -9q-14 -4 -19 -17t-3 -26l6 -41l-4 -2l-17 35q-14 -14 -21 -18t-18 -2q-57 10 -65 10q-20 0 -35 -8l-121 -76q-18 -12 -18 -31q0 -8 2 -16t2 -16q0 -14 -14 -23l-160 -84
q-33 -18 -98 -45q-53 -18 -138 -70q-4 -4 -12 -4q-6 0 -11 5.5t-7 9.5q-4 4 -9 4q-6 0 -11 -4t-5 -9q0 -10 -6 -15t-19 -9q-68 -33 -79 -41q-154 -76 -260.5 -132.5t-165.5 -92.5q-14 -10 -15 8l53 33l-6 6q-29 0 -69 -17q-29 -12 -41 -12q-20 0 -35 23q-49 76 -123 270
l-41 125q-25 63 -24 117q0 14 4 19t18 5q4 -59 11 -99t26 -81q10 -25 20 -64q2 -23 13 -47q47 -143 116 -245q4 -6 11 -7q4 0 12 4.5t14 6.5l72 14q4 2 12 2q16 0 19 -16l102 57l305 147q10 6 28.5 13.5t30 16.5t17.5 24q2 8 14 8q8 0 26.5 -4t29.5 2l368 186q16 8 17 21
q0 6 -4.5 18t-4.5 19q0 12 13 20l98 61q33 23 56.5 35.5t41.5 12.5q14 0 52 -11q4 -2 10 -2q18 0 18 25q0 37 -4 70q-4 41 -4 104q0 74 2 133l8 70q-27 -12 -47 -19.5t-44.5 -13.5t-45.5 -10q-41 -10 -53 -11q-25 0 -43 19l-25 -21l-176 -208l-6 2l25 49l124 145
q-27 -14 -49 -18l-47 -8q-33 -12 -94 -31q-98 -29 -121 -45q-10 -8 -24 -8l-25 2q-20 0 -35.5 -6.5t-21.5 -6.5l-47 6l-78 -38q-47 -23 -76 -35.5t-39 -12.5q-8 0 -20 7l-9 2q-8 0 -16 -15q-2 -6 -4 -18t-6 -19q-18 -35 -23.5 -78.5t-15.5 -197.5q-14 35 -14 98
q0 57 10 117.5t26 91.5q-45 -14 -217 -88q-104 -47 -112 -47q-10 0 -27.5 9t-24.5 5l-239 -112q16 -141 96 -324.5t221 -400.5l68 43l-62 90l9 6l73 -86q59 23 75.5 31t27.5 22q135 80 192.5 117t77.5 55q16 16 66 33q35 10 55 21.5t33 35.5q16 33 87.5 74t221.5 102
q84 31 127 55.5t67 65.5q63 41 129 54q31 6 48 34q8 14 18 21.5t33 9.5q20 2 40.5 10t53.5 25l76 35q10 4 26 4q14 0 38 -8.5t42 -14.5l125 -39q-2 6 -2 29q0 39 10 90q2 8 4.5 19.5t5.5 14.5t11 3q-12 -57 -12 -96t10 -60q6 -12 17.5 -17t23.5 -6t18 -3q-8 16 -19 35.5
t-14.5 34t-3.5 38.5q0 23 4 72q6 41 7 82l6 4l2 -21q10 29 23.5 47.5t33.5 32.5l-211 -2q-20 0 -51 -12t-43 -12q-23 0 -39 37q-6 12 -6 30q0 23 8 42.5t25 27.5q12 6 22 6q12 0 22.5 -7t27 -26.5t28.5 -19.5l819 10l-2 4l-96 19q-4 4 -1 9t9 5q76 0 152 -29
q29 -10 39 -26.5t14 -18.5q10 -4 40 -10t42 -14l131 -109l-2 -4l-94 72q-4 2 -14.5 10t-19.5 11t-22 3l-159 6q4 -4 13 -15t13 -21q4 -12 25 -13h10q14 0 21 -6l178 -80q45 -4 101 -31.5t56 -44.5q0 -29 -15 -61.5t-38 -48.5q57 -45 88 -72q27 -25 41 -35q17 -10 68 -17z
M1837 823q-10 0 -41 -30q-6 -6 -16 -7q-16 0 -25 9q-12 12 -16 12q-6 0 -17 -8q10 -12 11 -35l-2 -27q-4 -66 -5 -159q0 -102 5 -136q18 14 33.5 18.5t19.5 8.5t6 23l25 256l24 75h-2zM4835 690l4 17l-333 10q-6 0 -10.5 -5t-4.5 -10zM5394 623q8 0 11.5 3t5.5 11l8 53
l-465 -6q-35 0 -59.5 1t-46.5 7l-9 -63zM4481 659.5q-2 -16.5 4 -16.5l340 -8l2 29l-340 12q-4 0 -6 -16.5zM2865 631q-12 31 -45 24l57 -57zM2200 444q0 -31 10 -49t53 -73l25 -9h487q57 -4 90 -8l62 -6l143 -12v4l-262 53l-80 10q-18 6 -33 6q-14 0 -27.5 -6t-17.5 -6
q-10 0 -18 14q-4 10 -17 11q-6 0 -18 -2t-17 8l-276 29l-10 8l10 8q12 4 23 4q12 0 29.5 -3t27.5 -5l166 -23q6 -2 20.5 -7t40.5 -5q27 0 43.5 -6t28.5 -6q10 0 24.5 2t26.5 0l236 -53q61 -14 103 -23.5t58 -9.5q20 0 39 12q61 39 84 60.5t33 56.5q2 4 2 10q0 16 -12 25
q-27 23 -59.5 32t-92.5 19l-53 10l-193 8q-27 0 -45 15.5t-49 50.5q-43 49 -47 53q-8 10 -13 12t-11.5 2h-8.5h-407q-27 0 -51.5 -37.5t-24.5 -74.5q0 -80 26.5 -126t86.5 -79l4 -4l-6 -2q-14 0 -47 14q-37 18 -53.5 60.5t-26.5 105.5q-6 -43 -6 -68zM2880.5 614.5
q11.5 -28.5 7.5 -36.5l-78 69l31 -55l-5 -2q-4 6 -15 17t-15 22q-8 18 -15.5 21t-40.5 3l50 -57q10 -14 37.5 -26.5t39.5 -18.5l29 37q4 10 0 18q-12 29 -39 47q2 -10 13.5 -38.5zM2888 547q147 -20 217 -21l-129 58q-14 6 -29.5 10t-21.5 -2zM1817 453q0 2 8 47l10 47
l10 14l-14 -108q8 -4 14 2t19.5 25.5t21.5 33.5q10 12 27 12q18 0 29 -14q12 -16 18 -26.5t10 -13.5t10 3l21 23q12 14 27 14q20 0 32 -27q6 -16 21.5 -28.5t32.5 -10.5l18 3v-7l-37 -6q-16 -4 -28.5 6.5t-22.5 40.5q-6 16 -19 17q-10 0 -20 -11q-39 -39 -51 -38
q-14 0 -17 22l-6 31q-2 10 -12 10q-6 0 -11 -3t-7 -7q-6 -10 -21.5 -32.5t-24 -27t-22.5 -4.5q-16 1 -16 13zM3181 100l67 -55q10 -6 15.5 -7t13.5 7q20 18 38.5 32.5t18.5 18.5q0 37 -33.5 127t-56.5 109l-90 -53l-94 -5q66 -74 80 -102q8 -20 28 -47zM3029 176
q4 -4 11 -21.5t18 -21.5l106 -24l-121 165l-75 2z" />
    <glyph glyph-name="uniF8FF" unicode="&#xf8ff;" horiz-adv-x="2541" 
d="M1694 -6q-14 -14 -35 -14q-27 0 -34 13t-7 34v663l-694 -696q-14 -14 -35 -14q-27 0 -34 13t-7 34v663l-696 -696q-14 -14 -35 -14q-14 0 -24.5 10t-10.5 26q0 20 10 31l701 698h-664q-47 0 -47 39q0 18 14 33l697 701h-670q-18 0 -29.5 10t-11.5 28v3q0 18 11 28t30 10
h758q20 0 33.5 -7t13.5 -34q0 -18 -17 -34l-698 -697h676q16 0 28.5 -12t12.5 -29v-669l694 692q16 16 35 16q37 0 37 -45v-663l696 692q16 16 33 16q14 0 24.5 -11t10.5 -28q0 -16 -13 -28z" />
    <glyph glyph-name="G.aalt" horiz-adv-x="1622" 
d="M1481 815v-835h-21l-172 270q-70 -121 -206 -195.5t-285 -74.5q-201 0 -354.5 96t-238.5 271t-85 405q0 240 94 422t264 282t393 100q162 0 316.5 -58t249.5 -152l-15 -19q-88 82 -222 130t-265 48q-176 0 -310.5 -94t-208 -265t-73.5 -394q0 -213 63.5 -377t178 -254
t264.5 -90q123 0 239.5 68.5t184.5 181.5v534h209z" />
    <glyph glyph-name="J.aalt" horiz-adv-x="847" 
d="M342 1636l-10 29l510 186l12 -30zM555 70q-94 -90 -250 -90q-80 0 -150.5 25.5t-113.5 70.5l16 20q33 -33 80 -51t99 -18q92 0 148 68.5t56 178.5v1262h209v-1227q0 -149 -94 -239z" />
    <glyph glyph-name="W.aalt" horiz-adv-x="1859" 
d="M1817 1536l-578 -1556h-29l-276 761l-277 -761h-28l-586 1556h215l465 -1270l188 533l-268 737h209l199 -551l204 551h43l-225 -612l236 -656l465 1268h43z" />
    <glyph glyph-name="Wacute.aalt" horiz-adv-x="1859" 
d="M709 1638l-11 29l566 205l12 -33zM1817 1536l-578 -1556h-29l-276 761l-277 -761h-28l-586 1556h215l465 -1270l188 533l-268 737h209l199 -551l204 551h43l-225 -612l236 -656l465 1268h43z" />
    <glyph glyph-name="Wcircumflex.aalt" horiz-adv-x="1859" 
d="M635 1626l-14 16l346 261l346 -261l-15 -16l-331 223zM1817 1536l-578 -1556h-29l-276 761l-277 -761h-28l-586 1556h215l465 -1270l188 533l-268 737h209l199 -551l204 551h43l-225 -612l236 -656l465 1268h43z" />
    <glyph glyph-name="Wdieresis.aalt" horiz-adv-x="1859" 
d="M838.5 1699.5q-27.5 -26.5 -72.5 -26.5t-73.5 26.5t-28.5 69.5t28.5 70t73.5 27t72.5 -27t27.5 -70t-27.5 -69.5zM1241 1699.5q-29 -26.5 -74 -26.5t-72.5 26.5t-27.5 69.5t27.5 70t72.5 27t74 -27t29 -70t-29 -69.5zM1817 1536l-578 -1556h-29l-276 761l-277 -761h-28
l-586 1556h215l465 -1270l188 533l-268 737h209l199 -551l204 551h43l-225 -612l236 -656l465 1268h43z" />
    <glyph glyph-name="Wgrave.aalt" horiz-adv-x="1859" 
d="M1223 1638l-570 201l13 33l567 -205zM1817 1536l-578 -1556h-29l-276 761l-277 -761h-28l-586 1556h215l465 -1270l188 533l-268 737h209l199 -551l204 551h43l-225 -612l236 -656l465 1268h43z" />
    <glyph glyph-name="Y.aalt" horiz-adv-x="1398" 
d="M1370 1536l-833 -1536h-45l227 420l-647 1116h233l522 -918l498 918h45z" />
    <glyph glyph-name="Yacute.aalt" horiz-adv-x="1398" 
d="M547 1638l-10 29l565 205l12 -33zM1370 1536l-833 -1536h-45l227 420l-647 1116h233l522 -918l498 918h45z" />
    <glyph glyph-name="Ycircumflex.aalt" horiz-adv-x="1398" 
d="M475 1626l-14 16l346 261l346 -261l-14 -16l-332 223zM1370 1536l-833 -1536h-45l227 420l-647 1116h233l522 -918l498 918h45z" />
    <glyph glyph-name="Ydieresis.aalt" horiz-adv-x="1398" 
d="M677 1699.5q-28 -26.5 -73 -26.5t-73.5 26.5t-28.5 69.5t28.5 70t73.5 27t73 -27t28 -70t-28 -69.5zM1079.5 1699.5q-28.5 -26.5 -73.5 -26.5t-73 26.5t-28 69.5t28 70t73 27t73.5 -27t28.5 -70t-28.5 -69.5zM1370 1536l-833 -1536h-45l227 420l-647 1116h233l522 -918
l498 918h45z" />
    <glyph glyph-name="Ygrave.aalt" horiz-adv-x="1398" 
d="M1061 1638l-569 201l12 33l567 -205zM1370 1536l-833 -1536h-45l227 420l-647 1116h233l522 -918l498 918h45z" />
    <glyph glyph-name="a.salt" horiz-adv-x="1175" 
d="M899 1020q119 -100 119 -270v-770h-21l-163 274q-59 -125 -173 -199.5t-245 -74.5q-156 0 -251 88t-95 231q0 88 56 155.5t158.5 104.5t237.5 37h295v164q0 147 -82 231t-225 84q-90 0 -182 -35.5t-164 -97.5l-14 14q78 76 194.5 120t235.5 44q200 0 319 -100zM676 108.5
q88 69.5 141 182.5v272h-256q-127 0 -202.5 -69.5t-75.5 -186.5q0 -121 58 -194.5t155 -73.5q92 0 180 69.5z" />
    <glyph glyph-name="aacute.aalt" horiz-adv-x="1175" 
d="M403 1251l-14 27l438 258l17 -29zM899 1020q119 -100 119 -270v-770h-21l-163 274q-59 -125 -173 -199.5t-245 -74.5q-156 0 -251 88t-95 231q0 88 56 155.5t158.5 104.5t237.5 37h295v164q0 147 -82 231t-225 84q-90 0 -182 -35.5t-164 -97.5l-14 14q78 76 194.5 120
t235.5 44q200 0 319 -100zM676 108.5q88 69.5 141 182.5v272h-256q-127 0 -202.5 -69.5t-75.5 -186.5q0 -121 58 -194.5t155 -73.5q92 0 180 69.5z" />
    <glyph glyph-name="abreve.aalt" horiz-adv-x="1175" 
d="M772 1343.5q-80 -65.5 -172 -65.5t-172 65.5t-121 172.5l21 10q43 -94 117.5 -152.5t154.5 -58.5t154.5 58.5t117.5 152.5l21 -10q-41 -107 -121 -172.5zM899 1020q119 -100 119 -270v-770h-21l-163 274q-59 -125 -173 -199.5t-245 -74.5q-156 0 -251 88t-95 231
q0 88 56 155.5t158.5 104.5t237.5 37h295v164q0 147 -82 231t-225 84q-90 0 -182 -35.5t-164 -97.5l-14 14q78 76 194.5 120t235.5 44q200 0 319 -100zM676 108.5q88 69.5 141 182.5v272h-256q-127 0 -202.5 -69.5t-75.5 -186.5q0 -121 58 -194.5t155 -73.5q92 0 180 69.5z
" />
    <glyph glyph-name="acircumflex.aalt" horiz-adv-x="1175" 
d="M317 1255l-14 17l297 280l299 -280l-14 -17l-285 242zM899 1020q119 -100 119 -270v-770h-21l-163 274q-59 -125 -173 -199.5t-245 -74.5q-156 0 -251 88t-95 231q0 88 56 155.5t158.5 104.5t237.5 37h295v164q0 147 -82 231t-225 84q-90 0 -182 -35.5t-164 -97.5l-14 14
q78 76 194.5 120t235.5 44q200 0 319 -100zM676 108.5q88 69.5 141 182.5v272h-256q-127 0 -202.5 -69.5t-75.5 -186.5q0 -121 58 -194.5t155 -73.5q92 0 180 69.5z" />
    <glyph glyph-name="adieresis.aalt" horiz-adv-x="1175" 
d="M472 1396.5q-28 -26.5 -73 -26.5t-73.5 26.5t-28.5 69.5t28.5 70t73.5 27t73 -27t28 -70t-28 -69.5zM874.5 1396.5q-28.5 -26.5 -73.5 -26.5t-73 26.5t-28 69.5t28 70t73 27t73.5 -27t28.5 -70t-28.5 -69.5zM899 1020q119 -100 119 -270v-770h-21l-163 274
q-59 -125 -173 -199.5t-245 -74.5q-156 0 -251 88t-95 231q0 88 56 155.5t158.5 104.5t237.5 37h295v164q0 147 -82 231t-225 84q-90 0 -182 -35.5t-164 -97.5l-14 14q78 76 194.5 120t235.5 44q200 0 319 -100zM676 108.5q88 69.5 141 182.5v272h-256q-127 0 -202.5 -69.5
t-75.5 -186.5q0 -121 58 -194.5t155 -73.5q92 0 180 69.5z" />
    <glyph glyph-name="agrave.aalt" horiz-adv-x="1175" 
d="M801 1251l-443 256l17 29l440 -258zM899 1020q119 -100 119 -270v-770h-21l-163 274q-59 -125 -173 -199.5t-245 -74.5q-156 0 -251 88t-95 231q0 88 56 155.5t158.5 104.5t237.5 37h295v164q0 147 -82 231t-225 84q-90 0 -182 -35.5t-164 -97.5l-14 14q78 76 194.5 120
t235.5 44q200 0 319 -100zM676 108.5q88 69.5 141 182.5v272h-256q-127 0 -202.5 -69.5t-75.5 -186.5q0 -121 58 -194.5t155 -73.5q92 0 180 69.5z" />
    <glyph glyph-name="amacron.aalt" horiz-adv-x="1175" 
d="M305 1374v33h592v-33h-592zM899 1020q119 -100 119 -270v-770h-21l-163 274q-59 -125 -173 -199.5t-245 -74.5q-156 0 -251 88t-95 231q0 88 56 155.5t158.5 104.5t237.5 37h295v164q0 147 -82 231t-225 84q-90 0 -182 -35.5t-164 -97.5l-14 14q78 76 194.5 120t235.5 44
q200 0 319 -100zM676 108.5q88 69.5 141 182.5v272h-256q-127 0 -202.5 -69.5t-75.5 -186.5q0 -121 58 -194.5t155 -73.5q92 0 180 69.5z" />
    <glyph glyph-name="aogonek.aalt" horiz-adv-x="1175" 
d="M1034 -428q-35 -20 -84 -31.5t-96 -11.5q-94 0 -150.5 46t-56.5 124q0 84 93.5 163t250.5 128l-157 264q-59 -125 -173 -199.5t-245 -74.5q-156 0 -251 88t-95 231q0 88 56 155.5t158.5 104.5t237.5 37h295v164q0 147 -82 231t-225 84q-90 0 -182 -35.5t-164 -97.5
l-14 14q78 76 194.5 120t235.5 44q201 0 319.5 -100t118.5 -270v-770q-102 -49 -164.5 -124t-62.5 -145q0 -61 36.5 -98t96.5 -37q59 0 102 16zM676 108.5q88 69.5 141 182.5v272h-256q-127 0 -202.5 -69.5t-75.5 -186.5q0 -121 58 -194.5t155 -73.5q92 0 180 69.5z" />
    <glyph glyph-name="aring.aalt" horiz-adv-x="1175" 
d="M746.5 1289q-56.5 -52 -146.5 -52t-145.5 52t-55.5 138t55.5 139.5t145.5 53.5t146.5 -53.5t56.5 -139.5t-56.5 -138zM484 1313q44 -43 116 -43t117 43t45 114q0 72 -45 116t-117 44t-116 -44t-44 -116q0 -71 44 -114zM899 1020q119 -100 119 -270v-770h-21l-163 274
q-59 -125 -173 -199.5t-245 -74.5q-156 0 -251 88t-95 231q0 88 56 155.5t158.5 104.5t237.5 37h295v164q0 147 -82 231t-225 84q-90 0 -182 -35.5t-164 -97.5l-14 14q78 76 194.5 120t235.5 44q200 0 319 -100zM676 108.5q88 69.5 141 182.5v272h-256q-127 0 -202.5 -69.5
t-75.5 -186.5q0 -121 58 -194.5t155 -73.5q92 0 180 69.5z" />
    <glyph glyph-name="atilde.aalt" horiz-adv-x="1175" 
d="M347 1427.5q-40 -34.5 -73 -104.5l-22 10q70 162 201 162q47 0 82.5 -20.5t80.5 -61.5q43 -37 72 -54.5t66 -17.5q55 0 95 36t73 106l22 -10q-27 -72 -76 -118t-125 -46q-47 0 -83.5 21.5t-79.5 60.5q-39 35 -70 53t-68 18q-55 0 -95 -34.5zM899 1020q119 -100 119 -270
v-770h-21l-163 274q-59 -125 -173 -199.5t-245 -74.5q-156 0 -251 88t-95 231q0 88 56 155.5t158.5 104.5t237.5 37h295v164q0 147 -82 231t-225 84q-90 0 -182 -35.5t-164 -97.5l-14 14q78 76 194.5 120t235.5 44q200 0 319 -100zM676 108.5q88 69.5 141 182.5v272h-256
q-127 0 -202.5 -69.5t-75.5 -186.5q0 -121 58 -194.5t155 -73.5q92 0 180 69.5z" />
    <glyph glyph-name="b.aalt" horiz-adv-x="1294" 
d="M971.5 1048.5q105.5 -71.5 164 -200.5t58.5 -299t-58.5 -299t-164 -199.5t-244.5 -70.5q-131 0 -232.5 77.5t-140.5 204.5l-166 -282h-20v1617h201v-720q47 113 144 178t214 65q139 0 244.5 -71.5zM833.5 97.5q69.5 64.5 108.5 181t39 270.5t-39 271.5t-108.5 182
t-161.5 64.5q-96 0 -179 -73.5t-124 -192.5v-502q39 -121 121.5 -193.5t181.5 -72.5q92 0 161.5 64.5z" />
    <glyph glyph-name="d.aalt" horiz-adv-x="1294" 
d="M1124 1597v-1617h-20l-164 284q-41 -129 -142.5 -206.5t-232.5 -77.5q-137 0 -242.5 70.5t-164 199.5t-58.5 299t58.5 299t164 200.5t242.5 71.5q119 0 215.5 -65.5t143.5 -175.5v718h200zM801 105.5q82 72.5 123 193.5v502q-39 119 -121 192.5t-180 73.5
q-92 0 -163 -64.5t-110 -182.5t-39 -271q0 -154 39 -270.5t109.5 -181t163.5 -64.5q96 0 178 72.5z" />
    <glyph glyph-name="dcaron.aalt" horiz-adv-x="1294" 
d="M1374 1597l-102 -419l-29 8l96 420zM924 1597h200v-1617h-20l-164 284q-41 -129 -142.5 -206.5t-232.5 -77.5q-137 0 -242.5 70.5t-164 199.5t-58.5 299t58.5 299t164 200.5t242.5 71.5q119 0 215.5 -65.5t143.5 -175.5v718zM801 105.5q82 72.5 123 193.5v502
q-39 119 -121 192.5t-180 73.5q-92 0 -163 -64.5t-110 -182.5t-39 -271q0 -154 39 -270.5t109.5 -181t163.5 -64.5q96 0 178 72.5z" />
    <glyph glyph-name="dcroat.aalt" horiz-adv-x="1294" 
d="M1303 1329h-179v-1349h-20l-164 284q-41 -129 -142.5 -206.5t-232.5 -77.5q-137 0 -242.5 70.5t-164 199.5t-58.5 299t58.5 299t164 200.5t242.5 71.5q119 0 215.5 -65.5t143.5 -175.5v450h-392v33h392v235h200v-235h179v-33zM801 105.5q82 72.5 123 193.5v502
q-39 119 -121 192.5t-180 73.5q-92 0 -163 -64.5t-110 -182.5t-39 -271q0 -154 39 -270.5t109.5 -181t163.5 -64.5q96 0 178 72.5z" />
    <glyph glyph-name="g.aalt" horiz-adv-x="1294" 
d="M1124 1120v-1102q0 -145 -71.5 -256.5t-201.5 -172t-302 -60.5q-98 0 -204.5 37t-178.5 98l16 19q63 -51 155.5 -83t178.5 -32q121 0 214 52t143.5 146.5t50.5 217.5v237q-47 -111 -143.5 -176t-215.5 -65q-137 0 -242.5 70.5t-164 199.5t-58.5 299t58.5 299t164 200.5
t242.5 71.5q131 0 233.5 -78.5t139.5 -205.5l166 284h20zM801 105.5q82 72.5 123 193.5v502q-39 119 -121 192.5t-180 73.5q-92 0 -163 -64.5t-110 -182.5t-39 -271q0 -154 39 -270.5t109.5 -181t163.5 -64.5q96 0 178 72.5z" />
    <glyph glyph-name="gbreve.aalt" horiz-adv-x="1294" 
d="M831.5 1341.5q-79.5 -65.5 -172.5 -65.5q-92 0 -171.5 65.5t-120.5 171.5l20 11q43 -94 118 -152.5t154 -58.5q80 0 155 58.5t118 152.5l20 -11q-41 -106 -120.5 -171.5zM1124 1120v-1102q0 -145 -71.5 -256.5t-201.5 -172t-302 -60.5q-98 0 -204.5 37t-178.5 98l16 19
q63 -51 155.5 -83t178.5 -32q121 0 214 52t143.5 146.5t50.5 217.5v237q-47 -111 -143.5 -176t-215.5 -65q-137 0 -242.5 70.5t-164 199.5t-58.5 299t58.5 299t164 200.5t242.5 71.5q131 0 233.5 -78.5t139.5 -205.5l166 284h20zM801 105.5q82 72.5 123 193.5v502
q-39 119 -121 192.5t-180 73.5q-92 0 -163 -64.5t-110 -182.5t-39 -271q0 -154 39 -270.5t109.5 -181t163.5 -64.5q96 0 178 72.5z" />
    <glyph glyph-name="uni0123.aalt" horiz-adv-x="1294" 
d="M738.5 1415q27.5 -31 27.5 -80t-30.5 -78.5t-80.5 -29.5q-51 0 -82.5 41t-31.5 114q0 106 50 202.5t130 144.5l14 -23q-68 -47 -109.5 -129t-45.5 -172q31 41 86 41q45 0 72.5 -31zM1124 1120v-1102q0 -145 -71.5 -256.5t-201.5 -172t-302 -60.5q-98 0 -204.5 37
t-178.5 98l16 19q63 -51 155.5 -83t178.5 -32q121 0 214 52t143.5 146.5t50.5 217.5v237q-47 -111 -143.5 -176t-215.5 -65q-137 0 -242.5 70.5t-164 199.5t-58.5 299t58.5 299t164 200.5t242.5 71.5q131 0 233.5 -78.5t139.5 -205.5l166 284h20zM801 105.5
q82 72.5 123 193.5v502q-39 119 -121 192.5t-180 73.5q-92 0 -163 -64.5t-110 -182.5t-39 -271q0 -154 39 -270.5t109.5 -181t163.5 -64.5q96 0 178 72.5z" />
    <glyph glyph-name="gdotaccent.aalt" horiz-adv-x="1294" 
d="M745.5 1370q-32.5 -31 -88.5 -31q-53 0 -86.5 32t-33.5 83t33.5 84t86.5 33q55 0 88 -32t33 -85t-32.5 -84zM1124 1120v-1102q0 -145 -71.5 -256.5t-201.5 -172t-302 -60.5q-98 0 -204.5 37t-178.5 98l16 19q63 -51 155.5 -83t178.5 -32q121 0 214 52t143.5 146.5
t50.5 217.5v237q-47 -111 -143.5 -176t-215.5 -65q-137 0 -242.5 70.5t-164 199.5t-58.5 299t58.5 299t164 200.5t242.5 71.5q131 0 233.5 -78.5t139.5 -205.5l166 284h20zM801 105.5q82 72.5 123 193.5v502q-39 119 -121 192.5t-180 73.5q-92 0 -163 -64.5t-110 -182.5
t-39 -271q0 -154 39 -270.5t109.5 -181t163.5 -64.5q96 0 178 72.5z" />
    <glyph glyph-name="i.aalt" horiz-adv-x="538" 
d="M354.5 1372q-32.5 -31 -88.5 -31q-53 0 -87 32t-34 83t34 84t87 33q55 0 88 -32t33 -85t-32.5 -84zM168 0v1100h201v-1100h-201z" />
    <glyph glyph-name="glyph410" horiz-adv-x="542" 
d="M84 1255l-14 27l399 252l16 -29zM292 -293.5q-83 -105.5 -241 -177.5l-10 20q133 104 133 381v1170h201v-1108q0 -180 -83 -285.5z" />
    <glyph glyph-name="m.aalt" horiz-adv-x="1978" 
d="M1733 1031q88 -89 88 -234v-797h-201v844q0 100 -52 160.5t-136 60.5q-98 0 -189.5 -69.5t-148.5 -188.5v-10v-797h-201v844q0 100 -51 160.5t-135 60.5q-100 0 -193.5 -70.5t-144.5 -185.5v-809h-201v1120h20l166 -274q57 123 172 198.5t250 75.5q125 0 209 -69.5
t102 -186.5q61 117 174 186.5t240 69.5q144 0 232 -89z" />
    <glyph glyph-name="n.aalt" horiz-adv-x="1273" 
d="M1024 1028q90 -92 90 -242v-786h-201v834q0 104 -54 167.5t-142 63.5q-102 0 -198.5 -73.5t-149.5 -192.5v-799h-201v1120h20l166 -284q59 129 177 206.5t255 77.5q148 0 238 -92z" />
    <glyph glyph-name="nacute.aalt" horiz-adv-x="1273" 
d="M440 1251l-14 27l438 258l17 -29zM1024 1028q90 -92 90 -242v-786h-201v834q0 104 -54 167.5t-142 63.5q-102 0 -198.5 -73.5t-149.5 -192.5v-799h-201v1120h20l166 -284q59 129 177 206.5t255 77.5q148 0 238 -92z" />
    <glyph glyph-name="ncaron.aalt" horiz-adv-x="1273" 
d="M922 1552l14 -16l-299 -281l-297 281l14 16l283 -241zM1024 1028q90 -92 90 -242v-786h-201v834q0 104 -54 167.5t-142 63.5q-102 0 -198.5 -73.5t-149.5 -192.5v-799h-201v1120h20l166 -284q59 129 177 206.5t255 77.5q148 0 238 -92z" />
    <glyph glyph-name="uni0146.aalt" horiz-adv-x="1273" 
d="M720 -153.5q32 -36.5 32 -104.5q0 -80 -50.5 -151.5t-128.5 -106.5l-14 22q63 33 105.5 91.5t48.5 121.5q-31 -31 -84 -30q-45 0 -74 26.5t-29 69.5q0 45 31 71.5t80 26.5q51 0 83 -36.5zM1024 1028q90 -92 90 -242v-786h-201v834q0 104 -54 167.5t-142 63.5
q-102 0 -198.5 -73.5t-149.5 -192.5v-799h-201v1120h20l166 -284q59 129 177 206.5t255 77.5q148 0 238 -92z" />
    <glyph glyph-name="eng.aalt" horiz-adv-x="1273" 
d="M1024 1028q90 -92 90 -242v-794q0 -180 -83 -285.5t-238 -177.5l-13 20q133 104 133 390v895q0 104 -54 167.5t-142 63.5q-102 0 -198.5 -73.5t-149.5 -192.5v-799h-201v1120h20l166 -284q59 129 177 206.5t255 77.5q148 0 238 -92z" />
    <glyph glyph-name="ntilde.aalt" horiz-adv-x="1273" 
d="M386 1427.5q-40 -34.5 -73 -104.5l-22 10q70 162 201 162q47 0 82.5 -20.5t80.5 -61.5q43 -37 72 -54.5t66 -17.5q55 0 95 36t73 106l22 -10q-27 -72 -76 -118t-125 -46q-47 0 -83.5 21.5t-80.5 60.5q-39 35 -69.5 53t-67.5 18q-55 0 -95 -34.5zM1024 1028
q90 -92 90 -242v-786h-201v834q0 104 -54 167.5t-142 63.5q-102 0 -198.5 -73.5t-149.5 -192.5v-799h-201v1120h20l166 -284q59 129 177 206.5t255 77.5q148 0 238 -92z" />
    <glyph glyph-name="p.aalt" horiz-adv-x="1294" 
d="M971.5 1048.5q105.5 -71.5 164 -200.5t58.5 -299t-58.5 -299t-164 -199.5t-244.5 -70.5q-119 0 -215 65.5t-143 175.5v-672h-201v1571h20l166 -282q39 127 142.5 204.5t230.5 77.5q139 0 244.5 -71.5zM833.5 97.5q69.5 64.5 108.5 181t39 270.5t-39 271.5t-108.5 182
t-161.5 64.5q-96 0 -179 -73.5t-124 -192.5v-502q39 -121 121.5 -193.5t181.5 -72.5q92 0 161.5 64.5z" />
    <glyph glyph-name="q.aalt" horiz-adv-x="1294" 
d="M1124 1120v-1571h-200v672q-47 -111 -143.5 -176t-215.5 -65q-137 0 -242.5 70.5t-164 199.5t-58.5 299t58.5 299t164 200.5t242.5 71.5q131 0 233.5 -78.5t139.5 -205.5l166 284h20zM801 105.5q82 72.5 123 193.5v502q-39 119 -121 192.5t-180 73.5q-92 0 -163 -64.5
t-110 -182.5t-39 -271q0 -154 39 -270.5t109.5 -181t163.5 -64.5q96 0 178 72.5z" />
    <glyph glyph-name="r.aalt" horiz-adv-x="819" 
d="M520.5 1013q114.5 87 255.5 87v-33q-137 0 -249.5 -89t-157.5 -235v-743h-201v1120h20l166 -338q52 144 166.5 231z" />
    <glyph glyph-name="racute.aalt" horiz-adv-x="819" 
d="M285 1251l-15 27l439 258l16 -29zM520.5 1013q114.5 87 255.5 87v-33q-137 0 -249.5 -89t-157.5 -235v-743h-201v1120h20l166 -338q52 144 166.5 231z" />
    <glyph glyph-name="rcaron.aalt" horiz-adv-x="819" 
d="M766 1552l14 -16l-299 -281l-297 281l15 16l282 -241zM520.5 1013q114.5 87 255.5 87v-33q-137 0 -249.5 -89t-157.5 -235v-743h-201v1120h20l166 -338q52 144 166.5 231z" />
    <glyph glyph-name="uni0157.aalt" horiz-adv-x="819" 
d="M351 -153.5q32 -36.5 32 -104.5q0 -80 -50 -151.5t-128 -106.5l-15 22q63 33 105.5 91.5t48.5 121.5q-31 -31 -84 -30q-45 0 -73.5 26.5t-28.5 69.5q0 45 30.5 71.5t79.5 26.5q51 0 83 -36.5zM520.5 1013q114.5 87 255.5 87v-33q-137 0 -249.5 -89t-157.5 -235v-743h-201
v1120h20l166 -338q52 144 166.5 231z" />
    <glyph glyph-name="u.aalt" horiz-adv-x="1253" 
d="M1083 1100v-1120h-20l-164 274q-57 -123 -172 -198.5t-250 -75.5q-143 0 -231 88t-88 233v799h200v-846q0 -98 52.5 -158.5t136.5 -60.5q100 0 192 70.5t144 185.5v809h200z" />
    <glyph glyph-name="uacute.aalt" horiz-adv-x="1253" 
d="M422 1251l-14 27l438 258l16 -29zM1083 1100v-1120h-20l-164 274q-57 -123 -172 -198.5t-250 -75.5q-143 0 -231 88t-88 233v799h200v-846q0 -98 52.5 -158.5t136.5 -60.5q100 0 192 70.5t144 185.5v809h200z" />
    <glyph glyph-name="ucircumflex.aalt" horiz-adv-x="1253" 
d="M336 1255l-14 17l296 280l300 -280l-15 -17l-285 242zM1083 1100v-1120h-20l-164 274q-57 -123 -172 -198.5t-250 -75.5q-143 0 -231 88t-88 233v799h200v-846q0 -98 52.5 -158.5t136.5 -60.5q100 0 192 70.5t144 185.5v809h200z" />
    <glyph glyph-name="udieresis.aalt" horiz-adv-x="1253" 
d="M492.5 1396.5q-27.5 -26.5 -72.5 -26.5t-74 26.5t-29 69.5t29 70t74 27t72.5 -27t27.5 -70t-27.5 -69.5zM895 1396.5q-29 -26.5 -74 -26.5t-72.5 26.5t-27.5 69.5t27.5 70t72.5 27t74 -27t29 -70t-29 -69.5zM1083 1100v-1120h-20l-164 274q-57 -123 -172 -198.5
t-250 -75.5q-143 0 -231 88t-88 233v799h200v-846q0 -98 52.5 -158.5t136.5 -60.5q100 0 192 70.5t144 185.5v809h200z" />
    <glyph glyph-name="ugrave.aalt" horiz-adv-x="1253" 
d="M819 1251l-442 256l16 29l441 -258zM1083 1100v-1120h-20l-164 274q-57 -123 -172 -198.5t-250 -75.5q-143 0 -231 88t-88 233v799h200v-846q0 -98 52.5 -158.5t136.5 -60.5q100 0 192 70.5t144 185.5v809h200z" />
    <glyph glyph-name="uhungarumlaut.aalt" horiz-adv-x="1253" 
d="M713 1610l24 -23l-362 -362l-21 22zM1081 1610l25 -23l-361 -362l-22 22zM1083 1100v-1120h-20l-164 274q-57 -123 -172 -198.5t-250 -75.5q-143 0 -231 88t-88 233v799h200v-846q0 -98 52.5 -158.5t136.5 -60.5q100 0 192 70.5t144 185.5v809h200z" />
    <glyph glyph-name="umacron.aalt" horiz-adv-x="1253" 
d="M324 1374v33h591v-33h-591zM1083 1100v-1120h-20l-164 274q-57 -123 -172 -198.5t-250 -75.5q-143 0 -231 88t-88 233v799h200v-846q0 -98 52.5 -158.5t136.5 -60.5q100 0 192 70.5t144 185.5v809h200z" />
    <glyph glyph-name="uogonek.aalt" horiz-adv-x="1253" 
d="M1098 -428q-35 -20 -84 -31.5t-96 -11.5q-92 0 -149.5 47t-57.5 123q0 84 93 163t253 128l-158 264q-57 -123 -172 -198.5t-250 -75.5q-143 0 -231 88t-88 233v799h200v-846q0 -98 52.5 -158.5t136.5 -60.5q100 0 192 70.5t144 185.5v809h200v-1120q-102 -49 -164.5 -124
t-62.5 -145q0 -61 36 -98t95 -37q61 0 105 16z" />
    <glyph glyph-name="uring.aalt" horiz-adv-x="1253" 
d="M767 1289q-56 -52 -146 -52t-145.5 52t-55.5 138t55 139.5t146 53.5q90 0 146 -53.5t56 -139.5t-56 -138zM505 1313q44 -43 116 -43t116.5 43t44.5 114q0 72 -45 116t-116 44q-72 0 -116 -44t-44 -116q0 -71 44 -114zM1083 1100v-1120h-20l-164 274q-57 -123 -172 -198.5
t-250 -75.5q-143 0 -231 88t-88 233v799h200v-846q0 -98 52.5 -158.5t136.5 -60.5q100 0 192 70.5t144 185.5v809h200z" />
    <glyph glyph-name="w.aalt" horiz-adv-x="1599" 
d="M1554 1100l-477 -1120h-24l-240 569l-260 -569h-23l-485 1120h217l371 -875l162 371l-213 504h196l148 -350l149 350h41l-170 -400l201 -475l366 875h41z" />
    <glyph glyph-name="wacute.aalt" horiz-adv-x="1599" 
d="M657 1251l-14 27l438 258l17 -29zM1554 1100l-477 -1120h-24l-240 569l-260 -569h-23l-485 1120h217l371 -875l162 371l-213 504h196l148 -350l149 350h41l-170 -400l201 -475l366 875h41z" />
    <glyph glyph-name="wcircumflex.aalt" horiz-adv-x="1599" 
d="M571 1255l-14 17l297 280l299 -280l-14 -17l-285 242zM1554 1100l-477 -1120h-24l-240 569l-260 -569h-23l-485 1120h217l371 -875l162 371l-213 504h196l148 -350l149 350h41l-170 -400l201 -475l366 875h41z" />
    <glyph glyph-name="wdieresis.aalt" horiz-adv-x="1599" 
d="M726 1396.5q-28 -26.5 -73 -26.5t-73.5 26.5t-28.5 69.5t28.5 70t73.5 27t73 -27t28 -70t-28 -69.5zM1128.5 1396.5q-28.5 -26.5 -73.5 -26.5t-73 26.5t-28 69.5t28 70t73 27t73.5 -27t28.5 -70t-28.5 -69.5zM1554 1100l-477 -1120h-24l-240 569l-260 -569h-23l-485 1120
h217l371 -875l162 371l-213 504h196l148 -350l149 350h41l-170 -400l201 -475l366 875h41z" />
    <glyph glyph-name="wgrave.aalt" horiz-adv-x="1599" 
d="M1055 1251l-443 256l17 29l440 -258zM1554 1100l-477 -1120h-24l-240 569l-260 -569h-23l-485 1120h217l371 -875l162 371l-213 504h196l148 -350l149 350h41l-170 -400l201 -475l366 875h41z" />
    <glyph glyph-name="A_A.dlig" horiz-adv-x="2603" 
d="M711 1556l671 -1556h-217l-182 428h-721l-176 -428h-43l641 1556h27zM2349 0l-182 428h-766l465 1128h28l670 -1556h-215zM2152 461l-354 833l-340 -833h694zM969 461l-353 829l-342 -829h695z" />
    <glyph glyph-name="A_Aacute.dlig" horiz-adv-x="2603" 
d="M1622 1638l-10 29l565 205l12 -33zM711 1556l671 -1556h-217l-182 428h-721l-176 -428h-43l641 1556h27zM2349 0l-182 428h-766l465 1128h28l670 -1556h-215zM2152 461l-354 833l-340 -833h694zM969 461l-353 829l-342 -829h695z" />
    <glyph glyph-name="A_Adieresis.dlig" horiz-adv-x="2603" 
d="M1752 1699.5q-28 -26.5 -73 -26.5t-73.5 26.5t-28.5 69.5t28.5 70t73.5 27t73 -27t28 -70t-28 -69.5zM2154.5 1699.5q-28.5 -26.5 -73.5 -26.5t-73 26.5t-28 69.5t28 70t73 27t73.5 -27t28.5 -70t-28.5 -69.5zM711 1556l671 -1556h-217l-182 428h-721l-176 -428h-43
l641 1556h27zM2349 0l-182 428h-766l465 1128h28l670 -1556h-215zM2152 461l-354 833l-340 -833h694zM969 461l-353 829l-342 -829h695z" />
    <glyph glyph-name="A_Adieresis_Adieresis.dlig" horiz-adv-x="3786" 
d="M1605.5 1699.5q-28.5 26.5 -28.5 69.5t28.5 70t73.5 27t73 -27t28 -70t-28 -69.5t-73 -26.5t-73.5 26.5zM2008 1699.5q-28 26.5 -28 69.5t28 70t73 27t73.5 -27t28.5 -70t-28.5 -69.5t-73.5 -26.5t-73 26.5zM2788.5 1699.5q-27.5 26.5 -27.5 69.5t27.5 70t72.5 27
t73.5 -27t28.5 -70t-28.5 -69.5t-73.5 -26.5t-72.5 26.5zM3191.5 1699.5q-27.5 26.5 -27.5 69.5t27.5 70t73.5 27q45 0 73.5 -27t28.5 -70t-28.5 -69.5t-73.5 -26.5q-46 0 -73.5 26.5zM711 1556l671 -1556h-217l-182 428h-721l-176 -428h-43l641 1556h27zM1894 1556
l670 -1556h-215l-182 428h-766l465 1128h28zM3533 0l-182 428h-766l464 1128h29l670 -1556h-215zM2152 461l-354 833l-340 -833h694zM3336 461l-354 829l-340 -829h694zM969 461l-353 829l-342 -829h695z" />
    <glyph glyph-name="A_Agrave.dlig" horiz-adv-x="2603" 
d="M2136 1638l-569 201l12 33l567 -205zM711 1556l671 -1556h-217l-182 428h-721l-176 -428h-43l641 1556h27zM2349 0l-182 428h-766l465 1128h28l670 -1556h-215zM2152 461l-354 833l-340 -833h694zM969 461l-353 829l-342 -829h695z" />
    <glyph glyph-name="A_Amacron.dlig" horiz-adv-x="2603" 
d="M1583 1673v33h592v-33h-592zM711 1556l671 -1556h-217l-182 428h-721l-176 -428h-43l641 1556h27zM2349 0l-182 428h-766l465 1128h28l670 -1556h-215zM2152 461l-354 833l-340 -833h694zM969 461l-353 829l-342 -829h695z" />
    <glyph glyph-name="A_Aogonek.dlig" horiz-adv-x="2603" 
d="M711 1556l671 -1556h-217l-182 428h-721l-176 -428h-43l641 1556h27zM2580 -428q-37 -20 -85 -31.5t-95 -11.5q-94 0 -151.5 47t-57.5 123q0 86 84 167t228 134h-154l-182 428h-766l465 1128h28l670 -1556q-102 -53 -164.5 -133t-62.5 -156q0 -61 36.5 -98t96.5 -37
q59 0 102 16zM2152 461l-354 833l-340 -833h694zM969 461l-353 829l-342 -829h695z" />
    <glyph glyph-name="A_Aring.dlig" horiz-adv-x="2603" 
d="M2026.5 1676.5q-56.5 -52.5 -146.5 -52.5t-145.5 52.5t-55.5 138.5t55.5 139t145.5 53t146.5 -53t56.5 -139t-56.5 -138.5zM1764 1700q44 -43 116 -43t117 44t45 114q0 72 -45 115.5t-117 43.5t-116 -44t-44 -115q0 -72 44 -115zM711 1556l671 -1556h-217l-182 428h-721
l-176 -428h-43l641 1556h27zM2349 0l-182 428h-766l465 1128h28l670 -1556h-215zM2152 461l-354 833l-340 -833h694zM969 461l-353 829l-342 -829h695z" />
    <glyph glyph-name="A_Atilde.dlig" horiz-adv-x="2603" 
d="M1627 1802q-40 -35 -73 -104l-22 10q68 162 201 162q47 0 83 -21q36 -20 80 -61q43 -37 72 -54t66 -18q55 0 95 36t73 106l22 -11q-27 -72 -76 -117q-49 -46 -125 -47q-47 0 -84 22t-79 60q-39 35 -70 54q-31 18 -68 18q-55 0 -95 -35zM711 1556l671 -1556h-217l-182 428
h-721l-176 -428h-43l641 1556h27zM2349 0l-182 428h-766l465 1128h28l670 -1556h-215zM2152 461l-354 833l-340 -833h694zM969 461l-353 829l-342 -829h695z" />
    <glyph glyph-name="A_J.dlig" horiz-adv-x="2027" 
d="M1200 428h-938l-176 -428h-43l641 1556h29zM1827 1536v-1227q0 -150 -94.5 -239.5t-247.5 -89.5q-80 0 -150.5 25.5t-115.5 70.5l16 20q33 -33 81 -51t97 -18q94 0 150.5 68.5t56.5 178.5v1262h207zM274 461h697l-355 829z" />
    <glyph glyph-name="Aacute_A.dlig" horiz-adv-x="2603" 
d="M440 1638l-10 29l565 205l13 -33zM711 1556l671 -1556h-217l-182 428h-721l-176 -428h-43l641 1556h27zM2349 0l-182 428h-766l465 1128h28l670 -1556h-215zM2152 461l-354 833l-340 -833h694zM969 461l-353 829l-342 -829h695z" />
    <glyph glyph-name="Aacute_Aacute.dlig" horiz-adv-x="2603" 
d="M440 1638l-10 29l565 205l13 -33zM711 1556l671 -1556h-217l-182 428h-721l-176 -428h-43l641 1556h27zM2349 0l-182 428h-766l465 1128h28l670 -1556h-215zM2152 461l-354 833l-340 -833h694zM969 461l-353 829l-342 -829h695zM1622 1638l-10 29l565 205l12 -33z" />
    <glyph glyph-name="Aacute_J.dlig" horiz-adv-x="2027" 
d="M440 1638l-10 29l565 205l13 -33zM1200 428h-938l-176 -428h-43l641 1556h29zM1827 1536v-1227q0 -150 -94 -239q-94 -90 -248 -90q-80 0 -151 25q-71 26 -115 71l16 20q33 -33 81 -51t97 -18q94 0 151 68q56 69 56 179v1262h207zM274 461h697l-355 829z" />
    <glyph glyph-name="Abreve_J.dlig" horiz-adv-x="2027" 
d="M896 1736q-91 -62 -198 -63q-106 0 -197 63q-91 62 -136 165l22 10q49 -90 135 -146q86 -55 176 -55t176 55t136 146l22 -10q-45 -103 -136 -165zM1200 428h-938l-176 -428h-43l641 1556h29zM1827 1536v-1227q0 -150 -94 -239q-94 -90 -248 -90q-80 0 -151 25
q-71 26 -115 71l16 20q33 -33 81 -51t97 -18q94 0 151 68q56 69 56 179v1262h207zM274 461h697l-355 829z" />
    <glyph glyph-name="Adieresis_A.dlig" horiz-adv-x="2603" 
d="M422 1699.5q-29 26.5 -29 69.5t29 70t74 27t72.5 -27t27.5 -70t-27.5 -69.5t-72.5 -26.5t-74 26.5zM825.5 1699.5q-28.5 26.5 -28.5 69.5t28.5 70t73.5 27t73.5 -27t28.5 -70t-28.5 -69.5t-73.5 -26.5t-73.5 26.5zM711 1556l671 -1556h-217l-182 428h-721l-176 -428h-43
l641 1556h27zM2349 0l-182 428h-766l465 1128h28l670 -1556h-215zM2152 461l-354 833l-340 -833h694zM969 461l-353 829l-342 -829h695z" />
    <glyph glyph-name="Adieresis_Adieresis.dlig" horiz-adv-x="2603" 
d="M570 1700q-28 -27 -72 -27q-45 0 -74 27t-29 69q0 43 29 70t74 27t72 -27q28 -27 28 -70q0 -42 -28 -69zM973 1700q-29 -27 -74 -27t-73 27t-27 69q0 43 27 70q28 27 73 27t74 -27t28 -70q1 -42 -28 -69zM711 1556l671 -1556h-217l-182 428h-721l-176 -428h-43l641 1556
h27zM2349 0l-182 428h-766l465 1128h28l670 -1556h-215zM2152 461l-354 833l-340 -833h694zM969 461l-353 829l-342 -829h695zM1752 1700q-28 -27 -73 -27t-73 27q-29 27 -29 69q0 43 29 70t73 27q45 0 73 -27t28 -70q0 -42 -28 -69zM2154 1700q-29 -27 -73 -27
q-45 0 -73 27t-28 69q0 43 28 70t73 27t73 -27q29 -27 29 -70q0 -42 -29 -69z" />
    <glyph glyph-name="Adieresis_Adieresis_A.dlig" horiz-adv-x="3786" 
d="M422 1699.5q-29 26.5 -29 69.5t29 70t74 27t72.5 -27t27.5 -70t-27.5 -69.5t-72.5 -26.5t-74 26.5zM825.5 1699.5q-28.5 26.5 -28.5 69.5t28.5 70t73.5 27t73.5 -27t28.5 -70t-28.5 -69.5t-73.5 -26.5t-73.5 26.5zM1605.5 1699.5q-28.5 26.5 -28.5 69.5t28.5 70t73.5 27
t73 -27t28 -70t-28 -69.5t-73 -26.5t-73.5 26.5zM2008 1699.5q-28 26.5 -28 69.5t28 70t73 27t73.5 -27t28.5 -70t-28.5 -69.5t-73.5 -26.5t-73 26.5zM711 1556l671 -1556h-217l-182 428h-721l-176 -428h-43l641 1556h27zM1894 1556l670 -1556h-215l-182 428h-766l465 1128
h28zM3533 0l-182 428h-766l464 1128h29l670 -1556h-215zM2152 461l-354 833l-340 -833h694zM3336 461l-354 829l-340 -829h694zM969 461l-353 829l-342 -829h695z" />
    <glyph glyph-name="Adieresis_J.dlig" horiz-adv-x="2027" 
d="M570 1700q-28 -27 -72 -27q-45 0 -74 27t-29 69q0 43 29 70t74 27t72 -27q28 -27 28 -70q0 -42 -28 -69zM973 1700q-29 -27 -74 -27t-73 27t-27 69q0 43 27 70q28 27 73 27t74 -27t28 -70q1 -42 -28 -69zM1200 428h-938l-176 -428h-43l641 1556h29zM1827 1536v-1227
q0 -150 -94 -239q-94 -90 -248 -90q-80 0 -151 25q-71 26 -115 71l16 20q33 -33 81 -51t97 -18q94 0 151 68q56 69 56 179v1262h207zM274 461h697l-355 829z" />
    <glyph glyph-name="Agrave_Agrave.dlig" horiz-adv-x="2603" 
d="M954 1638l-569 201l12 33l568 -205zM711 1556l671 -1556h-217l-182 428h-721l-176 -428h-43l641 1556h27zM2349 0l-182 428h-766l465 1128h28l670 -1556h-215zM2152 461l-354 833l-340 -833h694zM969 461l-353 829l-342 -829h695zM2136 1638l-569 201l12 33l567 -205z
" />
    <glyph glyph-name="Amacron_A.dlig" horiz-adv-x="2603" 
d="M993 1673h-592v33h592v-33zM711 1556l671 -1556h-217l-182 428h-721l-176 -428h-43l641 1556h27zM2349 0l-182 428h-766l465 1128h28l670 -1556h-215zM2152 461l-354 833l-340 -833h694zM969 461l-353 829l-342 -829h695z" />
    <glyph glyph-name="Amacron_J.dlig" horiz-adv-x="2027" 
d="M401 1673v33h592v-33h-592zM1200 428h-938l-176 -428h-43l641 1556h29zM1827 1536v-1227q0 -150 -94 -239q-94 -90 -248 -90q-80 0 -151 25q-71 26 -115 71l16 20q33 -33 81 -51t97 -18q94 0 151 68q56 69 56 179v1262h207zM274 461h697l-355 829z" />
    <glyph glyph-name="Aring_A.dlig" horiz-adv-x="2603" 
d="M551 1676.5q-55 52.5 -55 138.5t55 139t145 53q92 0 147.5 -53t55.5 -139t-55.5 -138.5t-147.5 -52.5q-90 0 -145 52.5zM581 1930q-44 -44 -44 -115q0 -72 44 -115t115 -43q74 0 118 43t44 115t-44 115.5t-118 43.5q-71 0 -115 -44zM711 1556l671 -1556h-217l-182 428
h-721l-176 -428h-43l641 1556h27zM2349 0l-182 428h-766l465 1128h28l670 -1556h-215zM2152 461l-354 833l-340 -833h694zM969 461l-353 829l-342 -829h695z" />
    <glyph glyph-name="Aring_Aring.dlig" horiz-adv-x="2603" 
d="M845 1676q-56 -52 -147 -52q-90 0 -145 52t-55 139q0 86 55 139t145 53t147 -53q56 -53 56 -139q0 -87 -56 -139zM583 1700q44 -43 115 -43q72 0 117 44t45 114q0 72 -45 115q-45 44 -117 44t-115 -44q-44 -44 -44 -115q0 -72 44 -115zM711 1556l671 -1556h-217l-182 428
h-721l-176 -428h-43l641 1556h27zM2349 0l-182 428h-766l465 1128h28l670 -1556h-215zM2152 461l-354 833l-340 -833h694zM969 461l-353 829l-342 -829h695zM2026 1676q-56 -52 -146 -52t-145 52t-56 139q0 86 56 139q55 53 145 53t146 -53t57 -139q-1 -87 -57 -139z
M1764 1700q44 -43 116 -43t117 44t45 114q0 72 -45 115q-45 44 -117 44t-116 -44t-44 -115q0 -72 44 -115z" />
    <glyph glyph-name="Aring_J.dlig" horiz-adv-x="2027" 
d="M845 1676q-56 -52 -147 -52q-90 0 -145 52t-55 139q0 86 55 139t145 53t147 -53q56 -53 56 -139q0 -87 -56 -139zM583 1700q44 -43 115 -43q72 0 117 44t45 114q0 72 -45 115q-45 44 -117 44t-115 -44q-44 -44 -44 -115q0 -72 44 -115zM1200 428h-938l-176 -428h-43
l641 1556h29zM1827 1536v-1227q0 -150 -94 -239q-94 -90 -248 -90q-80 0 -151 25q-71 26 -115 71l16 20q33 -33 81 -51t97 -18q94 0 151 68q56 69 56 179v1262h207zM274 461h697l-355 829z" />
    <glyph glyph-name="H_E.dlig" horiz-adv-x="2000" 
d="M1915 33v-33h-801v797h-696v-797h-209v1536h209v-707h696v707h787v-33h-578v-674h483v-32h-483v-764h592z" />
    <glyph glyph-name="H_Eacute.dlig" horiz-adv-x="2000" 
d="M1257 1638l-10 29l565 205l13 -33zM1915 33v-33h-801v797h-696v-797h-209v1536h209v-707h696v707h787v-33h-578v-674h483v-32h-483v-764h592z" />
    <glyph glyph-name="H_Ecircumflex.dlig" horiz-adv-x="2000" 
d="M1184 1626l-15 16l347 261l346 -261l-15 -16l-331 223zM1915 33v-33h-801v797h-696v-797h-209v1536h209v-707h696v707h787v-33h-578v-674h483v-32h-483v-764h592z" />
    <glyph glyph-name="H_Edieresis.dlig" horiz-adv-x="2000" 
d="M1388 1700q-28 -27 -73 -27t-74 27t-29 69q0 43 29 70t74 27t73 -27t27 -70q1 -42 -27 -69zM1790 1700q-29 -27 -74 -27t-72 27q-28 27 -28 69q0 43 28 70t72 27q45 0 74 -27t29 -70q0 -42 -29 -69zM1915 33v-33h-801v797h-696v-797h-209v1536h209v-707h696v707h787v-33
h-578v-674h483v-32h-483v-764h592z" />
    <glyph glyph-name="H_Edotaccent.dlig" horiz-adv-x="2000" 
d="M1605 1696q-34 -33 -89 -33q-57 0 -92 33q-34 33 -33 86q0 53 33 86q34 33 92 33q55 0 89 -33t33 -86q1 -53 -33 -86zM1915 33v-33h-801v797h-696v-797h-209v1536h209v-707h696v707h787v-33h-578v-674h483v-32h-483v-764h592z" />
    <glyph glyph-name="H_Egrave.dlig" horiz-adv-x="2000" 
d="M1772 1638l-570 201l12 33l568 -205zM1915 33v-33h-801v797h-696v-797h-209v1536h209v-707h696v707h787v-33h-578v-674h483v-32h-483v-764h592z" />
    <glyph glyph-name="H_Emacron.dlig" horiz-adv-x="2000" 
d="M1219 1673v33h591v-33h-591zM1915 33v-33h-801v797h-696v-797h-209v1536h209v-707h696v707h787v-33h-578v-674h483v-32h-483v-764h592z" />
    <glyph glyph-name="H_Eogonek.dlig" horiz-adv-x="2000" 
d="M1929 -428q-35 -20 -84 -31.5t-94 -11.5q-94 0 -151.5 47t-57.5 123q0 86 84 167t227 134h-739v797h-696v-797h-209v1536h209v-707h696v707h787v-33h-578v-674h483v-32h-483v-764h592v-33q-102 -53 -164.5 -133t-62.5 -156q0 -61 36.5 -98t96.5 -37q59 0 102 16z" />
    <glyph glyph-name="K_A.dlig" horiz-adv-x="2566" 
d="M2314 0l-182 428h-766l465 1128h29l669 -1556h-215zM209 1536h209v-1536h-209v1536zM633 922l725 -922h-246l-649 809l749 727h54zM2118 461l-355 833l-340 -833h695z" />
    <glyph glyph-name="K_A_A.dlig" horiz-adv-x="3749" 
d="M1860 1556l669 -1556h-215l-182 428h-766l465 1128h29zM3498 0l-182 428h-766l465 1128h28l670 -1556h-215zM209 1536h209v-1536h-209v1536zM633 922l725 -922h-246l-649 809l749 727h54zM2118 461l-355 833l-340 -833h695zM3301 461l-354 829l-342 -829h696z" />
    <glyph glyph-name="K_Aacute.dlig" horiz-adv-x="2566" 
d="M1587 1638l-10 29l565 205l12 -33zM2314 0l-182 428h-766l465 1128h29l669 -1556h-215zM209 1536h209v-1536h-209v1536zM633 922l725 -922h-246l-649 809l749 727h54zM2118 461l-355 833l-340 -833h695z" />
    <glyph glyph-name="K_Abreve.dlig" horiz-adv-x="2566" 
d="M2043 1736q-91 -62 -198 -63q-106 0 -197 63q-91 62 -137 165l23 10q49 -90 135 -146q86 -55 176 -55t176 55t136 146l22 -10q-45 -103 -136 -165zM2314 0l-182 428h-766l465 1128h29l669 -1556h-215zM209 1536h209v-1536h-209v1536zM633 922l725 -922h-246l-649 809
l749 727h54zM2118 461l-355 833l-340 -833h695z" />
    <glyph glyph-name="K_Acircumflex.dlig" horiz-adv-x="2566" 
d="M1516 1626l-15 16l346 261l346 -261l-14 -16l-332 223zM2314 0l-182 428h-766l465 1128h29l669 -1556h-215zM209 1536h209v-1536h-209v1536zM633 922l725 -922h-246l-649 809l749 727h54zM2118 461l-355 833l-340 -833h695z" />
    <glyph glyph-name="K_Adieresis.dlig" horiz-adv-x="2566" 
d="M1717 1700q-28 -27 -72 -27q-45 0 -74 27t-29 69q0 43 29 70t74 27t72 -27q28 -27 28 -70q0 -42 -28 -69zM2120 1700q-29 -27 -74 -27t-73 27t-27 69q0 43 27 70q28 27 73 27t74 -27t28 -70q1 -42 -28 -69zM2314 0l-182 428h-766l465 1128h29l669 -1556h-215zM209 1536
h209v-1536h-209v1536zM633 922l725 -922h-246l-649 809l749 727h54zM2118 461l-355 833l-340 -833h695z" />
    <glyph glyph-name="K_Agrave.dlig" horiz-adv-x="2566" 
d="M2101 1638l-569 201l12 33l567 -205zM2314 0l-182 428h-766l465 1128h29l669 -1556h-215zM209 1536h209v-1536h-209v1536zM633 922l725 -922h-246l-649 809l749 727h54zM2118 461l-355 833l-340 -833h695z" />
    <glyph glyph-name="K_Amacron.dlig" horiz-adv-x="2566" 
d="M1550 1673v33h592v-33h-592zM2314 0l-182 428h-766l465 1128h29l669 -1556h-215zM209 1536h209v-1536h-209v1536zM633 922l725 -922h-246l-649 809l749 727h54zM2118 461l-355 833l-340 -833h695z" />
    <glyph glyph-name="K_Aogonek.dlig" horiz-adv-x="2566" 
d="M2546 -428q-35 -20 -84 -31.5t-97 -11.5q-94 0 -150 46t-56 124q0 86 82.5 167t226.5 134h-154l-182 428h-766l465 1128h29l669 -1556q-102 -53 -164.5 -133t-62.5 -156q0 -61 37 -98t96 -37t102 16zM209 1536h209v-1536h-209v1536zM633 922l725 -922h-246l-649 809
l749 727h54zM2118 461l-355 833l-340 -833h695z" />
    <glyph glyph-name="K_Aring.dlig" horiz-adv-x="2566" 
d="M1992 1676q-56 -52 -147 -52q-90 0 -145 52t-55 139q0 86 55 139t145 53t147 -53q56 -53 56 -139q0 -87 -56 -139zM1730 1700q44 -43 115 -43q72 0 117 44t45 114q0 72 -45 115q-45 44 -117 44t-115 -44q-44 -44 -44 -115q0 -72 44 -115zM2314 0l-182 428h-766l465 1128
h29l669 -1556h-215zM209 1536h209v-1536h-209v1536zM633 922l725 -922h-246l-649 809l749 727h54zM2118 461l-355 833l-340 -833h695z" />
    <glyph glyph-name="uni0136_Amacron.dlig" horiz-adv-x="2566" 
d="M814 -154q32 -37 32 -104q0 -80 -50 -152t-128 -106l-15 22q63 33 106 92q42 58 48 121q-31 -31 -84 -30q-45 0 -74 26q-29 27 -28 70q0 45 30 72q31 27 80 26q51 0 83 -37zM2314 0l-182 428h-766l465 1128h29l669 -1556h-215zM209 1536h209v-1536h-209v1536zM633 922
l725 -922h-246l-649 809l749 727h54zM2118 461l-355 833l-340 -833h695zM1550 1673v33h592v-33h-592z" />
    <glyph glyph-name="L_A.dlig" horiz-adv-x="2062" 
d="M1810 0l-182 428h-766l465 1128h29l669 -1556h-215zM418 33h602v-33h-811v1536h209v-1503zM1614 461l-354 833l-340 -833h694z" />
    <glyph glyph-name="L_A_A.dlig" horiz-adv-x="3246" 
d="M1356 1556l669 -1556h-215l-182 428h-766l465 1128h29zM2992 0l-182 428h-764l465 1128h29l669 -1556h-217zM418 33h602v-33h-811v1536h209v-1503zM1614 461l-354 833l-340 -833h694zM2796 461l-353 829l-340 -829h693z" />
    <glyph glyph-name="L_Aacute.dlig" horiz-adv-x="2062" 
d="M1083 1638l-10 29l565 205l13 -33zM1810 0l-182 428h-766l465 1128h29l669 -1556h-215zM418 33h602v-33h-811v1536h209v-1503zM1614 461l-354 833l-340 -833h694z" />
    <glyph glyph-name="L_Abreve.dlig" horiz-adv-x="2062" 
d="M1539 1736q-91 -62 -198 -63q-106 0 -197 63q-91 62 -136 165l22 10q49 -90 135 -146q86 -55 176 -55t177 55q86 55 135 146l22 -10q-45 -103 -136 -165zM1810 0l-182 428h-766l465 1128h29l669 -1556h-215zM418 33h602v-33h-811v1536h209v-1503zM1614 461l-354 833
l-340 -833h694z" />
    <glyph glyph-name="L_Acircumflex.dlig" horiz-adv-x="2062" 
d="M1012 1626l-15 16l346 261l347 -261l-15 -16l-332 223zM1810 0l-182 428h-766l465 1128h29l669 -1556h-215zM418 33h602v-33h-811v1536h209v-1503zM1614 461l-354 833l-340 -833h694z" />
    <glyph glyph-name="L_Adieresis.dlig" horiz-adv-x="2062" 
d="M1213 1700q-28 -27 -72 -27q-45 0 -74 27t-29 69q0 43 29 70t74 27t72 -27q28 -27 28 -70q0 -42 -28 -69zM1616 1700q-29 -27 -74 -27t-73 27t-27 69q0 43 27 70q28 27 73 27t74 -27t29 -70q0 -42 -29 -69zM1810 0l-182 428h-766l465 1128h29l669 -1556h-215zM418 33h602
v-33h-811v1536h209v-1503zM1614 461l-354 833l-340 -833h694z" />
    <glyph glyph-name="L_Adieresis_A.dlig" horiz-adv-x="3246" 
d="M1067 1699.5q-29 26.5 -29 69.5t29 70t74 27t72.5 -27t27.5 -70t-27.5 -69.5t-72.5 -26.5t-74 26.5zM1469.5 1699.5q-27.5 26.5 -27.5 69.5t27.5 70t72.5 27t74 -27t29 -70t-29 -69.5t-74 -26.5t-72.5 26.5zM1356 1556l669 -1556h-215l-182 428h-766l465 1128h29zM2992 0
l-182 428h-764l465 1128h29l669 -1556h-217zM418 33h602v-33h-811v1536h209v-1503zM1614 461l-354 833l-340 -833h694zM2796 461l-353 829l-340 -829h693z" />
    <glyph glyph-name="L_Agrave.dlig" horiz-adv-x="2062" 
d="M1597 1638l-569 201l12 33l568 -205zM1810 0l-182 428h-766l465 1128h29l669 -1556h-215zM418 33h602v-33h-811v1536h209v-1503zM1614 461l-354 833l-340 -833h694z" />
    <glyph glyph-name="L_Amacron.dlig" horiz-adv-x="2062" 
d="M1044 1673v33h592v-33h-592zM1810 0l-182 428h-766l465 1128h29l669 -1556h-215zM418 33h602v-33h-811v1536h209v-1503zM1614 461l-354 833l-340 -833h694z" />
    <glyph glyph-name="L_Aogonek.dlig" horiz-adv-x="2062" 
d="M2040 -428q-35 -20 -84 -31.5t-94 -11.5q-94 0 -151.5 47t-57.5 123q0 86 84 167t227 134h-154l-182 428h-766l465 1128h29l669 -1556q-102 -53 -164.5 -133t-62.5 -156q0 -61 37 -98t96 -37t103 16zM418 33h602v-33h-811v1536h209v-1503zM1614 461l-354 833l-340 -833
h694z" />
    <glyph glyph-name="L_Aring.dlig" horiz-adv-x="2062" 
d="M1488 1676q-56 -52 -147 -52q-90 0 -145 52t-55 139q0 86 55 139t145 53t147 -53q56 -53 56 -139q0 -87 -56 -139zM1226 1700q44 -43 115 -43q72 0 117 44t45 114q0 72 -45 115q-45 44 -117 44t-115 -44q-44 -44 -44 -115q0 -72 44 -115zM1810 0l-182 428h-766l465 1128
h29l669 -1556h-215zM418 33h602v-33h-811v1536h209v-1503zM1614 461l-354 833l-340 -833h694z" />
    <glyph glyph-name="L_Atilde.dlig" horiz-adv-x="2062" 
d="M1089 1802q-40 -35 -73 -104l-23 10q68 162 201 162q47 0 83 -21q36 -20 81 -61q43 -37 72 -54t65 -18q55 0 95 36t73 106l23 -11q-27 -72 -76 -117q-49 -46 -125 -47q-47 0 -84 22t-80 60q-39 35 -70 54q-31 18 -67 18q-55 0 -95 -35zM1810 0l-182 428h-766l465 1128h29
l669 -1556h-215zM418 33h602v-33h-811v1536h209v-1503zM1614 461l-354 833l-340 -833h694z" />
    <glyph glyph-name="L_L.dlig" horiz-adv-x="1499" 
d="M418 33h837v-33h-1046v1536h209v-1503zM1497 399v-32h-663v1169h206v-1137h457z" />
    <glyph glyph-name="uni013B_Amacron.dlig" horiz-adv-x="2062" 
d="M706 -154q32 -37 31 -104q0 -80 -50 -152t-128 -106l-14 22q63 33 105 92q42 58 48 121q-31 -31 -84 -30q-45 0 -73 26q-29 27 -29 70q0 45 31 72t80 26q51 0 83 -37zM1810 0l-182 428h-766l465 1128h29l669 -1556h-215zM418 33h602v-33h-811v1536h209v-1503zM1614 461
l-354 833l-340 -833h694zM1044 1673v33h592v-33h-592z" />
    <glyph glyph-name="uni013B_L.dlig" horiz-adv-x="1499" 
d="M794 -154q32 -37 31 -104q0 -80 -50 -152t-128 -106l-14 22q63 33 105 92q42 58 48 121q-31 -31 -84 -30q-45 0 -73 26q-29 27 -29 70q0 45 31 72t80 26q51 0 83 -37zM418 33h837v-33h-1046v1536h209v-1503zM1497 399v-32h-663v1169h206v-1137h457z" />
    <glyph glyph-name="N_N.dlig" horiz-adv-x="2605" 
d="M2394 1536v-1556h-29l-1042 1275v-1275h-29l-1044 1275v-1255h-41v1556h31l1042 -1277v1277h29l1042 -1277v1257h41z" />
    <glyph glyph-name="uni0145_N.dlig" horiz-adv-x="2605" 
d="M849 -153.5q32 -36.5 32 -104.5q0 -80 -50.5 -151.5t-128.5 -106.5l-14 22q63 33 105.5 91.5t48.5 121.5q-31 -31 -84 -30q-45 0 -74 26.5t-29 69.5q0 45 31 71.5t80 26.5q51 0 83 -36.5zM2394 1536v-1556h-29l-1042 1275v-1275h-29l-1044 1275v-1255h-41v1556h31
l1042 -1277v1277h29l1042 -1277v1257h41z" />
    <glyph glyph-name="uni0145_uni0145.dlig" horiz-adv-x="2605" 
d="M1922 -154q32 -37 32 -104q0 -80 -50 -152t-128 -106l-15 22q63 33 106 92q42 58 48 121q-31 -31 -84 -30q-45 0 -74 26q-29 27 -28 70q0 45 30 72q31 27 80 26q51 0 83 -37zM2394 1536v-1556h-29l-1042 1275v-1275h-29l-1044 1275v-1255h-41v1556h31l1042 -1277v1277h29
l1042 -1277v1257h41zM849 -154q32 -37 32 -104q0 -80 -51 -152q-50 -72 -128 -106l-14 22q63 33 106 92q42 58 48 121q-31 -31 -84 -30q-45 0 -74 26q-29 27 -29 70q0 45 31 72t80 26q51 0 83 -37z" />
    <glyph glyph-name="O_O.dlig" horiz-adv-x="2637" 
d="M2143 1458q179 -98 278.5 -277.5t99.5 -412.5t-99.5 -412.5t-278.5 -277.5t-412 -98q-231 0 -412 112q-180 -113 -414 -112q-233 0 -412.5 98t-277.5 277.5t-98 412.5t98 412.5t277.5 277.5t412.5 98t414 -112q180 113 412 112q233 0 412 -98zM1280 119
q-139 102 -215 270t-76 379t76 379t215 270q-137 80 -313 80q-186 0 -328.5 -91t-220.5 -257t-78 -381t78 -381t220 -257t329 -91q176 0 313 80zM2000 130q142 91 220 257t78 381t-78 381t-220 257t-329 91q-174 0 -315 -80q139 -102 216 -270t77 -379t-77 -379t-216 -270
q141 -80 315 -80q187 0 329 91zM1109 1138.5q-75 -161.5 -75 -370.5t75 -370.5t210 -256.5q135 94 210 256t75 371t-75 370.5t-210 256.5q-135 -95 -210 -256.5z" />
    <glyph glyph-name="O_Oacute.dlig" horiz-adv-x="2637" 
d="M1475 1638l-11 29l566 205l12 -33zM2143 1458q179 -98 278.5 -277.5t99.5 -412.5t-99.5 -412.5t-278.5 -277.5t-412 -98q-231 0 -412 112q-180 -113 -414 -112q-233 0 -412.5 98t-277.5 277.5t-98 412.5t98 412.5t277.5 277.5t412.5 98t414 -112q180 113 412 112
q233 0 412 -98zM1280 119q-139 102 -215 270t-76 379t76 379t215 270q-137 80 -313 80q-186 0 -328.5 -91t-220.5 -257t-78 -381t78 -381t220 -257t329 -91q176 0 313 80zM2000 130q142 91 220 257t78 381t-78 381t-220 257t-329 91q-174 0 -315 -80q139 -102 216 -270
t77 -379t-77 -379t-216 -270q141 -80 315 -80q187 0 329 91zM1109 1138.5q-75 -161.5 -75 -370.5t75 -370.5t210 -256.5q135 94 210 256t75 371t-75 370.5t-210 256.5q-135 -95 -210 -256.5z" />
    <glyph glyph-name="O_Odieresis.dlig" horiz-adv-x="2637" 
d="M1456 1699.5q-29 26.5 -29 69.5t29 70t74 27t72.5 -27t27.5 -70t-27.5 -69.5t-72.5 -26.5t-74 26.5zM1859.5 1699.5q-28.5 26.5 -28.5 69.5t28.5 70t73.5 27t73 -27t28 -70t-28 -69.5t-73 -26.5t-73.5 26.5zM2143 1458q179 -98 278.5 -277.5t99.5 -412.5t-99.5 -412.5
t-278.5 -277.5t-412 -98q-231 0 -412 112q-180 -113 -414 -112q-233 0 -412.5 98t-277.5 277.5t-98 412.5t98 412.5t277.5 277.5t412.5 98t414 -112q180 113 412 112q233 0 412 -98zM1280 119q-139 102 -215 270t-76 379t76 379t215 270q-137 80 -313 80q-186 0 -328.5 -91
t-220.5 -257t-78 -381t78 -381t220 -257t329 -91q176 0 313 80zM2000 130q142 91 220 257t78 381t-78 381t-220 257t-329 91q-174 0 -315 -80q139 -102 216 -270t77 -379t-77 -379t-216 -270q141 -80 315 -80q187 0 329 91zM1109 1138.5q-75 -161.5 -75 -370.5t75 -370.5
t210 -256.5q135 94 210 256t75 371t-75 370.5t-210 256.5q-135 -95 -210 -256.5z" />
    <glyph glyph-name="O_Ograve.dlig" horiz-adv-x="2637" 
d="M1989 1638l-570 201l13 33l567 -205zM2143 1458q179 -98 278.5 -277.5t99.5 -412.5t-99.5 -412.5t-278.5 -277.5t-412 -98q-231 0 -412 112q-180 -113 -414 -112q-233 0 -412.5 98t-277.5 277.5t-98 412.5t98 412.5t277.5 277.5t412.5 98t414 -112q180 113 412 112
q233 0 412 -98zM1280 119q-139 102 -215 270t-76 379t76 379t215 270q-137 80 -313 80q-186 0 -328.5 -91t-220.5 -257t-78 -381t78 -381t220 -257t329 -91q176 0 313 80zM2000 130q142 91 220 257t78 381t-78 381t-220 257t-329 91q-174 0 -315 -80q139 -102 216 -270
t77 -379t-77 -379t-216 -270q141 -80 315 -80q187 0 329 91zM1109 1138.5q-75 -161.5 -75 -370.5t75 -370.5t210 -256.5q135 94 210 256t75 371t-75 370.5t-210 256.5q-135 -95 -210 -256.5z" />
    <glyph glyph-name="O_Otilde.dlig" horiz-adv-x="2637" 
d="M1480 1802q-40 -35 -73 -104l-23 10q29 72 78 117t123 45q47 0 83 -20.5t81 -61.5q43 -37 71.5 -54.5t65.5 -17.5q55 0 95 36t73 106l23 -11q-27 -72 -76 -118t-125 -46q-47 0 -84 21.5t-80 60.5q-39 35 -69.5 53.5t-67.5 18.5q-55 0 -95 -35zM2143 1458
q179 -98 278.5 -277.5t99.5 -412.5t-99.5 -412.5t-278.5 -277.5t-412 -98q-231 0 -412 112q-180 -113 -414 -112q-233 0 -412.5 98t-277.5 277.5t-98 412.5t98 412.5t277.5 277.5t412.5 98t414 -112q180 113 412 112q233 0 412 -98zM1280 119q-139 102 -215 270t-76 379
t76 379t215 270q-137 80 -313 80q-186 0 -328.5 -91t-220.5 -257t-78 -381t78 -381t220 -257t329 -91q176 0 313 80zM2000 130q142 91 220 257t78 381t-78 381t-220 257t-329 91q-174 0 -315 -80q139 -102 216 -270t77 -379t-77 -379t-216 -270q141 -80 315 -80
q187 0 329 91zM1109 1138.5q-75 -161.5 -75 -370.5t75 -370.5t210 -256.5q135 94 210 256t75 371t-75 370.5t-210 256.5q-135 -95 -210 -256.5z" />
    <glyph glyph-name="O_dieresis_Otilde.dlig" horiz-adv-x="2637" 
d="M1478 1802q-40 -35 -73 -104l-23 10q68 162 201 162q47 0 83 -21q36 -20 81 -61q43 -37 72 -54t65 -18q55 0 95 36t73 106l23 -11q-27 -72 -76 -117q-49 -46 -125 -47q-47 0 -84 22t-80 60q-39 35 -70 54q-31 18 -67 18q-55 0 -95 -35zM2143 1458q179 -98 279 -277
q99 -179 99 -413q0 -233 -99 -413q-99 -179 -279 -277q-179 -98 -412 -98q-231 0 -412 112q-180 -113 -414 -112q-233 0 -412 98t-278 277q-98 179 -98 413q0 233 98 413q98 179 278 277q179 98 412 98t414 -112q180 113 412 112q233 0 412 -98zM1280 119q-139 102 -215 270
t-76 379t76 379t215 270q-137 80 -313 80q-186 0 -329 -91q-142 -91 -220 -257t-78 -381t78 -381t220 -257t329 -91q176 0 313 80zM2000 130q142 91 220 257t78 381t-78 381t-220 257t-329 91q-174 0 -315 -80q139 -102 216 -270t77 -379t-77 -379t-216 -270
q141 -80 315 -80q187 0 329 91zM1109 1139q-75 -162 -75 -371t75 -371t210 -256q135 94 210 256t75 371t-75 371t-210 256q-135 -94 -210 -256zM779 1700q-28 -27 -72 -27q-45 0 -74 27t-29 69q0 43 29 70t74 27t72 -27q28 -27 28 -70q0 -42 -28 -69zM1182 1700
q-29 -27 -74 -27t-73 27t-27 69q0 43 27 70q28 27 73 27t74 -27t28 -70q1 -42 -28 -69z" />
    <glyph glyph-name="Oacute_O.dlig" horiz-adv-x="2637" 
d="M649 1638l-10 29l565 205l13 -33zM2143 1458q179 -98 278.5 -277.5t99.5 -412.5t-99.5 -412.5t-278.5 -277.5t-412 -98q-231 0 -412 112q-180 -113 -414 -112q-233 0 -412.5 98t-277.5 277.5t-98 412.5t98 412.5t277.5 277.5t412.5 98t414 -112q180 113 412 112
q233 0 412 -98zM1280 119q-139 102 -215 270t-76 379t76 379t215 270q-137 80 -313 80q-186 0 -328.5 -91t-220.5 -257t-78 -381t78 -381t220 -257t329 -91q176 0 313 80zM2000 130q142 91 220 257t78 381t-78 381t-220 257t-329 91q-174 0 -315 -80q139 -102 216 -270
t77 -379t-77 -379t-216 -270q141 -80 315 -80q187 0 329 91zM1109 1138.5q-75 -161.5 -75 -370.5t75 -370.5t210 -256.5q135 94 210 256t75 371t-75 370.5t-210 256.5q-135 -95 -210 -256.5z" />
    <glyph glyph-name="Oacute_Oacute.dlig" horiz-adv-x="2637" 
d="M1475 1638l-11 29l566 205l12 -33zM2143 1458q179 -98 279 -277q99 -179 99 -413q0 -233 -99 -413q-99 -179 -279 -277q-179 -98 -412 -98q-231 0 -412 112q-180 -113 -414 -112q-233 0 -412 98t-278 277q-98 179 -98 413q0 233 98 413q98 179 278 277q179 98 412 98
t414 -112q180 113 412 112q233 0 412 -98zM1280 119q-139 102 -215 270t-76 379t76 379t215 270q-137 80 -313 80q-186 0 -329 -91q-142 -91 -220 -257t-78 -381t78 -381t220 -257t329 -91q176 0 313 80zM2000 130q142 91 220 257t78 381t-78 381t-220 257t-329 91
q-174 0 -315 -80q139 -102 216 -270t77 -379t-77 -379t-216 -270q141 -80 315 -80q187 0 329 91zM1109 1139q-75 -162 -75 -371t75 -371t210 -256q135 94 210 256t75 371t-75 371t-210 256q-135 -94 -210 -256zM649 1638l-10 29l565 205l13 -33z" />
    <glyph glyph-name="Oacute_Odieresis.dlig" horiz-adv-x="2637" 
d="M1605 1700q-28 -27 -73 -27t-74 27t-28 69q0 43 28 70q29 27 74 27t73 -27t27 -70q1 -42 -27 -69zM2007 1700q-29 -27 -74 -27t-72 27q-28 27 -28 69q0 43 28 70t72 27q45 0 74 -27t29 -70q0 -42 -29 -69zM2143 1458q179 -98 279 -277q99 -179 99 -413q0 -233 -99 -413
q-99 -179 -279 -277q-179 -98 -412 -98q-231 0 -412 112q-180 -113 -414 -112q-233 0 -412 98t-278 277q-98 179 -98 413q0 233 98 413q98 179 278 277q179 98 412 98t414 -112q180 113 412 112q233 0 412 -98zM1280 119q-139 102 -215 270t-76 379t76 379t215 270
q-137 80 -313 80q-186 0 -329 -91q-142 -91 -220 -257t-78 -381t78 -381t220 -257t329 -91q176 0 313 80zM2000 130q142 91 220 257t78 381t-78 381t-220 257t-329 91q-174 0 -315 -80q139 -102 216 -270t77 -379t-77 -379t-216 -270q141 -80 315 -80q187 0 329 91z
M1109 1139q-75 -162 -75 -371t75 -371t210 -256q135 94 210 256t75 371t-75 371t-210 256q-135 -94 -210 -256zM649 1638l-10 29l565 205l13 -33z" />
    <glyph glyph-name="Ocircumflex_O.dlig" horiz-adv-x="2637" 
d="M575 1626l-14 16l346 261l346 -261l-14 -16l-332 223zM2143 1458q179 -98 279 -277q99 -179 99 -413q0 -233 -99 -413q-99 -179 -279 -277q-179 -98 -412 -98q-231 0 -412 112q-180 -113 -414 -112q-233 0 -412 98t-278 277q-98 179 -98 413q0 233 98 413q98 179 278 277
q179 98 412 98t414 -112q180 113 412 112q233 0 412 -98zM1280 119q-139 102 -215 270t-76 379t76 379t215 270q-137 80 -313 80q-186 0 -329 -91q-142 -91 -220 -257t-78 -381t78 -381t220 -257t329 -91q176 0 313 80zM2000 130q142 91 220 257t78 381t-78 381t-220 257
t-329 91q-174 0 -315 -80q139 -102 216 -270t77 -379t-77 -379t-216 -270q141 -80 315 -80q187 0 329 91zM1109 1139q-75 -162 -75 -371t75 -371t210 -256q135 94 210 256t75 371t-75 371t-210 256q-135 -94 -210 -256z" />
    <glyph glyph-name="Odieresis_O.dlig" horiz-adv-x="2637" 
d="M779.5 1699.5q-27.5 -26.5 -72.5 -26.5t-74 26.5t-29 69.5t29 70t74 27t72.5 -27t27.5 -70t-27.5 -69.5zM1181.5 1699.5q-28.5 -26.5 -73.5 -26.5t-72.5 26.5t-27.5 69.5t27.5 70t72.5 27t73.5 -27t28.5 -70t-28.5 -69.5zM2143 1458q179 -98 278.5 -277.5t99.5 -412.5
t-99.5 -412.5t-278.5 -277.5t-412 -98q-231 0 -412 112q-180 -113 -414 -112q-233 0 -412.5 98t-277.5 277.5t-98 412.5t98 412.5t277.5 277.5t412.5 98t414 -112q180 113 412 112q233 0 412 -98zM1280 119q-139 102 -215 270t-76 379t76 379t215 270q-137 80 -313 80
q-186 0 -328.5 -91t-220.5 -257t-78 -381t78 -381t220 -257t329 -91q176 0 313 80zM2000 130q142 91 220 257t78 381t-78 381t-220 257t-329 91q-174 0 -315 -80q139 -102 216 -270t77 -379t-77 -379t-216 -270q141 -80 315 -80q187 0 329 91zM1109 1138.5
q-75 -161.5 -75 -370.5t75 -370.5t210 -256.5q135 94 210 256t75 371t-75 370.5t-210 256.5q-135 -95 -210 -256.5z" />
    <glyph glyph-name="Odieresis_Odieresis.dlig" horiz-adv-x="2637" 
d="M1605 1700q-28 -27 -73 -27t-74 27t-28 69q0 43 28 70q29 27 74 27t73 -27t27 -70q1 -42 -27 -69zM2007 1700q-29 -27 -74 -27t-72 27q-28 27 -28 69q0 43 28 70t72 27q45 0 74 -27t29 -70q0 -42 -29 -69zM2143 1458q179 -98 279 -277q99 -179 99 -413q0 -233 -99 -413
q-99 -179 -279 -277q-179 -98 -412 -98q-231 0 -412 112q-180 -113 -414 -112q-233 0 -412 98t-278 277q-98 179 -98 413q0 233 98 413q98 179 278 277q179 98 412 98t414 -112q180 113 412 112q233 0 412 -98zM1280 119q-139 102 -215 270t-76 379t76 379t215 270
q-137 80 -313 80q-186 0 -329 -91q-142 -91 -220 -257t-78 -381t78 -381t220 -257t329 -91q176 0 313 80zM2000 130q142 91 220 257t78 381t-78 381t-220 257t-329 91q-174 0 -315 -80q139 -102 216 -270t77 -379t-77 -379t-216 -270q141 -80 315 -80q187 0 329 91z
M1109 1139q-75 -162 -75 -371t75 -371t210 -256q135 94 210 256t75 371t-75 371t-210 256q-135 -94 -210 -256zM779 1700q-28 -27 -72 -27q-45 0 -74 27t-29 69q0 43 29 70t74 27t72 -27q28 -27 28 -70q0 -42 -28 -69zM1182 1700q-29 -27 -74 -27t-73 27t-27 69q0 43 27 70
q28 27 73 27t74 -27t28 -70q1 -42 -28 -69z" />
    <glyph glyph-name="Ohungarumlaut_O.dlig" horiz-adv-x="2637" 
d="M1047 2003l20 -29l-496 -344l-16 27zM1475 2003l20 -29l-498 -344l-16 27zM2143 1458q179 -98 278.5 -277.5t99.5 -412.5t-99.5 -412.5t-278.5 -277.5t-412 -98q-231 0 -412 112q-180 -113 -414 -112q-233 0 -412.5 98t-277.5 277.5t-98 412.5t98 412.5t277.5 277.5
t412.5 98t414 -112q180 113 412 112q233 0 412 -98zM1280 119q-139 102 -215 270t-76 379t76 379t215 270q-137 80 -313 80q-186 0 -328.5 -91t-220.5 -257t-78 -381t78 -381t220 -257t329 -91q176 0 313 80zM2000 130q142 91 220 257t78 381t-78 381t-220 257t-329 91
q-174 0 -315 -80q139 -102 216 -270t77 -379t-77 -379t-216 -270q141 -80 315 -80q187 0 329 91zM1109 1138.5q-75 -161.5 -75 -370.5t75 -370.5t210 -256.5q135 94 210 256t75 371t-75 370.5t-210 256.5q-135 -95 -210 -256.5z" />
    <glyph glyph-name="Ohungarumlaut_Oacute.dlig" horiz-adv-x="2637" 
d="M1475 1638l-11 29l566 205l12 -33zM2143 1458q179 -98 279 -277q99 -179 99 -413q0 -233 -99 -413q-99 -179 -279 -277q-179 -98 -412 -98q-231 0 -412 112q-180 -113 -414 -112q-233 0 -412 98t-278 277q-98 179 -98 413q0 233 98 413q98 179 278 277q179 98 412 98
t414 -112q180 113 412 112q233 0 412 -98zM1280 119q-139 102 -215 270t-76 379t76 379t215 270q-137 80 -313 80q-186 0 -329 -91q-142 -91 -220 -257t-78 -381t78 -381t220 -257t329 -91q176 0 313 80zM2000 130q142 91 220 257t78 381t-78 381t-220 257t-329 91
q-174 0 -315 -80q139 -102 216 -270t77 -379t-77 -379t-216 -270q141 -80 315 -80q187 0 329 91zM1109 1139q-75 -162 -75 -371t75 -371t210 -256q135 94 210 256t75 371t-75 371t-210 256q-135 -94 -210 -256zM1047 2003l20 -29l-496 -344l-16 27zM1475 2003l20 -29
l-498 -344l-16 27z" />
    <glyph glyph-name="Ohungarumlaut_Ohungarumlaut.dlig" horiz-adv-x="2637" 
d="M1872 2003l20 -29l-495 -344l-17 27zM2300 2003l20 -29l-497 -344l-17 27zM2143 1458q179 -98 279 -277q99 -179 99 -413q0 -233 -99 -413q-99 -179 -279 -277q-179 -98 -412 -98q-231 0 -412 112q-180 -113 -414 -112q-233 0 -412 98t-278 277q-98 179 -98 413
q0 233 98 413q98 179 278 277q179 98 412 98t414 -112q180 113 412 112q233 0 412 -98zM1280 119q-139 102 -215 270t-76 379t76 379t215 270q-137 80 -313 80q-186 0 -329 -91q-142 -91 -220 -257t-78 -381t78 -381t220 -257t329 -91q176 0 313 80zM2000 130
q142 91 220 257t78 381t-78 381t-220 257t-329 91q-174 0 -315 -80q139 -102 216 -270t77 -379t-77 -379t-216 -270q141 -80 315 -80q187 0 329 91zM1109 1139q-75 -162 -75 -371t75 -371t210 -256q135 94 210 256t75 371t-75 371t-210 256q-135 -94 -210 -256zM1047 2003
l20 -29l-496 -344l-16 27zM1475 2003l20 -29l-498 -344l-16 27z" />
    <glyph glyph-name="Otilde_O.dlig" horiz-adv-x="2637" 
d="M654 1802q-40 -35 -72 -104l-23 10q68 162 201 162q47 0 83 -20.5t81 -61.5q43 -37 71.5 -54.5t65.5 -17.5q55 0 95 36t73 106l22 -11q-27 -72 -76 -118t-124 -46q-47 0 -84 21.5t-80 60.5q-39 35 -70 53.5t-67 18.5q-56 0 -96 -35zM2143 1458q179 -98 278.5 -277.5
t99.5 -412.5t-99.5 -412.5t-278.5 -277.5t-412 -98q-231 0 -412 112q-180 -113 -414 -112q-233 0 -412.5 98t-277.5 277.5t-98 412.5t98 412.5t277.5 277.5t412.5 98t414 -112q180 113 412 112q233 0 412 -98zM1280 119q-139 102 -215 270t-76 379t76 379t215 270
q-137 80 -313 80q-186 0 -328.5 -91t-220.5 -257t-78 -381t78 -381t220 -257t329 -91q176 0 313 80zM2000 130q142 91 220 257t78 381t-78 381t-220 257t-329 91q-174 0 -315 -80q139 -102 216 -270t77 -379t-77 -379t-216 -270q141 -80 315 -80q187 0 329 91zM1109 1138.5
q-75 -161.5 -75 -370.5t75 -370.5t210 -256.5q135 94 210 256t75 371t-75 370.5t-210 256.5q-135 -95 -210 -256.5z" />
    <glyph glyph-name="Otilde_Otilde.dlig" horiz-adv-x="2637" 
d="M1478 1802q-40 -35 -73 -104l-23 10q68 162 201 162q47 0 83 -21q36 -20 81 -61q43 -37 72 -54t65 -18q55 0 95 36t73 106l23 -11q-27 -72 -76 -117q-49 -46 -125 -47q-47 0 -84 22t-80 60q-39 35 -70 54q-31 18 -67 18q-55 0 -95 -35zM2143 1458q179 -98 279 -277
q99 -179 99 -413q0 -233 -99 -413q-99 -179 -279 -277q-179 -98 -412 -98q-231 0 -412 112q-180 -113 -414 -112q-233 0 -412 98t-278 277q-98 179 -98 413q0 233 98 413q98 179 278 277q179 98 412 98t414 -112q180 113 412 112q233 0 412 -98zM1280 119q-139 102 -215 270
t-76 379t76 379t215 270q-137 80 -313 80q-186 0 -329 -91q-142 -91 -220 -257t-78 -381t78 -381t220 -257t329 -91q176 0 313 80zM2000 130q142 91 220 257t78 381t-78 381t-220 257t-329 91q-174 0 -315 -80q139 -102 216 -270t77 -379t-77 -379t-216 -270
q141 -80 315 -80q187 0 329 91zM1109 1139q-75 -162 -75 -371t75 -371t210 -256q135 94 210 256t75 371t-75 371t-210 256q-135 -94 -210 -256zM654 1802q-40 -35 -72 -104l-23 10q68 162 201 162q47 0 83 -21q36 -20 81 -61q43 -37 71 -54q29 -17 66 -18q55 0 95 36t73 106
l22 -11q-27 -72 -75 -117q-49 -46 -125 -47q-47 0 -84 22t-80 60q-39 35 -70 54q-31 18 -67 18q-56 0 -96 -35z" />
    <glyph glyph-name="R_A.dlig" horiz-adv-x="2629" 
d="M2378 0l-183 428h-765l464 1128h29l670 -1556h-215zM1113.5 925q-64.5 -91 -181.5 -144.5t-270 -57.5l636 -723h-245l-631 723h-4v-723h-209v1536h420q164 0 287.5 -50t192.5 -142.5t69 -210.5q0 -117 -64.5 -208zM598 756q160 0 258 104.5t98 272.5t-98 269t-258 101
h-180v-747h180zM2181 461l-354 829l-342 -829h696z" />
    <glyph glyph-name="R_A_A.dlig" horiz-adv-x="3813" 
d="M1923 1556l670 -1556h-215l-183 428h-765l464 1128h29zM3559 0l-182 428h-754v2l-12 -2l467 1128h27l672 -1556h-218zM1113.5 925q-64.5 -91 -181.5 -144.5t-270 -57.5l636 -723h-245l-631 723h-4v-723h-209v1536h420q164 0 287.5 -50t192.5 -142.5t69 -210.5
q0 -117 -64.5 -208zM598 756q160 0 258 104.5t98 272.5t-98 269t-258 101h-180v-747h180zM2181 461l-354 829l-342 -829h696zM3363 461l-352 829l-342 -829h694z" />
    <glyph glyph-name="R_A_Aring.dlig" horiz-adv-x="3813" 
d="M3239 1676q-56 -52 -147 -52q-90 0 -145 52t-55 139q0 86 55 139t145 53t147 -53q56 -53 56 -139q0 -87 -56 -139zM2977 1700q44 -43 115 -43q72 0 117 44t45 114q0 72 -45 115q-45 44 -117 44t-115 -44q-44 -44 -44 -115q0 -72 44 -115zM1923 1556l670 -1556h-215
l-183 428h-765l464 1128h29zM3559 0l-182 428h-754v2l-12 -2l467 1128h27l672 -1556h-218zM1113 925q-65 -91 -181 -145q-117 -53 -270 -57l636 -723h-245l-631 723h-4v-723h-209v1536h420q164 0 287 -50q124 -50 193 -143q69 -92 69 -210q0 -117 -65 -208zM598 756
q160 0 258 104t98 273q0 168 -98 269t-258 101h-180v-747h180zM2181 461l-354 829l-342 -829h696zM3363 461l-352 829l-342 -829h694z" />
    <glyph glyph-name="R_A_Atilde.dlig" horiz-adv-x="3813" 
d="M2838 1802q-40 -35 -73 -104l-23 10q68 162 201 162q47 0 83 -21q36 -20 81 -61q43 -37 71 -54q29 -17 66 -18q55 0 95 36t73 106l22 -11q-27 -72 -75 -117q-49 -46 -125 -47q-47 0 -84 22t-80 60q-39 35 -70 54q-31 18 -67 18q-55 0 -95 -35zM1923 1556l670 -1556h-215
l-183 428h-765l464 1128h29zM3559 0l-182 428h-754v2l-12 -2l467 1128h27l672 -1556h-218zM1113 925q-65 -91 -181 -145q-117 -53 -270 -57l636 -723h-245l-631 723h-4v-723h-209v1536h420q164 0 287 -50q124 -50 193 -143q69 -92 69 -210q0 -117 -65 -208zM598 756
q160 0 258 104t98 273q0 168 -98 269t-258 101h-180v-747h180zM2181 461l-354 829l-342 -829h696zM3363 461l-352 829l-342 -829h694z" />
    <glyph glyph-name="R_Aacute.dlig" horiz-adv-x="2629" 
d="M1651 1638l-11 29l566 205l12 -33zM2378 0l-183 428h-765l464 1128h29l670 -1556h-215zM1113.5 925q-64.5 -91 -181.5 -144.5t-270 -57.5l636 -723h-245l-631 723h-4v-723h-209v1536h420q164 0 287.5 -50t192.5 -142.5t69 -210.5q0 -117 -64.5 -208zM598 756
q160 0 258 104.5t98 272.5t-98 269t-258 101h-180v-747h180zM2181 461l-354 829l-342 -829h696z" />
    <glyph glyph-name="R_Abreve.dlig" horiz-adv-x="2629" 
d="M2106 1736q-91 -62 -197 -63q-106 0 -198 63q-91 62 -136 165l22 10q49 -90 136 -146q86 -55 176 -55t176 55t135 146l23 -10q-46 -103 -137 -165zM2378 0l-183 428h-765l464 1128h29l670 -1556h-215zM1113 925q-65 -91 -181 -145q-117 -53 -270 -57l636 -723h-245
l-631 723h-4v-723h-209v1536h420q164 0 287 -50q124 -50 193 -143q69 -92 69 -210q0 -117 -65 -208zM598 756q160 0 258 104t98 273q0 168 -98 269t-258 101h-180v-747h180zM2181 461l-354 829l-342 -829h696z" />
    <glyph glyph-name="R_Acircumflex.dlig" horiz-adv-x="2629" 
d="M1577 1626l-14 16l346 261l346 -261l-14 -16l-332 223zM2378 0l-183 428h-765l464 1128h29l670 -1556h-215zM1113 925q-65 -91 -181 -145q-117 -53 -270 -57l636 -723h-245l-631 723h-4v-723h-209v1536h420q164 0 287 -50q124 -50 193 -143q69 -92 69 -210
q0 -117 -65 -208zM598 756q160 0 258 104t98 273q0 168 -98 269t-258 101h-180v-747h180zM2181 461l-354 829l-342 -829h696z" />
    <glyph glyph-name="R_Adieresis.dlig" horiz-adv-x="2629" 
d="M1781 1700q-28 -27 -73 -27t-74 27t-28 69q0 43 28 70q29 27 74 27t73 -27t27 -70q1 -42 -27 -69zM2183 1700q-29 -27 -74 -27t-72 27q-28 27 -28 69q0 43 28 70t72 27q45 0 74 -27t29 -70q0 -42 -29 -69zM2378 0l-183 428h-765l464 1128h29l670 -1556h-215zM1113 925
q-65 -91 -181 -145q-117 -53 -270 -57l636 -723h-245l-631 723h-4v-723h-209v1536h420q164 0 287 -50q124 -50 193 -143q69 -92 69 -210q0 -117 -65 -208zM598 756q160 0 258 104t98 273q0 168 -98 269t-258 101h-180v-747h180zM2181 461l-354 829l-342 -829h696z" />
    <glyph glyph-name="R_Adieresis_Adieresis.dlig" horiz-adv-x="3813" 
d="M1633.5 1699.5q-27.5 26.5 -27.5 69.5t27.5 70t72.5 27t73.5 -27t28.5 -70t-28.5 -69.5t-73.5 -26.5t-72.5 26.5zM2036.5 1699.5q-27.5 26.5 -27.5 69.5t27.5 70t72.5 27t74 -27t29 -70t-29 -69.5t-74 -26.5t-72.5 26.5zM2816 1699.5q-29 26.5 -29 69.5t29 70t74 27
t72.5 -27t27.5 -70t-27.5 -69.5t-72.5 -26.5t-74 26.5zM3219.5 1699.5q-28.5 26.5 -28.5 69.5t28.5 70t73.5 27t73 -27t28 -70t-28 -69.5t-73 -26.5t-73.5 26.5zM1923 1556l670 -1556h-215l-183 428h-765l464 1128h29zM3559 0l-182 428h-754v2l-12 -2l467 1128h27l672 -1556
h-218zM1113.5 925q-64.5 -91 -181.5 -144.5t-270 -57.5l636 -723h-245l-631 723h-4v-723h-209v1536h420q164 0 287.5 -50t192.5 -142.5t69 -210.5q0 -117 -64.5 -208zM598 756q160 0 258 104.5t98 272.5t-98 269t-258 101h-180v-747h180zM2181 461l-354 829l-342 -829h696z
M3363 461l-352 829l-342 -829h694z" />
    <glyph glyph-name="R_Agrave.dlig" horiz-adv-x="2629" 
d="M2165 1638l-570 201l13 33l567 -205zM2378 0l-183 428h-765l464 1128h29l670 -1556h-215zM1113 925q-65 -91 -181 -145q-117 -53 -270 -57l636 -723h-245l-631 723h-4v-723h-209v1536h420q164 0 287 -50q124 -50 193 -143q69 -92 69 -210q0 -117 -65 -208zM598 756
q160 0 258 104t98 273q0 168 -98 269t-258 101h-180v-747h180zM2181 461l-354 829l-342 -829h696z" />
    <glyph glyph-name="R_Amacron.dlig" horiz-adv-x="2629" 
d="M1612 1673v33h592v-33h-592zM2378 0l-183 428h-765l464 1128h29l670 -1556h-215zM1113 925q-65 -91 -181 -145q-117 -53 -270 -57l636 -723h-245l-631 723h-4v-723h-209v1536h420q164 0 287 -50q124 -50 193 -143q69 -92 69 -210q0 -117 -65 -208zM598 756q160 0 258 104
t98 273q0 168 -98 269t-258 101h-180v-747h180zM2181 461l-354 829l-342 -829h696z" />
    <glyph glyph-name="R_Aogonek.dlig" horiz-adv-x="2629" 
d="M2607 -428q-35 -20 -84 -31.5t-96 -11.5q-92 0 -149.5 47t-57.5 123q0 86 84 167t227 134h-153l-183 428h-765l464 1128h29l670 -1556q-102 -53 -165 -133t-63 -156q0 -61 37 -98t97 -37q59 0 102 16zM1113.5 925q-64.5 -91 -181.5 -144.5t-270 -57.5l636 -723h-245
l-631 723h-4v-723h-209v1536h420q164 0 287.5 -50t192.5 -142.5t69 -210.5q0 -117 -64.5 -208zM598 756q160 0 258 104.5t98 272.5t-98 269t-258 101h-180v-747h180zM2181 461l-354 829l-342 -829h696z" />
    <glyph glyph-name="R_Aring.dlig" horiz-adv-x="2629" 
d="M2055 1676q-56 -52 -146 -52t-146 52q-55 52 -55 139q0 86 55 139t146 53q90 0 146 -53t56 -139q0 -87 -56 -139zM1793 1700q44 -43 116 -43t116 44q45 44 46 114q0 72 -46 115q-45 44 -116 44q-72 0 -116 -44t-44 -115q0 -72 44 -115zM2378 0l-183 428h-765l464 1128h29
l670 -1556h-215zM1113 925q-65 -91 -181 -145q-117 -53 -270 -57l636 -723h-245l-631 723h-4v-723h-209v1536h420q164 0 287 -50q124 -50 193 -143q69 -92 69 -210q0 -117 -65 -208zM598 756q160 0 258 104t98 273q0 168 -98 269t-258 101h-180v-747h180zM2181 461l-354 829
l-342 -829h696z" />
    <glyph glyph-name="R_Atilde.dlig" horiz-adv-x="2629" 
d="M1656 1802q-40 -35 -73 -104l-22 10q68 162 200 162q47 0 83 -21q36 -20 81 -61q43 -37 72 -54t65 -18q55 0 96 36q40 36 72 106l23 -11q-27 -72 -76 -117q-49 -46 -125 -47q-47 0 -84 22t-80 60q-39 35 -69 54q-31 18 -68 18q-55 0 -95 -35zM2378 0l-183 428h-765
l464 1128h29l670 -1556h-215zM1113 925q-65 -91 -181 -145q-117 -53 -270 -57l636 -723h-245l-631 723h-4v-723h-209v1536h420q164 0 287 -50q124 -50 193 -143q69 -92 69 -210q0 -117 -65 -208zM598 756q160 0 258 104t98 273q0 168 -98 269t-258 101h-180v-747h180z
M2181 461l-354 829l-342 -829h696z" />
    <glyph glyph-name="Rcaron_Aacute.dlig" horiz-adv-x="2629" 
d="M965 1903l14 -17l-346 -260l-346 260l14 17l332 -222zM2378 0l-183 428h-765l464 1128h29l670 -1556h-215zM1113 925q-65 -91 -181 -145q-117 -53 -270 -57l636 -723h-245l-631 723h-4v-723h-209v1536h420q164 0 287 -50q124 -50 193 -143q69 -92 69 -210
q0 -117 -65 -208zM598 756q160 0 258 104t98 273q0 168 -98 269t-258 101h-180v-747h180zM2181 461l-354 829l-342 -829h696zM1651 1638l-11 29l566 205l12 -33z" />
    <glyph glyph-name="T_T.dlig" horiz-adv-x="2332" 
d="M2308 1503h-526v-1503h-209v1503h-813v-1503h-209v1503h-526v33h2283v-33z" />
    <glyph glyph-name="T_Y.dlig" horiz-adv-x="2504" 
d="M1911 684v-684h-209v676l-543 827h-399v-1503h-209v1503h-526v33h1351l516 -805l500 805h45z" />
    <glyph glyph-name="T_Y.dlig.ss03" horiz-adv-x="2428" 
d="M2441 1536l-833 -1536h-45l227 420l-627 1083h-403v-1503h-209v1503h-526v33h1351l522 -918l498 918h45z" />
    <glyph glyph-name="T_Yacute.dlig" horiz-adv-x="2504" 
d="M1593 1638l-10 29l565 205l13 -33zM1911 684v-684h-209v676l-543 827h-399v-1503h-209v1503h-526v33h1351l516 -805l500 805h45z" />
    <glyph glyph-name="T_Yacute.dlig.ss03" horiz-adv-x="2428" 
d="M1620 1638l-10 29l565 205l12 -33zM2441 1536l-833 -1536h-45l227 420l-627 1083h-403v-1503h-209v1503h-526v33h1351l522 -918l498 918h45z" />
    <glyph glyph-name="T_h.dlig" horiz-adv-x="2406" 
d="M2158.5 1029q90.5 -91 90.5 -243v-786h-201v834q0 104 -54.5 167.5t-144.5 63.5q-102 0 -197.5 -73.5t-148.5 -192.5v-799h-200v1503h-543v-1503h-209v1503h-526v33h1478v-672q61 117 174 186.5t242 69.5q149 0 239.5 -91z" />
    <glyph glyph-name="Tcaron_T.dlig" horiz-adv-x="2332" 
d="M989 1903l15 -17l-347 -260l-346 260l15 17l331 -222zM2308 1503h-526v-1503h-209v1503h-813v-1503h-209v1503h-526v33h2283v-33z" />
    <glyph glyph-name="U_N.dlig" horiz-adv-x="2603" 
d="M2394 1536v-1556h-31l-1042 1273v-723q0 -164 -64.5 -288.5t-185.5 -193t-283 -68.5q-176 0 -311 72.5t-209.5 203.5t-74.5 303v977h208v-1012q0 -147 51.5 -262t145.5 -177t217 -62q139 0 244.5 62t163 176t57.5 263v1032h29l1044 -1273v1253h41z" />
    <glyph glyph-name="U_Nacute.dlig" horiz-adv-x="2603" 
d="M1591 1638l-10 29l565 205l13 -33zM2394 1536v-1556h-31l-1042 1273v-723q0 -164 -65 -288q-65 -125 -185 -194q-121 -69 -283 -68q-176 0 -311 72q-135 73 -210 204t-74 303v977h208v-1012q0 -147 52 -262q51 -115 145 -177t217 -62q139 0 245 62q105 62 163 176
q57 114 57 263v1032h29l1044 -1273v1253h41z" />
    <glyph glyph-name="U_Ncaron.dlig" horiz-adv-x="2603" 
d="M2183 1903l15 -17l-347 -260l-346 260l15 17l331 -222zM2394 1536v-1556h-31l-1042 1273v-723q0 -164 -64.5 -288.5t-185.5 -193t-283 -68.5q-176 0 -311 72.5t-209.5 203.5t-74.5 303v977h208v-1012q0 -147 51.5 -262t145.5 -177t217 -62q139 0 244.5 62t163 176
t57.5 263v1032h29l1044 -1273v1253h41z" />
    <glyph glyph-name="U_uni0145.dlig" horiz-adv-x="2603" 
d="M1920 -153.5q32 -36.5 32 -104.5q0 -80 -50.5 -151.5t-127.5 -106.5l-15 22q63 33 105.5 91.5t48.5 121.5q-31 -31 -84 -30q-45 0 -74 26.5t-29 69.5q0 45 31 71.5t80 26.5q51 0 83 -36.5zM2394 1536v-1556h-31l-1042 1273v-723q0 -164 -64.5 -288.5t-185.5 -193
t-283 -68.5q-176 0 -311 72.5t-209.5 203.5t-74.5 303v977h208v-1012q0 -147 51.5 -262t145.5 -177t217 -62q139 0 244.5 62t163 176t57.5 263v1032h29l1044 -1273v1253h41z" />
    <glyph glyph-name="U_Ntilde.dlig" horiz-adv-x="2603" 
d="M1596 1802q-40 -35 -72 -104l-23 10q68 162 201 162q47 0 83 -20.5t81 -61.5q43 -37 71.5 -54.5t65.5 -17.5q55 0 95 36t73 106l22 -11q-27 -72 -76 -118t-124 -46q-47 0 -84 21.5t-80 60.5q-39 35 -69.5 53.5t-67.5 18.5q-56 0 -96 -35zM2394 1536v-1556h-31l-1042 1273
v-723q0 -164 -64.5 -288.5t-185.5 -193t-283 -68.5q-176 0 -311 72.5t-209.5 203.5t-74.5 303v977h208v-1012q0 -147 51.5 -262t145.5 -177t217 -62q139 0 244.5 62t163 176t57.5 263v1032h29l1044 -1273v1253h41z" />
    <glyph glyph-name="Uacute_N.dlig" horiz-adv-x="2603" 
d="M567 1638l-10 29l565 205l13 -33zM2394 1536v-1556h-31l-1042 1273v-723q0 -164 -64.5 -288.5t-185.5 -193t-283 -68.5q-176 0 -311 72.5t-209.5 203.5t-74.5 303v977h208v-1012q0 -147 51.5 -262t145.5 -177t217 -62q139 0 244.5 62t163 176t57.5 263v1032h29
l1044 -1273v1253h41z" />
    <glyph glyph-name="Uacute_Ncaron.dlig" horiz-adv-x="2603" 
d="M565 1638l-10 29l565 205l13 -33zM2394 1536v-1556h-31l-1042 1273v-723q0 -164 -65 -288q-65 -125 -185 -194q-121 -69 -283 -68q-176 0 -311 72q-135 73 -210 204t-74 303v977h208v-1012q0 -147 52 -262q51 -115 145 -177t217 -62q139 0 245 62q105 62 163 176
q57 114 57 263v1032h29l1044 -1273v1253h41zM2183 1903l15 -17l-347 -260l-346 260l15 17l331 -222z" />
    <glyph glyph-name="Uacute_Ntilde.dlig" horiz-adv-x="2603" 
d="M565 1638l-10 29l565 205l13 -33zM2394 1536v-1556h-31l-1042 1273v-723q0 -164 -65 -288q-65 -125 -185 -194q-121 -69 -283 -68q-176 0 -311 72q-135 73 -210 204t-74 303v977h208v-1012q0 -147 52 -262q51 -115 145 -177t217 -62q139 0 245 62q105 62 163 176
q57 114 57 263v1032h29l1044 -1273v1253h41zM1596 1802q-40 -35 -72 -104l-23 10q68 162 201 162q47 0 83 -21q36 -20 81 -61q43 -37 71 -54q29 -17 66 -18q55 0 95 36t73 106l22 -11q-27 -72 -75 -117q-49 -46 -125 -47q-47 0 -84 22t-80 60q-39 35 -70 54q-31 18 -67 18
q-56 0 -96 -35z" />
    <glyph glyph-name="Udieresis_N.dlig" horiz-adv-x="2603" 
d="M549 1699.5q-29 26.5 -29 69.5t29 70t74 27t72.5 -27t27.5 -70t-27.5 -69.5t-72.5 -26.5t-74 26.5zM952.5 1699.5q-28.5 26.5 -28.5 69.5t28.5 70t73.5 27t72.5 -27t27.5 -70t-27.5 -69.5t-72.5 -26.5t-73.5 26.5zM2394 1536v-1556h-31l-1042 1273v-723
q0 -164 -64.5 -288.5t-185.5 -193t-283 -68.5q-176 0 -311 72.5t-209.5 203.5t-74.5 303v977h208v-1012q0 -147 51.5 -262t145.5 -177t217 -62q139 0 244.5 62t163 176t57.5 263v1032h29l1044 -1273v1253h41z" />
    <glyph glyph-name="Uhungarumlaut_Ntilde.dlig" horiz-adv-x="2603" 
d="M965 2003l20 -29l-496 -344l-16 27zM1393 2003l20 -29l-498 -344l-16 27zM2394 1536v-1556h-31l-1042 1273v-723q0 -164 -65 -288q-65 -125 -185 -194q-121 -69 -283 -68q-176 0 -311 72q-135 73 -210 204t-74 303v977h208v-1012q0 -147 52 -262q51 -115 145 -177
t217 -62q139 0 245 62q105 62 163 176q57 114 57 263v1032h29l1044 -1273v1253h41zM1596 1802q-40 -35 -72 -104l-23 10q68 162 201 162q47 0 83 -21q36 -20 81 -61q43 -37 71 -54q29 -17 66 -18q55 0 95 36t73 106l22 -11q-27 -72 -75 -117q-49 -46 -125 -47q-47 0 -84 22
t-80 60q-39 35 -70 54q-31 18 -67 18q-56 0 -96 -35z" />
    <glyph glyph-name="Umacron_N.dlig" horiz-adv-x="2603" 
d="M1118 1673h-590v33h590v-33zM2394 1536v-1556h-31l-1042 1273v-723q0 -164 -64.5 -288.5t-185.5 -193t-283 -68.5q-176 0 -311 72.5t-209.5 203.5t-74.5 303v977h208v-1012q0 -147 51.5 -262t145.5 -177t217 -62q139 0 244.5 62t163 176t57.5 263v1032h29l1044 -1273
v1253h41z" />
    <glyph glyph-name="Umacron_uni0145.dlig" horiz-adv-x="2603" 
d="M528 1673v33h592v-33h-592zM2394 1536v-1556h-31l-1042 1273v-723q0 -164 -65 -288q-65 -125 -185 -194q-121 -69 -283 -68q-176 0 -311 72q-135 73 -210 204t-74 303v977h208v-1012q0 -147 52 -262q51 -115 145 -177t217 -62q139 0 245 62q105 62 163 176q57 114 57 263
v1032h29l1044 -1273v1253h41zM1920 -154q32 -37 32 -104q0 -80 -50 -152t-128 -106l-15 22q63 33 106 92q42 58 48 121q-31 -31 -84 -30q-45 0 -74 26q-29 27 -29 70q0 45 31 72t80 26q51 0 83 -37z" />
    <glyph glyph-name="Uring_N.dlig" horiz-adv-x="2603" 
d="M678 1676.5q-55 52.5 -55 138.5t55 139t145 53t146.5 -53t56.5 -139t-56.5 -138.5t-146.5 -52.5t-145 52.5zM708 1930q-44 -44 -44 -115q0 -72 44 -115t115 -43q72 0 117 44t45 114q0 72 -45 115.5t-117 43.5q-71 0 -115 -44zM2394 1536v-1556h-31l-1042 1273v-723
q0 -164 -64.5 -288.5t-185.5 -193t-283 -68.5q-176 0 -311 72.5t-209.5 203.5t-74.5 303v977h208v-1012q0 -147 51.5 -262t145.5 -177t217 -62q139 0 244.5 62t163 176t57.5 263v1032h29l1044 -1273v1253h41z" />
    <glyph glyph-name="f_b.dlig" horiz-adv-x="2123" 
d="M436 1100h361v-33h-361v-1067h-200v1067h-207v33h207v174q0 154 97 249t257 95q53 0 108.5 -15.5t94.5 -41.5l-9 -17q-25 12 -62.5 20.5t-72.5 8.5q-96 0 -154.5 -71.5t-58.5 -192.5v-209zM1801.5 1048.5q105.5 -71.5 163.5 -200.5t58 -299t-58 -299t-163.5 -199.5
t-245.5 -70.5q-127 0 -227 74.5t-141 197.5l-14 -252h-175v1597h201v-720q45 113 142.5 178t213.5 65q140 0 245.5 -71.5zM1664 97.5q71 64.5 109.5 181t38.5 270.5t-38.5 271.5t-109.5 182t-163 64.5q-96 0 -179 -73.5t-122 -192.5v-502q39 -121 121 -193.5t180 -72.5
q92 0 163 64.5z" />
    <glyph glyph-name="f_b.dlig.salt" horiz-adv-x="2123" 
d="M436 1100h361v-33h-361v-1067h-200v1067h-207v33h207v174q0 154 97 249t257 95q53 0 108.5 -15.5t94.5 -41.5l-9 -17q-25 12 -62.5 20.5t-72.5 8.5q-96 0 -154.5 -71.5t-58.5 -192.5v-209zM1801.5 1048.5q105.5 -71.5 163.5 -200.5t58 -299t-58 -299t-163.5 -199.5
t-245.5 -70.5q-131 0 -232 77.5t-138 206.5l-166 -284h-21v1617h201v-720q45 113 142.5 178t213.5 65q140 0 245.5 -71.5zM1664 97.5q71 64.5 109.5 181t38.5 270.5t-38.5 271.5t-109.5 182t-163 64.5q-96 0 -179 -73.5t-122 -192.5v-502q39 -121 121 -193.5t180 -72.5
q92 0 163 64.5z" />
    <glyph glyph-name="f_f_b.dlig" horiz-adv-x="2875" 
d="M1188 1100h362v-33h-362v-1067h-201v1067h-551v-1067h-200v1067h-207v33h207v174q0 154 97 249t257 95q63 0 128.5 -21.5t112.5 -58.5l-8 -18q-35 25 -83 39t-91 14q-96 0 -154.5 -71.5t-58.5 -192.5v-209h551v174q0 154 98.5 249t257.5 95q51 0 107.5 -15.5t95.5 -41.5
l-8 -17q-27 14 -64.5 21.5t-70.5 7.5q-96 0 -155.5 -73t-59.5 -191v-209zM2554.5 1048.5q105.5 -71.5 164 -200.5t58.5 -299t-58.5 -299t-164 -199.5t-244.5 -70.5q-125 0 -226.5 73.5t-141.5 194.5l-17 -248h-174v1597h201v-720q45 113 142 178t216 65q139 0 244.5 -71.5z
M2415.5 97.5q70.5 64.5 109.5 181t39 270.5t-39 271.5t-108.5 182t-163.5 64.5t-177 -73.5t-124 -192.5v-502q39 -119 122 -192.5t179 -73.5q92 0 162.5 64.5z" />
    <glyph glyph-name="f_f_b.dlig.salt" horiz-adv-x="2875" 
d="M1188 1100h362v-33h-362v-1067h-201v1067h-551v-1067h-200v1067h-207v33h207v174q0 154 97 249t257 95q63 0 128.5 -21.5t112.5 -58.5l-8 -18q-35 25 -83 39t-91 14q-96 0 -154.5 -71.5t-58.5 -192.5v-209h551v174q0 154 98.5 249t257.5 95q51 0 107.5 -15.5t95.5 -41.5
l-8 -17q-27 14 -64.5 21.5t-70.5 7.5q-96 0 -155.5 -73t-59.5 -191v-209zM2554.5 1048.5q105.5 -71.5 164 -200.5t58.5 -299t-58.5 -299t-164 -199.5t-244.5 -70.5q-131 0 -232.5 77.5t-140.5 204.5l-165 -282h-21v1617h201v-720q45 113 142 178t216 65q139 0 244.5 -71.5z
M2415.5 97.5q70.5 64.5 109.5 181t39 270.5t-39 271.5t-108.5 182t-163.5 64.5t-177 -73.5t-124 -192.5v-502q39 -119 122 -192.5t179 -73.5q92 0 162.5 64.5z" />
    <glyph glyph-name="f_f_j.dlig" horiz-adv-x="2123" 
d="M1188 1100h362v-33h-362v-1067h-201v1067h-551v-1067h-200v1067h-207v33h207v174q0 154 97 249t257 95q63 0 128.5 -21.5t112.5 -58.5l-8 -18q-35 25 -83 39t-91 14q-96 0 -154.5 -71.5t-58.5 -192.5v-209h551v174q0 154 98.5 249t257.5 95q51 0 107.5 -15.5t95.5 -41.5
l-8 -17q-27 14 -64.5 21.5t-70.5 7.5q-96 0 -155.5 -73t-59.5 -191v-209zM1765.5 1372q-32.5 31 -32.5 84t32.5 85t87.5 32q53 0 87 -33t34 -84t-33.5 -83t-87.5 -32q-55 0 -87.5 31zM1753 1100h201v-1108q0 -180 -83 -285.5t-241 -177.5l-10 20q133 104 133 381v1170z" />
    </font>
</defs>
</svg>
