<?xml version="1.0" standalone="no"?>
<!DOCTYPE svg PUBLIC "-//W3C//DTD SVG 1.1//EN" "http://www.w3.org/Graphics/SVG/1.1/DTD/svg11.dtd" >
<svg xmlns="http://www.w3.org/2000/svg" xmlns:xlink="http://www.w3.org/1999/xlink" version="1.1">
<metadata>
Created by FontForge 20201107 at Wed Sep 11 12:56:52 2024
 By 
Copyright (c) 2011 by Colophon Foundry. All rights reserved. |DCNT
</metadata>
<defs>
<font id="Relative-BoldItalic" horiz-adv-x="1269" >
  <font-face 
    font-family="Relative"
    font-weight="700"
    font-style="italic"
    font-stretch="normal"
    units-per-em="2048"
    panose-1="2 0 5 6 4 0 0 2 0 4"
    ascent="1638"
    descent="-410"
    x-height="1028"
    cap-height="1434"
    bbox="-348 -582 2435 2044"
    underline-thickness="102"
    underline-position="-204"
    unicode-range="U+000D-FB02"
  />
<missing-glyph horiz-adv-x="1331" 
d="M1309 1413l-273 -1393q-3 -20 -24 -20h-973q-16 0 -16 20l272 1393q3 21 24 21h973q17 0 17 -21zM997 1192h-481l-182 -950h481z" />
    <glyph glyph-name=".notdef" horiz-adv-x="1331" 
d="M1309 1413l-273 -1393q-3 -20 -24 -20h-973q-16 0 -16 20l272 1393q3 21 24 21h973q17 0 17 -21zM997 1192h-481l-182 -950h481z" />
    <glyph glyph-name=".null" horiz-adv-x="0" 
 />
    <glyph glyph-name=".null" horiz-adv-x="0" 
 />
    <glyph glyph-name="nonmarkingreturn" horiz-adv-x="682" 
 />
    <glyph glyph-name="CR" unicode="&#xd;" horiz-adv-x="0" 
 />
    <glyph glyph-name="space" unicode=" " horiz-adv-x="475" 
 />
    <glyph glyph-name="exclam" unicode="!" horiz-adv-x="718" 
d="M403 1434h222q16 0 16 -21l-195 -997q-3 -21 -24 -21h-221q-17 0 -17 21l195 997q3 21 24 21zM166 279h246q16 0 16 -21l-47 -238q-3 -20 -25 -20h-245q-17 0 -17 20l47 238q3 21 25 21z" />
    <glyph glyph-name="quotedbl" unicode="&#x22;" horiz-adv-x="782" 
d="M102 954l88 459q3 21 25 21h205q16 0 16 -21l-88 -459q-3 -20 -24 -20h-205q-17 0 -17 20zM492 954l88 459q3 21 24 21h205q16 0 16 -21l-88 -459q-3 -20 -24 -20h-205q-16 0 -16 20z" />
    <glyph glyph-name="numbersign" unicode="#" horiz-adv-x="1533" 
d="M639 20l141 386h-248l-141 -386q-6 -20 -26 -20h-205q-21 0 -15 20l142 386h-226q-16 0 -16 20l39 197q3 20 25 20h264l55 148h-211q-16 0 -16 20l39 197q3 20 24 20h250l143 385q6 21 27 21h205q20 0 14 -21l-143 -385h248l143 385q6 21 27 21h208q21 0 15 -21
l-144 -385h228q16 0 16 -20l-39 -197q-3 -20 -24 -20h-267l-55 -148h213q17 0 17 -20l-39 -197q-3 -20 -25 -20h-252l-141 -386q-6 -20 -27 -20h-209q-20 0 -14 20zM674 791l-56 -148h248l56 148h-248z" />
    <glyph glyph-name="dollar" unicode="$" horiz-adv-x="1206" 
d="M141 1016q0 126 68 222.5t177.5 149t246.5 64.5l33 166q3 20 24 20h197q16 0 16 -20l-37 -184q148 -35 224.5 -133t76.5 -228q0 -31 -2 -47q-3 -20 -24 -20h-223q-17 0 -17 20q0 110 -82 156l-71 -367q87 -27 147 -55t110 -69t74.5 -97.5t24.5 -130.5
q0 -113 -38.5 -201.5t-109 -146.5t-163.5 -91t-207 -42l-33 -166q-3 -21 -25 -21h-196q-17 0 -17 21l35 180q-165 36 -255.5 145.5t-90.5 261.5q0 14 4 60q3 20 23 20h223q16 0 16 -20v-19q0 -78 30.5 -126.5t96.5 -77.5l78 405q-173 57 -253.5 141t-80.5 230zM834 430
q0 46 -32.5 79.5t-101.5 63.5l-67 -348q201 40 201 205zM408 1055q0 -95 116 -158l62 313q-75 -12 -126.5 -51.5t-51.5 -103.5z" />
    <glyph glyph-name="percent" unicode="%" horiz-adv-x="1746" 
d="M874 1124q0 -184 -121 -304t-307 -120q-137 0 -229 90t-92 220q0 184 121 304t307 120q137 0 229 -90t92 -220zM469 883q93 0 150 65t57 154q0 70 -41.5 109.5t-104.5 39.5q-93 0 -149.5 -65t-56.5 -154q0 -70 41.5 -109.5t103.5 -39.5zM1612 424q0 -184 -121 -304
t-307 -120q-137 0 -229.5 89.5t-92.5 219.5q0 184 121 304t307 120q137 0 229.5 -89.5t92.5 -219.5zM1206 182q93 0 150 65t57 154q0 70 -41.5 110t-103.5 40q-93 0 -150 -65t-57 -154q0 -70 41.5 -110t103.5 -40zM129 127l1374 1300q7 7 15 7q7 0 14 -7l84 -92q6 -6 6 -14
q0 -6 -8 -14l-1374 -1301q-6 -6 -15 -6q-8 0 -14 6l-84 92q-6 6 -6 15q0 6 8 14z" />
    <glyph glyph-name="ampersand" unicode="&#x26;" horiz-adv-x="1376" 
d="M1272 535h-164q-47 -155 -117 -265l125 -237q4 -12 4 -19q0 -14 -20 -14h-234q-13 0 -22 18l-33 64q-78 -54 -168.5 -78t-212.5 -24q-173 0 -280 96.5t-107 271.5q0 318 371 494q-52 111 -52 235q0 158 113 267.5t293 109.5q165 0 251.5 -78.5t86.5 -204.5
q0 -232 -264 -358l-109 -53l135 -258q44 96 68 227q3 19 22 19h355q16 0 16 -21l-33 -172q-3 -20 -24 -20zM465 201q137 0 242 78l-199 378q-108 -60 -163.5 -126t-55.5 -162q0 -75 47.5 -121.5t128.5 -46.5zM592 1083q0 -61 45 -141l84 37q69 33 105 71t36 95
q0 44 -31.5 70t-82.5 26q-66 0 -111 -44.5t-45 -113.5z" />
    <glyph glyph-name="quotesingle" unicode="'" horiz-adv-x="393" 
d="M102 954l88 459q3 21 25 21h205q16 0 16 -21l-88 -459q-3 -20 -24 -20h-205q-17 0 -17 20z" />
    <glyph glyph-name="parenleft" unicode="(" horiz-adv-x="792" 
d="M395 594l-30 -158q-39 -201 -39 -291q0 -58 11.5 -106t39.5 -96t57 -86t82 -99q13 -13 -2 -28l-158 -142q-12 -10 -16.5 -9.5t-13.5 7.5q-136 128 -197 248t-61 279q0 100 28 249l60 306q33 163 75.5 277.5t109 203.5t144 153.5t199.5 141.5q21 12 27 -2l120 -170
q13 -16 -6 -29q-61 -46 -97.5 -74.5t-79 -65t-66.5 -63t-51.5 -64t-43.5 -72.5t-34 -83.5t-31 -102t-27 -124.5z" />
    <glyph glyph-name="parenright" unicode=")" horiz-adv-x="792" 
d="M328 436l30 158q39 201 39 291q0 58 -11 105.5t-40.5 97t-56 84t-82.5 100.5q-13 13 2 28l158 142q12 10 16.5 9.5t13.5 -7.5q136 -128 197 -247.5t61 -278.5q0 -101 -28 -250l-60 -306q-32 -162 -75 -277t-109 -204.5t-144.5 -155t-199.5 -139.5q-21 -12 -27 2l-121 170
q-13 16 7 29q83 62 127 97t94.5 83.5t75.5 86.5t53 96.5t45 125t35 160.5z" />
    <glyph glyph-name="asterisk" unicode="*" horiz-adv-x="919" 
d="M150 1100l61 162q6 14 18 14q9 0 13 -2l190 -66l43 205q3 21 25 21h168q16 0 16 -21l-37 -205l189 62q4 2 12 2q10 0 16 -15l49 -157q0 -20 -18 -27l-225 -76l92 -155q4 -12 4 -15q0 -10 -14 -18l-142 -94q-8 -4 -14 -4t-16 10l-101 162l-149 -174q-9 -9 -15 -9
q-3 0 -14 7l-125 100q-10 10 -10 18q0 9 8 17l156 168l-172 63q-13 3 -13 12q0 1 1 3t2 5.5t2 6.5z" />
    <glyph glyph-name="plus" unicode="+" horiz-adv-x="1202" 
d="M807 1161l-68 -346h344q17 0 17 -20l-35 -189q-3 -20 -25 -20h-344l-67 -346q-3 -21 -25 -21h-192q-17 0 -17 21l68 346h-344q-17 0 -17 20l35 189q3 20 25 20h344l67 346q3 21 25 21h193q16 0 16 -21z" />
    <glyph glyph-name="comma" unicode="," horiz-adv-x="559" 
d="M25 -111q52 0 75.5 20t34.5 66l4 25h-102q-17 0 -17 20l43 222q3 20 25 20h221q17 0 17 -20l-54 -281q-19 -101 -71.5 -150t-145.5 -49h-55q-16 0 -16 21l16 86q3 20 25 20z" />
    <glyph glyph-name="hyphen" unicode="-" horiz-adv-x="1075" 
d="M158 815h803q16 0 16 -20l-35 -189q-3 -20 -24 -20h-803q-17 0 -17 20l35 189q3 20 25 20z" />
    <glyph glyph-name="period" unicode="." horiz-adv-x="559" 
d="M86 262h221q17 0 17 -20l-41 -222q-3 -20 -25 -20h-221q-17 0 -17 20l41 222q3 20 25 20z" />
    <glyph glyph-name="slash" unicode="/" horiz-adv-x="1032" 
d="M-154 20l983 1393q6 8 9.5 12t11 6.5t18.5 2.5h222q10 0 13 -7t-3 -14l-983 -1393q-14 -20 -39 -20h-221q-10 0 -13.5 6t2.5 14z" />
    <glyph glyph-name="zero" unicode="0" horiz-adv-x="1288" 
d="M53 543q0 91 14 182.5t43.5 181.5t71.5 171t102 150t131 119t161.5 78.5t191.5 28.5q222 0 344.5 -139t122.5 -424q0 -91 -14 -182.5t-43.5 -181.5t-71.5 -171t-102 -150t-131 -119t-161.5 -78.5t-191.5 -28.5q-222 0 -344.5 139t-122.5 424zM739 1212q-103 0 -186.5 -63
t-134 -162.5t-77 -213t-26.5 -224.5q0 -328 234 -328q103 0 186.5 63t134 163t77 213.5t26.5 224.5q0 327 -234 327z" />
    <glyph glyph-name="one" unicode="1" horiz-adv-x="798" 
d="M184 20l211 1086l-270 -137q-12 -6 -21 -6q-12 0 -12 18l43 229q3 20 29 31l371 182q18 11 34 11h129q17 0 17 -21l-273 -1393q-3 -20 -24 -20h-217q-17 0 -17 20z" />
    <glyph glyph-name="two" unicode="2" horiz-adv-x="1236" 
d="M-6 20l31 162q7 29 30 47l635 502q83 64 141 143.5t58 161.5q0 81 -51.5 128.5t-147.5 47.5q-93 0 -162 -57t-98 -162q-6 -18 -12.5 -24t-20.5 -6h-188q-25 0 -25 30q33 205 179.5 333t357.5 128q207 0 316.5 -100.5t109.5 -266.5q0 -158 -71 -273.5t-218 -235.5
l-414 -336h564q16 0 16 -21l-39 -201q-3 -20 -24 -20h-951q-16 0 -16 20z" />
    <glyph glyph-name="three" unicode="3" horiz-adv-x="1222" 
d="M449 666l36 196q3 23 27 23h113q106 0 175.5 51t69.5 141q0 63 -45 99t-133 36q-82 0 -149.5 -45.5t-102.5 -134.5q-6 -16 -11.5 -20t-18.5 -4h-191q-24 0 -24 34q41 189 182.5 300.5t335.5 111.5q191 0 301 -90t110 -246q0 -105 -51.5 -194t-152.5 -148
q147 -80 147 -289q0 -232 -154.5 -369.5t-408.5 -137.5q-215 0 -338 109.5t-123 301.5q0 32 2 55q1 17 11 26t22 9h190q13 0 19 -5t6 -21q-2 -18 -2 -33q0 -105 65 -153t170 -48q121 0 200 67t79 181q0 89 -52 131.5t-173 42.5h-113q-18 0 -18 23z" />
    <glyph glyph-name="four" unicode="4" horiz-adv-x="1204" 
d="M543 20l43 218h-590q-16 0 -16 20l28 158q8 30 25 47l817 954q14 17 31 17h176q16 0 16 -21l-182 -934h192q17 0 17 -20l-39 -201q-3 -20 -25 -20h-192l-43 -218q-3 -20 -27 -20h-215q-16 0 -16 20zM719 918l-379 -439h293z" />
    <glyph glyph-name="five" unicode="5" horiz-adv-x="1265" 
d="M119 616l243 797q6 21 25 21h803q16 0 16 -21l-39 -201q-3 -20 -24 -20h-588l-111 -307q133 65 271 65q186 0 291.5 -103.5t105.5 -287.5q0 -269 -156 -424t-426 -155q-216 0 -336 115t-120 292q0 14 2 37q3 31 30 31h189q25 0 27 -31q5 -105 63.5 -154t181.5 -49
q120 0 201.5 83.5t81.5 215.5q0 88 -56 138.5t-159 50.5q-153 0 -287 -95q-25 -18 -39 -18h-174q-18 0 -18 12v4q0 2 2 4z" />
    <glyph glyph-name="six" unicode="6" 
d="M90 506q0 138 27.5 273t85 257t138 215t193.5 148t244 55q210 0 316 -106t106 -279q-4 -13 -9.5 -16.5t-16.5 -3.5h-205q-10 0 -13.5 4.5t-5.5 15.5q-20 143 -188 143q-119 0 -207.5 -86.5t-142.5 -291.5q152 92 317 92q171 0 284 -110.5t113 -297.5q0 -154 -71.5 -276
t-203 -192t-300.5 -70q-99 0 -180.5 29.5t-145.5 90.5t-99.5 164.5t-35.5 241.5zM651 684q-113 0 -194.5 -76.5t-81.5 -189.5q0 -94 53 -145.5t156 -51.5q120 0 200 72.5t80 185.5q0 99 -53 152t-160 53z" />
    <glyph glyph-name="seven" unicode="7" horiz-adv-x="1032" 
d="M115 1212l39 201q3 21 24 21h926q16 0 16 -21l-33 -160q-2 -6 -4 -15t-5 -17.5t-9 -18.5l-694 -1188q-8 -14 -27 -14h-229q-17 0 -17 14q0 3 3 9l4 8l671 1161h-649q-16 0 -16 20z" />
    <glyph glyph-name="eight" unicode="8" horiz-adv-x="1232" 
d="M223 1014q0 124 69 225t187.5 158t261.5 57q186 0 294 -93.5t108 -264.5q0 -98 -55 -186.5t-166 -147.5q143 -97 143 -283q0 -156 -74.5 -270t-202.5 -171.5t-294 -57.5q-202 0 -321.5 106t-119.5 283q0 131 75.5 234.5t203.5 162.5q-109 101 -109 248zM586 635
q-111 0 -191 -66t-80 -174q0 -84 57.5 -129t153.5 -45q124 0 200.5 65.5t76.5 174.5q0 86 -56 130t-161 44zM707 1217q-98 0 -170 -51t-72 -138q0 -75 47 -115.5t137 -40.5q101 0 173.5 54.5t72.5 144.5q0 71 -50 108.5t-138 37.5z" />
    <glyph glyph-name="nine" unicode="9" 
d="M1186 928q0 -138 -27.5 -273t-85 -257t-138 -215t-193.5 -148t-244 -55q-210 0 -316 106t-106 279q4 13 9.5 16.5t16.5 3.5h205q10 0 13.5 -4.5t5.5 -15.5q20 -144 188 -144q119 0 207.5 87t142.5 292q-152 -92 -317 -92q-171 0 -284 110t-113 297q0 234 160 386.5
t415 152.5q99 0 180.5 -29.5t145.5 -90.5t99.5 -164.5t35.5 -241.5zM625 750q113 0 194.5 76.5t81.5 189.5q0 94 -53 145t-156 51q-120 0 -200 -72.5t-80 -185.5q0 -99 53 -151.5t160 -52.5z" />
    <glyph glyph-name="colon" unicode=":" horiz-adv-x="559" 
d="M88 262h221q17 0 17 -20l-43 -222q-3 -20 -25 -20h-221q-17 0 -17 20l43 222q3 20 25 20zM236 1028h221q16 0 16 -20l-43 -222q-3 -20 -24 -20h-222q-16 0 -16 20l43 222q3 20 25 20z" />
    <glyph glyph-name="semicolon" unicode=";" horiz-adv-x="559" 
d="M25 -111q52 0 75.5 20t34.5 66l4 25h-102q-17 0 -17 20l43 222q3 20 25 20h221q17 0 17 -20l-54 -281q-19 -101 -71.5 -150t-145.5 -49h-55q-16 0 -16 21l16 86q3 20 25 20zM236 1028h221q16 0 16 -20l-43 -222q-3 -20 -24 -20h-222q-16 0 -16 20l43 222q3 20 25 20z" />
    <glyph glyph-name="less" unicode="&#x3c;" horiz-adv-x="1052" 
d="M1038 1135l-49 -252q-3 -19 -26 -29l-572 -260l471 -260q15 -9 15 -29l-46 -223q-3 -14 -14 -14q-7 0 -16 6l-697 413q-19 10 -16 27l39 193q3 17 25 26l864 412q22 9 22 -10z" />
    <glyph glyph-name="equal" unicode="=" horiz-adv-x="1267" 
d="M229 938h914q16 0 16 -20l-37 -189q-3 -20 -24 -20h-914q-16 0 -16 20l37 189q6 20 24 20zM150 522h913q16 0 16 -20l-37 -189q-6 -20 -24 -20h-914q-16 0 -16 20l37 189q3 20 25 20z" />
    <glyph glyph-name="greater" unicode="&#x3e;" horiz-adv-x="1052" 
d="M20 78l50 252q3 18 26 28l572 260l-471 261q-15 6 -15 28l45 223q3 15 15 15q7 0 16 -6l696 -414q20 -10 17 -27l-39 -192q-4 -18 -25 -27l-864 -411q-23 -13 -23 10z" />
    <glyph glyph-name="question" unicode="?" horiz-adv-x="1120" 
d="M147 1020q31 185 174.5 309.5t358.5 124.5q199 0 306.5 -91t107.5 -239q0 -76 -22 -138t-58.5 -106t-80.5 -82t-91 -73t-87.5 -70.5t-72.5 -83.5t-43 -104l-10 -51q-3 -21 -25 -21h-221q-16 0 -16 21l10 51q17 80 51 145t75 108t87 79.5t88.5 66t77 59.5t55 68.5
t20.5 85.5q0 58 -42 95.5t-123 37.5q-89 0 -159 -48t-110 -144q-9 -21 -24 -21h-209q-17 0 -17 21zM348 279h246q16 0 16 -21l-47 -238q-3 -20 -24 -20h-246q-17 0 -17 20l48 238q3 21 24 21z" />
    <glyph glyph-name="at" unicode="@" horiz-adv-x="1654" 
d="M1405 705q0 210 -124.5 331t-373.5 121q-137 0 -256 -48.5t-206 -135.5t-137 -214t-50 -276q0 -234 134 -363.5t374 -129.5q67 0 118.5 6.5t103.5 26t76 31t87 44.5q2 2 10 2t15 -10l57 -133q2 -4 2 -12q0 -10 -12 -19q-226 -116 -475 -116q-151 0 -279 45t-221 129.5
t-145 212.5t-52 286q0 248 116 444t315 303t444 107q205 0 361 -79t237.5 -213.5t81.5 -301.5q0 -166 -46 -292t-139.5 -199.5t-224.5 -73.5q-143 0 -207 101q-122 -101 -276 -101q-64 0 -119.5 18.5t-100.5 56t-71.5 101t-26.5 146.5q0 209 137.5 349t337.5 140
q143 0 224 -67l10 36q3 17 20 17h133q17 0 17 -17l-125 -411l-19 -72q-4 -28 -4 -41q0 -40 23.5 -61t60.5 -21q61 0 107 56.5t67 135t21 161.5zM1001 651q0 85 -36 124.5t-115 39.5q-103 0 -180.5 -94t-77.5 -207q0 -162 145 -162q60 0 112 30.5t84 77t50 97t18 94.5z" />
    <glyph glyph-name="A" unicode="A" horiz-adv-x="1255" 
d="M815 379h-502l-192 -359q-9 -20 -29 -20h-231q-11 0 -16 8t1 19l758 1386q12 21 31 21h242q21 0 24 -21l236 -1380q0 -33 -29 -33h-219q-11 0 -15 4.5t-6 15.5zM709 1110l-267 -494h340z" />
    <glyph glyph-name="B" unicode="B" horiz-adv-x="1310" 
d="M627 0h-588q-16 0 -16 20l272 1393q3 21 24 21h523q186 0 288.5 -83t102.5 -245q0 -219 -201 -334q67 -39 106.5 -113.5t39.5 -166.5q0 -219 -148.5 -355.5t-402.5 -136.5zM410 635l-78 -397h305q117 0 191.5 64.5t74.5 166.5q0 166 -192 166h-301zM518 1196l-63 -324
h286q104 0 165 50.5t61 136.5q0 137 -166 137h-283z" />
    <glyph glyph-name="C" unicode="C" horiz-adv-x="1413" 
d="M1098 514h211q22 0 22 -20q-79 -251 -264 -382.5t-451 -131.5q-160 0 -287.5 67t-203.5 201.5t-76 316.5q0 136 34 266t102.5 242.5t163 197.5t224.5 134t279 49q270 0 418.5 -135.5t148.5 -378.5q-6 -20 -26 -20h-207q-21 0 -21 20q-25 277 -334 277
q-153 0 -270.5 -86.5t-177 -226t-59.5 -306.5q0 -188 91 -284.5t238 -96.5q141 0 243.5 65t172.5 212q11 20 29 20z" />
    <glyph glyph-name="D" unicode="D" horiz-adv-x="1376" 
d="M31 20l272 1393q3 21 25 21h420q126 0 229.5 -36t180 -106.5t119 -182.5t42.5 -257q0 -143 -34.5 -271t-104.5 -234.5t-171 -183.5t-240.5 -120t-305.5 -43h-416q-16 0 -16 20zM696 1196h-170l-186 -958h168q124 0 226.5 48.5t169.5 130.5t103.5 188.5t36.5 223.5
q0 184 -91 275.5t-257 91.5z" />
    <glyph glyph-name="E" unicode="E" horiz-adv-x="1165" 
d="M418 635l-78 -397h659q17 0 17 -21l-39 -197q-3 -20 -25 -20h-905q-16 0 -16 20l272 1393q3 21 25 21h874q17 0 17 -21l-39 -196q-3 -21 -25 -21h-629l-63 -324h567q17 0 17 -20l-37 -197q-3 -20 -25 -20h-567z" />
    <glyph glyph-name="F" unicode="F" horiz-adv-x="1161" 
d="M412 604l-115 -584q-3 -20 -25 -20h-225q-16 0 -16 20l272 1393q3 21 25 21h901q16 0 16 -21l-39 -196q-3 -21 -24 -21h-656l-69 -354h590q16 0 16 -21l-37 -196q-3 -21 -25 -21h-589z" />
    <glyph glyph-name="G" unicode="G" horiz-adv-x="1474" 
d="M758 752h616q17 0 17 -21l-72 -366q-9 -44 -35 -78q-117 -153 -277 -230t-352 -77q-132 0 -239.5 35.5t-188 107.5t-124.5 188.5t-44 270.5q0 130 34.5 256.5t104 237.5t165.5 195.5t228 133.5t283 49q251 0 399 -122t148 -337q-6 -20 -26 -20h-215q-18 0 -21 20
q-18 114 -99.5 168t-209.5 54q-115 0 -214.5 -56t-164 -145t-101 -197t-36.5 -215q0 -193 89 -290t257 -97q113 0 214.5 44t174.5 132l23 121h-381q-17 0 -17 21l39 196q3 21 25 21z" />
    <glyph glyph-name="H" unicode="H" horiz-adv-x="1435" 
d="M406 629l-119 -609q-3 -20 -25 -20h-225q-17 0 -17 20l273 1393q3 21 24 21h226q16 0 16 -21l-106 -547h585l107 547q3 21 24 21h226q16 0 16 -21l-272 -1393q-3 -20 -25 -20h-225q-17 0 -17 20l119 609h-585z" />
    <glyph glyph-name="I" unicode="I" horiz-adv-x="567" 
d="M16 20l271 1393q3 21 24 21h226q16 0 16 -21l-272 -1393q-3 -20 -25 -20h-225q-15 0 -15 20z" />
    <glyph glyph-name="J" unicode="J" horiz-adv-x="1161" 
d="M1147 1413l-166 -854q-30 -160 -83 -272.5t-128.5 -179.5t-167.5 -97t-209 -30q-197 0 -307.5 105.5t-110.5 274.5q0 46 11 105q5 14 8.5 17t13.5 3h221q19 0 19 -20q0 -2 -3 -29.5t-3 -40.5q0 -178 176 -178q122 0 190.5 80t104.5 260l168 856q3 21 24 21h225
q17 0 17 -21z" />
    <glyph glyph-name="K" unicode="K" horiz-adv-x="1282" 
d="M565 1413l-98 -498l543 498q21 21 43 21h280q12 0 14 -9t-8 -20l-573 -528l381 -848q2 -2 2 -11q0 -18 -23 -18h-247q-12 0 -18.5 6.5t-12.5 24.5l-293 663l-158 -139l-104 -535q-3 -20 -25 -20h-225q-16 0 -16 20l272 1393q3 21 25 21h225q16 0 16 -21z" />
    <glyph glyph-name="L" unicode="L" horiz-adv-x="1122" 
d="M31 20l272 1393q3 21 25 21h225q16 0 16 -21l-229 -1175h694q17 0 17 -21l-39 -197q-3 -20 -25 -20h-940q-16 0 -16 20z" />
    <glyph glyph-name="M" unicode="M" horiz-adv-x="1677" 
d="M1649 1413l-273 -1393q-3 -20 -24 -20h-226q-16 0 -16 20l184 945l-417 -707q-9 -18 -31 -18h-170q-22 0 -25 18l-172 707l-184 -945q-3 -20 -25 -20h-225q-16 0 -16 20l272 1393q3 21 25 21h260q22 0 28 -21l197 -835l502 835q12 21 37 21h282q17 0 17 -21z" />
    <glyph glyph-name="N" unicode="N" horiz-adv-x="1468" 
d="M1141 0h-230q-18 0 -28 16l-394 971l-188 -967q-3 -20 -25 -20h-229q-16 0 -16 20l272 1393q3 21 25 21h229q19 0 29 -17l393 -971l188 967q3 21 25 21h229q17 0 17 -21l-273 -1393q-3 -20 -24 -20z" />
    <glyph glyph-name="O" unicode="O" horiz-adv-x="1538" 
d="M659 -20q-133 0 -244.5 38.5t-194.5 112.5t-130 191t-47 266q0 172 59.5 329t166 276t265.5 190t347 71q133 0 244.5 -38.5t194.5 -112.5t130 -191t47 -266q0 -172 -60 -329t-166.5 -276t-265.5 -190t-346 -71zM674 217q119 0 223 51.5t174.5 136t111 193.5t40.5 223
q0 195 -99.5 295.5t-257.5 100.5q-119 0 -223 -51.5t-174.5 -136.5t-111 -194t-40.5 -223q0 -195 99.5 -295t257.5 -100z" />
    <glyph glyph-name="P" unicode="P" horiz-adv-x="1267" 
d="M31 20l272 1393q3 21 25 21h520q199 0 310.5 -90.5t111.5 -256.5q0 -229 -153.5 -353t-416.5 -124h-288l-115 -590q-3 -20 -25 -20h-225q-16 0 -16 20zM526 1196l-67 -348h295q117 0 181 52.5t64 150.5q0 145 -178 145h-295z" />
    <glyph glyph-name="Q" unicode="Q" horiz-adv-x="1538" 
d="M659 -20q-133 0 -244.5 38.5t-194.5 112.5t-130 191t-47 266q0 172 59.5 329t166 276t265.5 190t347 71q133 0 244.5 -38.5t194.5 -112.5t130 -191t47 -266q0 -179 -61.5 -337.5t-178.5 -281.5l76 -88q6 -9 6 -14q-3 -8 -12 -14l-176 -150q-8 -8 -16 -8t-13 8l-86 102
q-171 -83 -377 -83zM674 217q105 0 198 41l-94 113q-6 6 -6 14q3 8 12 14l177 150q8 8 16 8q4 0 12 -8l101 -121q133 165 133 393q0 195 -99.5 295.5t-257.5 100.5q-119 0 -223 -51.5t-174.5 -136.5t-111 -194t-40.5 -223q0 -195 99.5 -295t257.5 -100z" />
    <glyph glyph-name="R" unicode="R" horiz-adv-x="1300" 
d="M25 20l272 1393q3 21 25 21h550q181 0 282 -86t101 -246q0 -312 -335 -430l182 -652q0 -20 -21 -20h-245q-19 0 -25 20l-172 631h-225l-123 -631q-3 -20 -25 -20h-225q-16 0 -16 20zM520 1196l-59 -307h317q91 0 151 45.5t60 126.5q0 135 -147 135h-322z" />
    <glyph glyph-name="S" unicode="S" horiz-adv-x="1206" 
d="M141 1016q0 102 44.5 186t120.5 138.5t174.5 84t209.5 29.5q119 0 212 -30.5t150 -83.5t86 -120.5t29 -146.5q0 -31 -2 -47q-3 -20 -24 -20h-223q-17 0 -17 20q0 191 -248 191q-59 0 -111.5 -14.5t-93 -52.5t-40.5 -95q0 -44 21.5 -78.5t65 -61t89 -45t114.5 -39.5
q83 -26 136 -46.5t109.5 -52t88 -66.5t52 -86.5t20.5 -116.5q0 -123 -45.5 -217t-127 -151t-189 -86t-236.5 -29q-235 0 -368.5 118.5t-133.5 304.5q0 14 4 60q3 20 23 20h223q16 0 16 -20v-19q0 -227 267 -227q131 0 214 51.5t83 161.5q0 65 -71 111.5t-212 83.5
q-104 28 -176 60.5t-127 78t-81 108t-26 144.5z" />
    <glyph glyph-name="T" unicode="T" horiz-adv-x="1058" 
d="M70 1217l39 196q3 21 24 21h1045q16 0 16 -21l-39 -196q-3 -21 -25 -21h-389l-229 -1176q-3 -20 -25 -20h-225q-16 0 -16 20l229 1176h-389q-16 0 -16 21z" />
    <glyph glyph-name="U" unicode="U" horiz-adv-x="1349" 
d="M102 567l166 846q3 21 25 21h225q17 0 17 -21l-168 -858q-13 -67 -13 -111q0 -227 230 -227q273 0 340 338l168 858q3 21 24 21h225q17 0 17 -21l-168 -860q-60 -300 -218.5 -436.5t-414.5 -136.5q-230 0 -349.5 114.5t-119.5 339.5q0 51 14 133z" />
    <glyph glyph-name="V" unicode="V" horiz-adv-x="1228" 
d="M1380 1413l-753 -1393q-11 -20 -31 -20h-250q-19 0 -22 20l-226 1393q0 21 21 21h241q18 0 21 -21l141 -1085l561 1085q9 21 29 21h256q14 0 14 -11q0 -8 -2 -10z" />
    <glyph glyph-name="W" unicode="W" horiz-adv-x="1763" 
d="M1858 1413l-586 -1393q-9 -20 -31 -20h-246q-19 0 -22 20l-62 918l-403 -918q-9 -20 -27 -20h-258q-20 0 -20 20l-56 1393q0 21 21 21h225q21 0 21 -21l10 -1046l420 948q9 20 28 20h220q20 0 20 -20l64 -948l417 1046q9 21 29 21h223q15 0 15 -11q0 -6 -2 -10z" />
    <glyph glyph-name="X" unicode="X" horiz-adv-x="1198" 
d="M467 1413l190 -426l349 426q18 21 38 21h259q12 0 12 -11q0 -2 -4 -10l-545 -670l324 -718q2 -4 2 -13q0 -12 -17 -12h-241q-20 0 -29 20l-221 498l-406 -498q-17 -20 -41 -20h-260q-12 0 -12 12q0 6 2 8l608 744l-282 641q-3 6 -3 10q0 19 21 19h225q22 0 31 -21z" />
    <glyph glyph-name="Y" unicode="Y" horiz-adv-x="1081" 
d="M1225 1413l-609 -909l-94 -484q-3 -20 -24 -20h-222q-16 0 -16 20l94 484l-258 909q0 21 17 21h231q20 0 23 -17l165 -626l414 626q10 17 27 17h244q12 0 12 -9q0 -4 -4 -12z" />
    <glyph glyph-name="Z" unicode="Z" horiz-adv-x="1230" 
d="M195 1217l38 196q3 21 25 21h985q17 0 17 -21l-37 -188q-11 -25 -21 -35l-909 -952h760q16 0 16 -21l-39 -197q-3 -20 -24 -20h-1061q-17 0 -17 20l37 189q6 20 21 35l909 952h-684q-16 0 -16 21z" />
    <glyph glyph-name="bracketleft" unicode="[" horiz-adv-x="915" 
d="M8 -385l348 1798q3 21 25 21h575q17 0 17 -21l-39 -196q-3 -21 -25 -21h-329l-265 -1364h330q17 0 17 -20l-39 -197q-3 -21 -25 -21h-573q-17 0 -17 21z" />
    <glyph glyph-name="backslash" unicode="\" horiz-adv-x="616" 
d="M213 1413l438 -1393q0 -20 -18 -20h-207q-17 0 -23 20l-438 1393q0 21 23 21h200q19 0 25 -21z" />
    <glyph glyph-name="bracketright" unicode="]" horiz-adv-x="915" 
d="M823 1413l-348 -1798q-3 -21 -24 -21h-576q-16 0 -16 21l39 197q3 20 24 20h330l264 1364h-330q-16 0 -16 21l39 196q3 21 24 21h574q16 0 16 -21z" />
    <glyph glyph-name="asciicircum" unicode="^" horiz-adv-x="1146" 
d="M274 735h-237q-12 0 -12 10q0 3 4 11l528 657q15 21 35 21h199q22 0 28 -21l273 -657q2 -2 2 -8q0 -13 -19 -13h-217q-18 0 -24 21l-181 436l-346 -436q-15 -21 -33 -21z" />
    <glyph glyph-name="underscore" unicode="_" horiz-adv-x="950" 
d="M-92 0h917q17 0 17 -20l-35 -189q-3 -20 -25 -20h-917q-17 0 -17 20l35 189q3 20 25 20z" />
    <glyph glyph-name="grave" unicode="`" horiz-adv-x="608" 
d="M461 1413l90 -258q9 -20 -14 -20h-179q-22 0 -32 18l-162 260q-5 7 -0.5 14t14.5 7h256q18 0 27 -21z" />
    <glyph glyph-name="a" unicode="a" horiz-adv-x="1239" 
d="M1161 1008l-190 -988q-3 -20 -25 -20h-217q-16 0 -16 20l8 48q-67 -48 -134.5 -68t-164.5 -20q-81 0 -151 28.5t-124.5 83.5t-86 144t-31.5 202q0 119 41 228.5t115 195t188.5 136.5t251.5 51q172 0 270 -88l8 47q3 20 25 20h217q16 0 16 -20zM512 201q139 0 230.5 112
t91.5 265q0 249 -224 249q-128 0 -217.5 -112t-89.5 -260q0 -123 54.5 -188.5t154.5 -65.5z" />
    <glyph glyph-name="b" unicode="b" horiz-adv-x="1263" 
d="M29 20l272 1393q3 21 25 21h213q16 0 16 -21l-90 -457q135 93 299 93q185 0 286 -116t101 -329q0 -120 -37 -230t-106.5 -199t-180.5 -142t-247 -53q-176 0 -285 104l-12 -64q-3 -20 -25 -20h-213q-16 0 -16 20zM672 827q-140 0 -227 -105.5t-87 -275.5q0 -115 59 -180
t163 -65q86 0 155 53.5t105.5 137.5t36.5 179q0 127 -49 191.5t-156 64.5z" />
    <glyph glyph-name="c" unicode="c" horiz-adv-x="1148" 
d="M618 827q-142 0 -229.5 -107t-87.5 -265q0 -254 223 -254q81 0 151.5 41.5t112.5 117.5q10 19 33 19h195q20 0 20 -17l-4 -16q-66 -180 -205.5 -273t-328.5 -93q-209 0 -338 120.5t-129 337.5q0 128 46 240.5t127 194t198 129t253 47.5q206 0 321.5 -106.5t115.5 -264.5
q0 -29 -31 -29h-189q-11 0 -15.5 3.5t-8.5 15.5q-20 82 -75.5 120.5t-154.5 38.5z" />
    <glyph glyph-name="d" unicode="d" horiz-adv-x="1247" 
d="M1235 1413l-272 -1393q-3 -20 -25 -20h-213q-16 0 -16 20l12 64q-135 -104 -291 -104q-178 0 -287.5 117.5t-109.5 332.5q0 163 70 304t199.5 228t289.5 87q108 0 174 -24t123 -79l92 467q3 21 25 21h213q16 0 16 -21zM825 582q0 114 -53 179.5t-158 65.5
q-93 0 -165.5 -54t-109 -139t-36.5 -185q0 -118 55 -183t160 -65q94 0 165.5 54.5t106.5 140.5t35 186z" />
    <glyph glyph-name="e" unicode="e" horiz-adv-x="1196" 
d="M518 201q84 0 143.5 30t114.5 97q16 18 33 18h213q16 0 16 -12q0 -10 -8 -23q-92 -176 -218 -253.5t-318 -77.5q-215 0 -342 121t-127 343q0 120 46.5 230.5t127.5 193t199 132t253 49.5q111 0 198.5 -34.5t142 -94t82.5 -136.5t28 -166q0 -62 -12 -126l-7 -35
q-3 -21 -24 -21h-789q0 -105 62.5 -170t185.5 -65zM625 827q-89 0 -169.5 -49.5t-127.5 -136.5h530q-26 186 -233 186z" />
    <glyph glyph-name="f" unicode="f" horiz-adv-x="749" 
d="M741 807h-278l-154 -787q-3 -20 -24 -20h-213q-17 0 -17 20l154 787h-160q-16 0 -16 20l35 181q3 20 24 20h160l16 88q31 171 135.5 254.5t258.5 83.5q124 0 215 -43q12 -3 12 -16t-2 -19l-33 -172q-3 -20 -18 -20q-3 0 -15 4q-91 45 -159 45q-117 0 -144 -137l-12 -68
h278q17 0 17 -20l-35 -181q-3 -20 -25 -20z" />
    <glyph glyph-name="g" unicode="g" horiz-adv-x="1247" 
d="M416 -426q-201 0 -304.5 94.5t-103.5 257.5q0 21 25 21h203q19 0 22 -21q10 -71 55 -101t133 -30q236 0 287 271l8 36q-71 -53 -134.5 -75.5t-137.5 -22.5q-191 0 -301.5 111t-110.5 323q0 120 40 230t113 195t185 135.5t246 50.5q171 0 264 -103l13 62q3 20 24 20h213
q16 0 16 -20l-176 -906q-28 -149 -79 -252t-125.5 -163.5t-165 -86.5t-209.5 -26zM539 225q137 0 223 108t86 267q0 108 -52.5 167.5t-154.5 59.5q-136 0 -224.5 -111t-88.5 -267q0 -103 53 -163.5t158 -60.5z" />
    <glyph glyph-name="h" unicode="h" horiz-adv-x="1243" 
d="M33 20l270 1393q3 21 25 21h213q16 0 16 -21l-92 -471q139 107 332 107q141 0 226 -73t85 -194q0 -46 -12 -108l-127 -654q-3 -20 -25 -20h-213q-16 0 -16 20l116 598q7 31 7 74q0 64 -39.5 99.5t-118.5 35.5q-108 0 -189.5 -88.5t-115.5 -257.5l-90 -461q-3 -20 -25 -20
h-213q-10 0 -12 4t-2 16z" />
    <glyph glyph-name="i" unicode="i" horiz-adv-x="548" 
d="M20 20l191 988q3 20 25 20h213q16 0 16 -20l-193 -988q-3 -20 -28 -20h-207q-17 0 -17 20zM229 1180l47 233q3 21 25 21h242q16 0 16 -21l-47 -233q-3 -21 -25 -21h-241q-17 0 -17 21z" />
    <glyph glyph-name="j" unicode="j" horiz-adv-x="548" 
d="M6 -47l203 1055q3 20 24 20h213q17 0 17 -20l-205 -1063q-22 -122 -54.5 -200t-80.5 -157q-8 -14 -17 -14q-5 0 -20 6l-195 70q-12 3 -12 12l4 12q9 17 37.5 65t39 68t25 61t21.5 85zM229 1180l45 233q3 21 25 21h242q16 0 16 -21l-45 -233q-3 -21 -25 -21h-241
q-17 0 -17 21z" />
    <glyph glyph-name="k" unicode="k" horiz-adv-x="1116" 
d="M1108 997l-424 -352l277 -614q2 -4 2 -15q0 -16 -21 -16h-229q-20 0 -29 18l-207 471l-115 -92l-75 -377q-3 -20 -25 -20h-213q-10 0 -12 4t-2 16l270 1393q3 21 25 21h213q19 0 16 -21l-137 -702l377 299q24 18 47 18h260q14 0 14 -12q0 -10 -12 -19z" />
    <glyph glyph-name="l" unicode="l" horiz-adv-x="550" 
d="M23 20l270 1393q3 21 24 21h213q17 0 17 -21l-273 -1393q-3 -20 -24 -20h-213q-14 0 -14 20z" />
    <glyph glyph-name="m" unicode="m" horiz-adv-x="1677" 
d="M20 20l191 988q3 20 25 20h213q16 0 16 -20l-12 -66q122 107 272 107q91 0 144.5 -30t86.5 -97q80 67 154.5 97t171.5 30q272 0 272 -252q0 -51 -12 -109l-129 -668q-3 -20 -24 -20h-213q-17 0 -17 20l123 633q6 31 6 74q0 100 -102 100q-182 0 -254 -350l-88 -457
q-3 -20 -25 -20h-209q-16 0 -16 20l121 623q6 37 6 68q0 116 -117 116q-79 0 -143.5 -87t-98.5 -263l-88 -457q-3 -20 -24 -20h-213q-17 0 -17 20z" />
    <glyph glyph-name="n" unicode="n" horiz-adv-x="1218" 
d="M29 20l190 988q3 20 25 20h213q16 0 16 -20l-14 -74q73 59 147 87t172 28q147 0 224 -76t77 -193q0 -45 -6 -78l-131 -682q-3 -20 -24 -20h-213q-17 0 -17 20l115 594q6 38 6 66q0 147 -137 147q-104 0 -184 -83t-115 -259l-90 -465q-3 -20 -25 -20h-213q-16 0 -16 20z
" />
    <glyph glyph-name="o" unicode="o" horiz-adv-x="1245" 
d="M35 428q0 129 47 243t130 197.5t204 132t262 48.5q215 0 346 -124t131 -325q0 -172 -79.5 -313t-227.5 -224t-336 -83q-215 0 -346 123.5t-131 324.5zM647 827q-148 0 -245 -113t-97 -276q0 -109 64 -173t174 -64q148 0 245 113t97 276q0 110 -64 173.5t-174 63.5z" />
    <glyph glyph-name="p" unicode="p" horiz-adv-x="1255" 
d="M-43 -385l270 1393q3 20 25 20h213q16 0 16 -20l-12 -64q140 105 291 105q189 0 291 -112.5t102 -336.5q0 -176 -69 -317t-197.5 -222t-294.5 -81q-171 0 -291 102l-92 -467q-3 -21 -25 -21h-213q-14 0 -14 21zM365 438q0 -109 56 -173t152 -64q137 0 223.5 112t86.5 275
q0 113 -52.5 176t-154.5 63q-93 0 -166 -59t-109 -147t-36 -183z" />
    <glyph glyph-name="q" unicode="q" horiz-adv-x="1247" 
d="M1155 1008l-272 -1393q-3 -21 -25 -21h-213q-16 0 -16 21l90 457q-134 -92 -299 -92q-185 0 -286 115.5t-101 328.5q0 120 37 230.5t106.5 199t180.5 142t247 53.5q175 0 285 -105l12 64q3 20 25 20h213q16 0 16 -20zM512 201q138 0 225.5 105.5t87.5 275.5
q0 116 -58.5 180.5t-162.5 64.5q-86 0 -155 -53.5t-105.5 -137.5t-36.5 -179q0 -127 49 -191.5t156 -64.5z" />
    <glyph glyph-name="r" unicode="r" horiz-adv-x="905" 
d="M930 975l-37 -187q-3 -22 -23 -22l-12 4q-106 57 -201 57t-171.5 -69t-104.5 -207l-102 -531q-3 -20 -25 -20h-213q-16 0 -16 20l190 988q3 20 25 20h213q16 0 16 -20l-10 -56q59 49 125 73t155 24q93 0 172 -33q21 -9 21 -25q0 -10 -2 -16z" />
    <glyph glyph-name="s" unicode="s" horiz-adv-x="1036" 
d="M903 346q0 -76 -26 -138.5t-70 -104t-104 -70t-125 -41t-136 -12.5q-216 0 -322 93.5t-106 268.5q0 20 25 20h203q20 0 20 -20q0 -71 50 -106t134 -35q187 0 187 112q0 41 -47.5 69t-169.5 50q-160 29 -233.5 92.5t-73.5 173.5q0 85 38.5 153.5t103 111t144 64.5
t166.5 22q192 0 291.5 -85.5t99.5 -230.5q0 -20 -24 -20h-207q-19 0 -25 20q-26 103 -172 103q-64 0 -113 -26t-49 -79q0 -43 47 -71.5t177 -51.5q165 -32 241 -88t76 -174z" />
    <glyph glyph-name="t" unicode="t" horiz-adv-x="845" 
d="M508 1028h305q16 0 16 -20l-34 -181q-3 -20 -25 -20h-305l-84 -438q-12 -62 -12 -80q0 -51 30 -69.5t90 -18.5q84 0 183 35q4 2 14 2q12 0 12 -17l-34 -176q-4 -18 -11 -25t-20 -12q-77 -28 -223 -28q-138 0 -216.5 69t-78.5 201q0 66 4 84l92 473h-172q-16 0 -16 20
l34 181q3 20 25 20h172l57 295q3 20 25 20h213q16 0 16 -20z" />
    <glyph glyph-name="u" unicode="u" horiz-adv-x="1206" 
d="M1118 1008l-190 -988q-3 -20 -25 -20h-213q-16 0 -16 20l14 74q-73 -58 -146.5 -86t-172.5 -28q-147 0 -224 75.5t-77 192.5q0 45 6 78l131 682q3 20 24 20h213q17 0 17 -20l-115 -594q-6 -37 -6 -66q0 -147 137 -147q104 0 184 83t115 259l90 465q3 20 25 20h213
q16 0 16 -20z" />
    <glyph glyph-name="v" unicode="v" horiz-adv-x="960" 
d="M1018 995l-555 -975q-11 -20 -33 -20h-219q-18 0 -21 20l-180 975q-2 6 -2 17q0 16 19 16h225q21 0 24 -20l109 -656l356 656q11 20 33 20h234q16 0 16 -14q0 -7 -6 -19z" />
    <glyph glyph-name="w" unicode="w" horiz-adv-x="1560" 
d="M1585 997l-477 -977q-9 -20 -31 -20h-223q-20 0 -23 20l-73 621l-293 -621q-11 -20 -31 -20h-223q-20 0 -23 20l-114 981q0 27 24 27h205q25 0 25 -20l51 -682l293 632q9 21 30 21h218q21 0 24 -21l74 -632l311 682q5 12 11 16t22 4h215q14 0 14 -12q0 -7 -6 -19z" />
    <glyph glyph-name="x" unicode="x" horiz-adv-x="1024" 
d="M403 1014l129 -264l232 264q11 14 31 14h239q13 0 13 -12q0 -5 -7 -15l-407 -462l254 -512q4 -12 4 -17q0 -10 -14 -10h-248q-20 0 -29 20l-147 302l-260 -302q-20 -20 -41 -20h-252q-11 0 -11 10q0 6 9 17l446 522l-227 452q-2 4 -2 13q0 14 16 14h246q18 0 26 -14z" />
    <glyph glyph-name="y" unicode="y" horiz-adv-x="1075" 
d="M96 1028h242q19 0 22 -20l115 -643l326 643q9 20 30 20h230q12 0 12 -12q0 -5 -4 -17l-577 -1099q-170 -326 -429 -326q-138 0 -200 33q-15 9 -15 33l35 180q3 20 21 20q11 0 60 -22.5t91 -22.5q71 0 124.5 54t117.5 186l-217 960q-2 6 -2 17q0 16 18 16z" />
    <glyph glyph-name="z" unicode="z" horiz-adv-x="999" 
d="M127 827l35 181q3 20 24 20h783q16 0 16 -20l-33 -172q-3 -23 -13 -34q-5 -4 -11 -9l-623 -572h537q16 0 16 -20l-35 -181q-3 -20 -24 -20h-834q-16 0 -16 20l33 173q2 14 18 30l633 584h-490q-16 0 -16 20z" />
    <glyph glyph-name="braceleft" unicode="{" horiz-adv-x="815" 
d="M449 322l-62 -318q-6 -34 -6 -61q0 -111 111 -111h55q16 0 16 -20l-39 -197q-3 -21 -24 -21h-97q-139 0 -215.5 72.5t-76.5 212.5q0 53 12 121l51 258q6 30 6 49q0 88 -98 88h-59q-17 0 -17 21l39 196q3 21 25 21h59q61 0 96.5 33t48.5 104l56 285q40 215 136.5 297
t281.5 82h110q16 0 16 -21l-38 -196q-3 -21 -25 -21h-55q-73 0 -112.5 -41.5t-57.5 -130.5l-66 -338q-17 -78 -53.5 -116.5t-108.5 -55.5q97 -31 97 -131q0 -27 -6 -61z" />
    <glyph glyph-name="bar" unicode="|" horiz-adv-x="585" 
d="M2 -184l307 1597q3 21 25 21h221q16 0 16 -21l-309 -1597q-3 -21 -24 -21h-220q-16 0 -16 21z" />
    <glyph glyph-name="braceright" unicode="}" horiz-adv-x="815" 
d="M319 707l62 317q6 34 6 61q0 111 -111 111h-55q-16 0 -16 21l39 196q3 21 24 21h97q139 0 215.5 -72.5t76.5 -212.5q0 -53 -12 -121l-51 -258q-6 -30 -6 -49q0 -88 98 -88h59q17 0 17 -21l-39 -196q-3 -21 -25 -21h-59q-61 0 -96.5 -33t-48.5 -104l-56 -285
q-29 -147 -82 -230t-132 -116t-204 -33h-110q-16 0 -16 21l38 197q3 20 25 20h55q73 0 112.5 41.5t57.5 130.5l66 338q17 78 53.5 116.5t108.5 55.5q-97 31 -97 131q0 27 6 62z" />
    <glyph glyph-name="asciitilde" unicode="~" horiz-adv-x="1056" 
d="M45 768q51 34 141.5 61t147.5 27q73 0 131 -13t89 -29t72.5 -29t84.5 -13q86 0 166 51q12 4 14 4q12 0 18 -16l74 -164l4 -12q0 -11 -12 -17q-51 -34 -142 -61t-147 -27q-73 0 -131 13t-89 29t-72.5 29t-84.5 13q-86 0 -166 -51q-12 -4 -14 -4q-12 0 -18 16l-74 164
q-4 12 -4 13q0 10 12 16z" />
    <glyph glyph-name="uni00A0" unicode="&#xa0;" horiz-adv-x="475" 
 />
    <glyph glyph-name="exclamdown" unicode="&#xa1;" horiz-adv-x="718" 
d="M264 -406h-221q-16 0 -16 21l194 997q3 21 25 21h221q16 0 16 -21l-194 -997q-3 -21 -25 -21zM502 750h-246q-16 0 -16 20l47 238q3 20 24 20h246q16 0 16 -20l-47 -238q-3 -20 -24 -20z" />
    <glyph glyph-name="cent" unicode="&#xa2;" horiz-adv-x="1169" 
d="M346 20l35 181q-147 38 -232.5 151.5t-85.5 288.5q0 234 145 402t378 200l32 170q3 21 25 21h197q16 0 16 -21l-35 -176q145 -33 224 -130.5t79 -225.5q0 -29 -30 -29h-189q-11 0 -15.5 3t-8.5 15q-24 103 -105 138l-114 -586q101 40 159 141q9 19 33 19h195q20 0 20 -17
l-4 -16q-59 -157 -175 -248.5t-274 -112.5l-32 -168q-3 -20 -25 -20h-197q-16 0 -16 20zM334 657q0 -87 21.5 -139.5t70.5 -81.5l113 572q-98 -41 -151.5 -134t-53.5 -217z" />
    <glyph glyph-name="sterling" unicode="&#xa3;" horiz-adv-x="1214" 
d="M45 242q75 69 126.5 158.5t64.5 181.5h-164q-19 0 -19 20l39 197q3 20 25 20h102q-6 53 -6 127q0 227 148.5 367.5t377.5 140.5q197 0 309.5 -101t112.5 -259q0 -32 -6 -70q-3 -20 -25 -20h-215q-16 0 -16 20q0 83 -44 135.5t-146 52.5q-105 0 -169.5 -75t-64.5 -181
q0 -39 14 -137h400q16 0 16 -20l-39 -197q-3 -20 -22 -20h-346q-14 -91 -58.5 -181t-113.5 -163h694q16 0 16 -21l-39 -197q-3 -20 -24 -20h-969q-16 0 -16 20l32 181q3 19 25 41z" />
    <glyph glyph-name="currency" unicode="&#xa4;" horiz-adv-x="1161" 
d="M25 229l133 113q-27 64 -27 131q0 159 98 281l-77 98l-5 10q0 8 11 19l141 120q9 9 16 9t13 -9l86 -106q96 41 202 41q104 0 191 -49l145 119q8 8 17 8q7 0 12 -8l104 -129q5 -10 5 -13q0 -5 -11 -16l-135 -115q31 -81 31 -151q0 -145 -96 -265l73 -92q6 -9 6 -12
q0 -7 -12 -16l-141 -121q-8 -8 -17 -8q-4 0 -12 8l-86 104q-91 -39 -192 -39q-113 0 -203 49l-143 -118q-9 -9 -17 -9q-3 0 -12 9l-105 129q-4 8 -4 12q0 5 11 16zM586 729q-94 0 -161 -65t-67 -166q0 -66 44 -108t116 -42q94 0 162 66.5t68 163.5q0 68 -44.5 109.5
t-117.5 41.5z" />
    <glyph glyph-name="yen" unicode="&#xa5;" horiz-adv-x="1140" 
d="M109 420h288l15 76h-328q-18 0 -18 20l36 180q3 21 25 21h225l-198 696q0 21 16 21h244q15 0 18 -17l164 -620l410 620q10 17 26 17h252q12 0 12 -9q0 -4 -4 -12l-473 -696h246q16 0 16 -21l-37 -180q-3 -20 -22 -20h-348l-15 -76h306q16 0 16 -21l-35 -180
q-3 -20 -24 -20h-306l-34 -179q-3 -20 -25 -20h-221q-17 0 -17 20l35 179h-288q-17 0 -17 20l35 180q3 21 25 21z" />
    <glyph glyph-name="brokenbar" unicode="&#xa6;" horiz-adv-x="626" 
d="M199 643l149 770q3 21 25 21h213q16 0 16 -21l-149 -770q-3 -20 -25 -20h-213q-16 0 -16 20zM0 -385l147 770q3 21 25 21h213q16 0 16 -21l-149 -770q-3 -21 -25 -21h-211q-16 0 -16 21z" />
    <glyph glyph-name="section" unicode="&#xa7;" horiz-adv-x="1044" 
d="M922 453q0 -147 -150 -252q59 -83 59 -183q0 -203 -133 -323.5t-338 -120.5q-101 0 -180 29.5t-126 79.5t-71 111t-24 130q0 20 4 56q3 20 25 20h213q16 0 16 -20v-19q0 -149 170 -149q81 0 141 43.5t60 124.5q0 67 -46 116t-155 115q-80 48 -129.5 83.5t-92 79t-61 92.5
t-18.5 109q0 156 150 252q-60 85 -60 183q0 203 133 323.5t338 120.5q101 0 180 -29.5t126.5 -79t71.5 -111t24 -130.5q0 -10 -5 -55q-3 -21 -24 -21h-213q-16 0 -16 21v18q0 150 -170 150q-81 0 -141 -43.5t-60 -124.5q0 -67 46.5 -116.5t154.5 -115.5q80 -48 129.5 -83.5
t92 -79t61 -92.5t18.5 -109zM408 674q-60 -39 -60 -92q0 -42 49 -87.5t203 -140.5q59 39 59 92q0 42 -49 88t-202 140z" />
    <glyph glyph-name="dieresis" unicode="&#xa8;" horiz-adv-x="718" 
d="M131 1192l43 221q3 21 25 21h221q16 0 16 -21l-43 -221q-3 -21 -24 -21h-222q-16 0 -16 21zM496 1192l43 221q3 21 24 21h221q17 0 17 -21l-43 -221q-3 -21 -25 -21h-221q-16 0 -16 21z" />
    <glyph glyph-name="copyright" unicode="&#xa9;" horiz-adv-x="1638" 
d="M819 -20q-105 0 -207.5 30.5t-194 93t-161 149t-110 206.5t-40.5 258t40.5 258t110 206.5t161 149t194 93t207.5 30.5t207.5 -30.5t194 -93t161 -149t110 -206.5t40.5 -258t-40.5 -258t-110 -206.5t-161 -149t-194 -93t-207.5 -30.5zM819 66q92 0 180 25.5t167 79
t138.5 129t94.5 183.5t35 234t-35 234t-94.5 183.5t-138.5 129t-167 79t-180 25.5t-180 -25.5t-167 -79t-138 -129.5t-94 -183.5t-35 -233.5t35 -233.5t94 -183.5t138 -129.5t167 -79t180 -25.5zM1153 565h49q23 0 23 -20q-26 -140 -136.5 -222.5t-269.5 -82.5
q-82 0 -157.5 30.5t-137 87.5t-98.5 150.5t-37 208.5t37 208.5t98.5 150.5t137 87.5t157.5 30.5q159 0 269.5 -82.5t136.5 -222.5q0 -21 -23 -21h-49q-23 0 -29 21q-24 100 -104 159.5t-201 59.5q-137 0 -234.5 -104.5t-97.5 -286.5t97.5 -286.5t234.5 -104.5
q121 0 201 59.5t104 159.5q6 20 29 20z" />
    <glyph glyph-name="ordfeminine" unicode="&#xaa;" horiz-adv-x="954" 
d="M952 1419l-143 -735q0 -14 -18 -14h-160q-13 0 -13 14l7 37q-49 -37 -99.5 -51.5t-124.5 -14.5q-125 0 -208.5 87.5t-83.5 252.5q0 70 18.5 136.5t56.5 124.5t90.5 101t124 68t154.5 25q128 0 201 -66l6 35q3 15 18 15h162q12 0 12 -15zM469 819q104 0 172 83t68 198
q0 184 -166 184q-96 0 -163 -83t-67 -193q0 -92 40.5 -140.5t115.5 -48.5z" />
    <glyph glyph-name="guillemotleft" unicode="&#xab;" horiz-adv-x="1169" 
d="M678 1083l-49 -258q-3 -20 -21 -32l-323 -244l227 -252q10 -10 10 -18q0 -9 -2 -15l-43 -229q-3 -15 -14 -15q-5 0 -12 7l-396 432q-15 18 -12 37l25 137q3 23 28 37l559 422q8 4 11 4q12 0 12 -13zM1112 1083l-49 -258q-3 -20 -21 -32l-323 -244l227 -252q10 -10 10 -18
q0 -9 -2 -15l-43 -229q-3 -15 -14 -15q-5 0 -12 7l-396 432q-15 18 -12 37l25 137q3 23 28 37l560 422q8 4 10 4q12 0 12 -13z" />
    <glyph glyph-name="logicalnot" unicode="&#xac;" horiz-adv-x="1116" 
d="M725 627h-641q-16 0 -16 20l34 180q3 21 25 21h864q17 0 17 -21l-88 -446q-3 -21 -25 -21h-201q-16 0 -16 21z" />
    <glyph glyph-name="registered" unicode="&#xae;" horiz-adv-x="1638" 
d="M819 -20q-105 0 -207.5 30.5t-194 93t-161 149t-110 206.5t-40.5 258t40.5 258t110 206.5t161 149t194 93t207.5 30.5t207.5 -30.5t194 -93t161 -149t110 -206.5t40.5 -258t-40.5 -258t-110 -206.5t-161 -149t-194 -93t-207.5 -30.5zM819 66q92 0 180 25.5t167 79
t138.5 129t94.5 183.5t35 234t-35 234t-94.5 183.5t-138.5 129t-167 79t-180 25.5t-180 -25.5t-167 -79t-138 -129.5t-94 -183.5t-35 -233.5t35 -233.5t94 -183.5t138 -129.5t167 -79t180 -25.5zM537 272v893q0 23 22 23h279q145 0 221 -70.5t76 -189.5q0 -96 -50.5 -161.5
t-138.5 -90.5l201 -404q4 -12 4 -14q0 -8 -12 -8h-58q-23 0 -32 18l-201 396h-213v-392q0 -22 -23 -22h-53q-22 0 -22 22zM635 1102v-352h217q97 0 140.5 45t43.5 133q0 174 -184 174h-217z" />
    <glyph glyph-name="macron" unicode="&#xaf;" horiz-adv-x="575" 
d="M135 1200l35 184q3 21 25 21h442q16 0 16 -21l-35 -184q-3 -20 -24 -20h-442q-17 0 -17 20z" />
    <glyph glyph-name="degree" unicode="&#xb0;" horiz-adv-x="876" 
d="M123 1026q0 188 120.5 308t319.5 120q148 0 243 -85.5t95 -227.5q0 -187 -120.5 -307.5t-319.5 -120.5q-146 0 -242 85.5t-96 227.5zM539 1266q-89 0 -148 -63.5t-59 -151.5q0 -71 42.5 -110.5t110.5 -39.5q89 0 148 63.5t59 151.5q0 71 -42.5 110.5t-110.5 39.5z" />
    <glyph glyph-name="plusminus" unicode="&#xb1;" horiz-adv-x="1212" 
d="M55 229h918q16 0 16 -20l-35 -189q-3 -20 -24 -20h-918q-16 0 -16 20l35 189q3 20 24 20zM819 1221l-67 -347h344q16 0 16 -20l-35 -188q-3 -21 -24 -21h-344l-68 -346q-3 -20 -25 -20h-192q-16 0 -16 20l67 346h-344q-16 0 -16 21l35 188q3 20 24 20h344l68 347
q3 20 24 20h193q16 0 16 -20z" />
    <glyph glyph-name="twosuperior" unicode="&#xb2;" horiz-adv-x="786" 
d="M102 688l17 94q3 20 18 29l361 254q86 62 86 133q0 84 -88 84q-44 0 -78 -25t-51 -71q-9 -21 -25 -21h-127q-16 0 -16 21q19 117 103.5 188.5t203.5 71.5t185.5 -60.5t66.5 -154.5q0 -150 -156 -264l-184 -136h260q16 0 16 -20l-22 -123q-3 -20 -25 -20h-528
q-17 0 -17 20z" />
    <glyph glyph-name="threesuperior" unicode="&#xb3;" horiz-adv-x="770" 
d="M317 1010l23 118q3 21 25 21h57q46 0 77 21.5t31 60.5q0 59 -71 59t-107 -73q-5 -11 -8.5 -14t-13.5 -3h-125q-19 0 -19 19q25 106 103 166.5t188 60.5q109 0 168.5 -51t59.5 -133q0 -110 -109 -181q76 -57 76 -163q0 -121 -83 -192t-210 -71q-119 0 -189.5 65t-70.5 161
v22q3 21 22 21h133q16 0 19 -21q9 -84 96 -84q45 0 74 25t29 74q0 32 -23 51.5t-66 19.5h-69q-17 0 -17 21z" />
    <glyph glyph-name="acute" unicode="&#xb4;" horiz-adv-x="608" 
d="M137 1155l191 258q15 21 34 21h263q10 0 12 -7t-6 -14l-262 -260q-18 -18 -41 -18h-185q-8 0 -10 6.5t4 13.5z" />
    <glyph glyph-name="mu" unicode="&#xb5;" horiz-adv-x="1206" 
d="M1118 1008l-190 -988q-3 -20 -25 -20h-213q-16 0 -16 20l14 74q-73 -58 -146.5 -86t-172.5 -28q-51 0 -109 14l-74 -379q-3 -21 -24 -21h-211q-17 0 -17 21l271 1393q3 20 24 20h213q17 0 17 -20l-115 -594q-6 -37 -6 -66q0 -147 137 -147q104 0 184 83t115 259l90 465
q3 20 25 20h213q16 0 16 -20z" />
    <glyph glyph-name="paragraph" unicode="&#xb6;" horiz-adv-x="1292" 
d="M618 1434h746q16 0 16 -21l-37 -196q-3 -21 -24 -21h-115l-268 -1380q-3 -21 -25 -21h-204q-17 0 -17 21l268 1380h-124l-269 -1380q-3 -21 -24 -21h-205q-17 0 -17 21l158 817h-20q-181 0 -284 92t-103 258q0 103 43.5 188.5t118.5 142.5t174.5 88.5t211.5 31.5z" />
    <glyph glyph-name="periodcentered" unicode="&#xb7;" horiz-adv-x="559" 
d="M197 881h221q16 0 16 -21l-41 -221q-3 -21 -24 -21h-222q-16 0 -16 21l41 221q3 21 25 21z" />
    <glyph glyph-name="cedilla" unicode="&#xb8;" horiz-adv-x="532" 
d="M-8 -238l-37 43q-6 6 -6 13q0 4 6 16l106 223q9 21 27 21h129q27 0 12 -21l-108 -166q58 15 98 15q166 0 166 -135q0 -100 -74 -148.5t-198 -48.5q-150 0 -217 20q-19 6 -19 21l19 90q3 21 24 21q3 0 60.5 -13.5t128.5 -13.5q17 0 32.5 2.5t31 13.5t15.5 29q0 33 -43 33
q-51 0 -125 -19q-4 -2 -12 -2q-10 0 -16 6z" />
    <glyph glyph-name="onesuperior" unicode="&#xb9;" horiz-adv-x="563" 
d="M225 688l101 520l-129 -67q-12 -6 -21 -6q-12 0 -12 16l29 149q4 13 18 21l197 104q15 9 32 9h82q17 0 17 -21l-142 -725q-3 -20 -24 -20h-131q-17 0 -17 20z" />
    <glyph glyph-name="ordmasculine" unicode="&#xba;" horiz-adv-x="956" 
d="M111 987q0 95 34.5 180t96 147.5t152 99t196.5 36.5q160 0 257 -92.5t97 -243.5q0 -196 -133 -328.5t-346 -132.5q-161 0 -257.5 91t-96.5 243zM567 1284q-112 0 -184 -83.5t-72 -207.5q0 -81 47 -128.5t131 -47.5q109 0 181.5 84t72.5 207q0 82 -47 129t-129 47z" />
    <glyph glyph-name="guillemotright" unicode="&#xbb;" horiz-adv-x="1169" 
d="M449 37l49 258q3 22 20 33l324 243l-228 252q-10 10 -10 19q0 8 2 14l43 229q3 15 15 15q6 0 12 -6l395 -432q15 -18 12 -37l-24 -138q-3 -22 -29 -36l-559 -422q-8 -4 -10 -4q-12 0 -12 12zM14 37l49 258q3 21 21 33l324 243l-228 252q-10 10 -10 19q0 8 2 14l43 229
q3 15 14 15q7 0 13 -6l395 -432q15 -18 12 -37l-24 -138q-3 -22 -29 -36l-559 -422q-8 -4 -10 -4q-13 0 -13 12z" />
    <glyph glyph-name="onequarter" unicode="&#xbc;" horiz-adv-x="1732" 
d="M1155 20l19 93h-326q-14 0 -14 20l20 113q3 13 14 24l426 482q14 14 27 14h127q16 0 16 -21l-90 -464h103q16 0 16 -21l-25 -127q-6 -20 -24 -20h-103l-18 -93q-3 -20 -25 -20h-127q-16 0 -16 20zM1243 477l-172 -196h135zM223 688l101 520l-129 -67q-12 -6 -21 -6
q-12 0 -12 16l28 149q4 12 19 21l197 104q15 9 32 9h82q17 0 17 -21l-142 -725q-3 -20 -24 -20h-131q-17 0 -17 20zM96 127l1374 1300q7 7 15 7q7 0 14 -7l84 -92q6 -6 6 -14q0 -6 -8 -14l-1374 -1301q-6 -6 -14 -6q-9 0 -15 6l-84 92q-6 6 -6 15q0 6 8 14z" />
    <glyph glyph-name="onehalf" unicode="&#xbd;" horiz-adv-x="1822" 
d="M96 127l1374 1300q7 7 15 7q7 0 14 -7l84 -92q6 -6 6 -14q0 -6 -8 -14l-1374 -1301q-6 -6 -14 -6q-9 0 -15 6l-84 92q-6 6 -6 15q0 6 8 14zM223 688l101 520l-129 -67q-12 -6 -21 -6q-12 0 -12 16l28 149q4 12 19 21l197 104q15 9 32 9h82q17 0 17 -21l-142 -725
q-3 -20 -24 -20h-131q-17 0 -17 20zM1026 20l16 95q3 18 19 28l360 254q86 62 86 133q0 84 -88 84q-44 0 -78 -25t-51 -71q-9 -20 -24 -20h-127q-17 0 -17 20q19 117 104 188.5t204 71.5t185 -60.5t66 -154.5q0 -151 -155 -264l-185 -135h261q16 0 16 -21l-23 -123
q-3 -20 -24 -20h-529q-16 0 -16 20z" />
    <glyph glyph-name="threequarters" unicode="&#xbe;" horiz-adv-x="1800" 
d="M317 1010l23 118q3 21 25 21h57q46 0 77 21.5t31 60.5q0 59 -71 59t-107 -73q-5 -11 -8.5 -14t-13.5 -3h-125q-19 0 -19 19q25 106 103 166.5t188 60.5q109 0 168.5 -51t59.5 -133q0 -110 -109 -181q76 -57 76 -163q0 -121 -83 -192t-210 -71q-119 0 -189.5 65t-70.5 161
v22q3 21 22 21h133q16 0 19 -21q9 -84 96 -84q45 0 74 25t29 74q0 32 -23 51.5t-66 19.5h-69q-17 0 -17 21zM1223 20l18 93h-326q-14 0 -14 20l21 113q3 13 14 24l426 482q14 14 27 14h127q16 0 16 -21l-90 -464h102q17 0 17 -21l-25 -127q-6 -20 -25 -20h-102l-18 -93
q-3 -20 -25 -20h-127q-16 0 -16 20zM1311 477l-172 -196h135zM164 127l1374 1300q7 7 14 7q8 0 15 -7l84 -92q6 -6 6 -14q0 -6 -8 -14l-1375 -1301q-6 -6 -14 -6t-14 6l-84 92q-6 6 -6 15q0 6 8 14z" />
    <glyph glyph-name="questiondown" unicode="&#xbf;" horiz-adv-x="1120" 
d="M913 8q-31 -185 -174 -309.5t-358 -124.5q-199 0 -306.5 91t-107.5 239q0 76 22 138t58.5 106t80.5 82t91 73t87.5 70.5t72.5 83.5t43 104l10 51q3 21 25 21h221q16 0 16 -21l-10 -51q-17 -80 -51 -145t-75 -108t-87 -79.5t-88.5 -66t-77.5 -59.5t-55.5 -68.5
t-20.5 -85.5q0 -58 42.5 -95.5t123.5 -37.5q89 0 159 48t110 144q9 21 24 21h209q16 0 16 -21zM713 750h-246q-16 0 -16 20l47 238q3 20 24 20h246q16 0 16 -20l-47 -238q-3 -20 -24 -20z" />
    <glyph glyph-name="Agrave" unicode="&#xc0;" horiz-adv-x="1255" 
d="M815 379h-502l-192 -359q-9 -20 -29 -20h-231q-11 0 -16 8t1 19l758 1386q12 21 31 21h242q21 0 24 -21l236 -1380q0 -33 -29 -33h-219q-11 0 -15 4.5t-6 15.5zM709 1110l-267 -494h340zM784 1819l90 -258q9 -21 -14 -21h-178q-22 0 -33 19l-162 260q-5 8 0 14t15 6h256
q17 0 26 -20z" />
    <glyph glyph-name="Aacute" unicode="&#xc1;" horiz-adv-x="1255" 
d="M815 379h-502l-192 -359q-9 -20 -29 -20h-231q-11 0 -16 8t1 19l758 1386q12 21 31 21h242q21 0 24 -21l236 -1380q0 -33 -29 -33h-219q-11 0 -15 4.5t-6 15.5zM709 1110l-267 -494h340zM678 1561l190 258q14 20 35 20h262q10 0 12 -6.5t-6 -13.5l-262 -260
q-19 -19 -41 -19h-184q-8 0 -10 7t4 14z" />
    <glyph glyph-name="Acircumflex" unicode="&#xc2;" horiz-adv-x="1255" 
d="M815 379h-502l-192 -359q-9 -20 -29 -20h-231q-11 0 -16 8t1 19l758 1386q12 21 31 21h242q21 0 24 -21l236 -1380q0 -33 -29 -33h-219q-11 0 -15 4.5t-6 15.5zM709 1110l-267 -494h340zM942 1823l170 -291q5 -8 0.5 -14.5t-14.5 -6.5h-189q-18 0 -32 19l-78 96l-119 -96
q-19 -19 -41 -19h-197q-10 0 -12 6.5t6 14.5l277 291q19 16 35 16h167q17 0 27 -16z" />
    <glyph glyph-name="Atilde" unicode="&#xc3;" horiz-adv-x="1255" 
d="M815 379h-502l-192 -359q-9 -20 -29 -20h-231q-11 0 -16 8t1 19l758 1386q12 21 31 21h242q21 0 24 -21l236 -1380q0 -33 -29 -33h-219q-11 0 -15 4.5t-6 15.5zM709 1110l-267 -494h340zM416 1765q134 103 260 103q54 0 93 -12.5t57.5 -27.5t48 -27.5t65.5 -12.5
q58 0 147 59q12 4 15 4q8 0 18 -16l68 -129q4 -12 4 -14q0 -10 -10 -17q-59 -45 -128 -73.5t-132 -28.5q-54 0 -93 12.5t-58 27.5t-48.5 27.5t-65.5 12.5q-56 0 -147 -60q-12 -4 -14 -4q-9 0 -19 17l-67 129q-4 12 -4 14q0 9 10 16z" />
    <glyph glyph-name="Adieresis" unicode="&#xc4;" horiz-adv-x="1255" 
d="M815 379h-502l-192 -359q-9 -20 -29 -20h-231q-11 0 -16 8t1 19l758 1386q12 21 31 21h242q21 0 24 -21l236 -1380q0 -33 -29 -33h-219q-11 0 -15 4.5t-6 15.5zM709 1110l-267 -494h340zM479 1597l43 222q3 20 25 20h221q16 0 16 -20l-43 -222q-3 -20 -24 -20h-221
q-17 0 -17 20zM844 1597l43 222q3 20 24 20h222q16 0 16 -20l-43 -222q-3 -20 -25 -20h-221q-16 0 -16 20z" />
    <glyph glyph-name="Aring" unicode="&#xc5;" horiz-adv-x="1255" 
d="M815 379h-502l-192 -359q-9 -20 -29 -20h-231q-11 0 -16 8t1 19l758 1386q12 21 31 21h242q21 0 24 -21l236 -1380q0 -33 -29 -33h-219q-11 0 -15 4.5t-6 15.5zM709 1110l-267 -494h340zM606 1655q0 100 70 162.5t170 62.5q87 0 138.5 -46t51.5 -130q0 -100 -69.5 -162.5
t-169.5 -62.5q-87 0 -139 46t-52 130zM831 1749q-39 0 -61 -21.5t-22 -62.5q0 -24 16.5 -39.5t46.5 -15.5q39 0 61.5 21.5t22.5 62.5q0 24 -17 39.5t-47 15.5z" />
    <glyph glyph-name="AE" unicode="&#xc6;" horiz-adv-x="1732" 
d="M981 635l-78 -397h664q16 0 16 -21l-39 -197q-3 -20 -24 -20h-910q-16 0 -16 20l70 357h-338l-209 -357q-11 -20 -35 -20h-232q-14 0 -14 12q0 6 2 8l821 1393q12 21 29 21h1081q17 0 17 -21l-39 -196q-3 -21 -25 -21h-632l-64 -324h571q17 0 17 -20l-37 -197
q-3 -20 -25 -20h-571zM801 1196l-338 -582h248l112 582h-22z" />
    <glyph glyph-name="Ccedilla" unicode="&#xc7;" horiz-adv-x="1413" 
d="M485 -238l-36 43q-7 7 -7 13q0 2 7 16l71 154q-209 30 -340 181t-131 396q0 136 34 266t102.5 242.5t163 197.5t224.5 134t279 49q270 0 418.5 -135.5t148.5 -378.5q-6 -20 -26 -20h-207q-21 0 -21 20q-25 277 -334 277q-153 0 -270.5 -86.5t-177 -226t-59.5 -306.5
q0 -188 91 -284.5t238 -96.5q141 0 243.5 65t172.5 212q11 20 29 20h211q22 0 22 -20q-74 -236 -244 -366.5t-415 -147.5l-58 -89q58 15 99 15q166 0 166 -135q0 -100 -74.5 -148.5t-198.5 -48.5q-150 0 -217 20q-18 6 -18 21l18 90q3 21 25 21q3 0 60 -13.5t128 -13.5
q17 0 32.5 2.5t31.5 13.5t16 29q0 33 -43 33q-51 0 -125 -19q-4 -2 -12 -2q-11 0 -17 6z" />
    <glyph glyph-name="Egrave" unicode="&#xc8;" horiz-adv-x="1165" 
d="M418 635l-78 -397h659q17 0 17 -21l-39 -197q-3 -20 -25 -20h-905q-16 0 -16 20l272 1393q3 21 25 21h874q17 0 17 -21l-39 -196q-3 -21 -25 -21h-629l-63 -324h567q17 0 17 -20l-37 -197q-3 -20 -25 -20h-567zM840 1819l90 -258q9 -21 -15 -21h-178q-21 0 -32 19
l-162 260q-5 7 -0.5 13.5t14.5 6.5h256q18 0 27 -20z" />
    <glyph glyph-name="Eacute" unicode="&#xc9;" horiz-adv-x="1165" 
d="M418 635l-78 -397h659q17 0 17 -21l-39 -197q-3 -20 -25 -20h-905q-16 0 -16 20l272 1393q3 21 25 21h874q17 0 17 -21l-39 -196q-3 -21 -25 -21h-629l-63 -324h567q17 0 17 -20l-37 -197q-3 -20 -25 -20h-567zM580 1561l190 258q14 20 35 20h262q10 0 12 -6.5t-6 -13.5
l-262 -260q-19 -19 -41 -19h-184q-8 0 -10 7t4 14z" />
    <glyph glyph-name="Ecircumflex" unicode="&#xca;" horiz-adv-x="1165" 
d="M418 635l-78 -397h659q17 0 17 -21l-39 -197q-3 -20 -25 -20h-905q-16 0 -16 20l272 1393q3 21 25 21h874q17 0 17 -21l-39 -196q-3 -21 -25 -21h-629l-63 -324h567q17 0 17 -20l-37 -197q-3 -20 -25 -20h-567zM942 1823l170 -291q5 -8 0.5 -14.5t-14.5 -6.5h-189
q-18 0 -32 19l-78 96l-119 -96q-19 -19 -41 -19h-197q-10 0 -12 6.5t6 14.5l277 291q19 16 35 16h167q17 0 27 -16z" />
    <glyph glyph-name="Edieresis" unicode="&#xcb;" horiz-adv-x="1165" 
d="M418 635l-78 -397h659q17 0 17 -21l-39 -197q-3 -20 -25 -20h-905q-16 0 -16 20l272 1393q3 21 25 21h874q17 0 17 -21l-39 -196q-3 -21 -25 -21h-629l-63 -324h567q17 0 17 -20l-37 -197q-3 -20 -25 -20h-567zM481 1597l43 222q3 20 25 20h221q16 0 16 -20l-43 -222
q-3 -20 -24 -20h-221q-17 0 -17 20zM846 1597l43 222q3 20 24 20h222q16 0 16 -20l-43 -222q-3 -20 -25 -20h-221q-16 0 -16 20z" />
    <glyph glyph-name="Igrave" unicode="&#xcc;" horiz-adv-x="567" 
d="M16 20l271 1393q3 21 24 21h226q16 0 16 -21l-272 -1393q-3 -20 -25 -20h-225q-15 0 -15 20zM475 1819l90 -258q9 -21 -14 -21h-178q-22 0 -33 19l-162 260q-5 8 0 14t15 6h256q17 0 26 -20z" />
    <glyph glyph-name="Iacute" unicode="&#xcd;" horiz-adv-x="567" 
d="M16 20l271 1393q3 21 24 21h226q16 0 16 -21l-272 -1393q-3 -20 -25 -20h-225q-15 0 -15 20zM326 1561l190 258q14 20 35 20h262q10 0 12 -6.5t-6 -13.5l-262 -260q-19 -19 -41 -19h-184q-8 0 -10 7t4 14z" />
    <glyph glyph-name="Icircumflex" unicode="&#xce;" horiz-adv-x="567" 
d="M16 20l271 1393q3 21 24 21h226q16 0 16 -21l-272 -1393q-3 -20 -25 -20h-225q-15 0 -15 20zM606 1823l170 -291q5 -8 0.5 -14.5t-14.5 -6.5h-189q-18 0 -32 19l-78 96l-119 -96q-19 -19 -41 -19h-197q-10 0 -12 6.5t6 14.5l277 291q19 16 35 16h168q16 0 26 -16z" />
    <glyph glyph-name="Idieresis" unicode="&#xcf;" horiz-adv-x="567" 
d="M16 20l271 1393q3 21 24 21h226q16 0 16 -21l-272 -1393q-3 -20 -25 -20h-225q-15 0 -15 20zM137 1597l43 222q3 20 25 20h221q16 0 16 -20l-43 -222q-3 -20 -24 -20h-221q-17 0 -17 20zM502 1597l43 222q3 20 24 20h222q16 0 16 -20l-43 -222q-3 -20 -25 -20h-221
q-16 0 -16 20z" />
    <glyph glyph-name="Eth" unicode="&#xd0;" horiz-adv-x="1413" 
d="M63 20l113 578h-145q-17 0 -17 20l39 197q3 21 25 21h143l115 577q3 21 24 21h420q127 0 230 -35t180 -105t119.5 -182.5t42.5 -259.5q0 -143 -34.5 -271t-104.5 -234.5t-171 -183.5t-240.5 -120t-305.5 -43h-416q-17 0 -17 20zM729 1196h-170l-72 -360h271q16 0 16 -21
l-39 -197q-3 -20 -24 -20h-269l-69 -360h168q124 0 226.5 48.5t169.5 130.5t103.5 188.5t36.5 223.5q0 184 -91 275.5t-257 91.5z" />
    <glyph glyph-name="Ntilde" unicode="&#xd1;" horiz-adv-x="1468" 
d="M1141 0h-230q-18 0 -28 16l-394 971l-188 -967q-3 -20 -25 -20h-229q-16 0 -16 20l272 1393q3 21 25 21h229q19 0 29 -17l393 -971l188 967q3 21 25 21h229q17 0 17 -21l-273 -1393q-3 -20 -24 -20zM516 1765q134 103 260 103q54 0 93 -12.5t57.5 -27.5t48 -27.5
t65.5 -12.5q59 0 148 59q12 4 14 4q9 0 19 -16l67 -129q4 -12 4 -14q0 -10 -10 -17q-59 -45 -128 -73.5t-132 -28.5q-54 0 -93 12.5t-57.5 27.5t-48 27.5t-65.5 12.5q-57 0 -148 -60q-12 -4 -14 -4q-8 0 -18 17l-68 129q-4 12 -4 14q0 9 10 16z" />
    <glyph glyph-name="Ograve" unicode="&#xd2;" horiz-adv-x="1538" 
d="M659 -20q-133 0 -244.5 38.5t-194.5 112.5t-130 191t-47 266q0 172 59.5 329t166 276t265.5 190t347 71q133 0 244.5 -38.5t194.5 -112.5t130 -191t47 -266q0 -172 -60 -329t-166.5 -276t-265.5 -190t-346 -71zM674 217q119 0 223 51.5t174.5 136t111 193.5t40.5 223
q0 195 -99.5 295.5t-257.5 100.5q-119 0 -223 -51.5t-174.5 -136.5t-111 -194t-40.5 -223q0 -195 99.5 -295t257.5 -100zM961 1819l90 -258q9 -21 -15 -21h-178q-22 0 -33 19l-161 260q-5 7 -0.5 13.5t14.5 6.5h256q18 0 27 -20z" />
    <glyph glyph-name="Oacute" unicode="&#xd3;" horiz-adv-x="1538" 
d="M659 -20q-133 0 -244.5 38.5t-194.5 112.5t-130 191t-47 266q0 172 59.5 329t166 276t265.5 190t347 71q133 0 244.5 -38.5t194.5 -112.5t130 -191t47 -266q0 -172 -60 -329t-166.5 -276t-265.5 -190t-346 -71zM674 217q119 0 223 51.5t174.5 136t111 193.5t40.5 223
q0 195 -99.5 295.5t-257.5 100.5q-119 0 -223 -51.5t-174.5 -136.5t-111 -194t-40.5 -223q0 -195 99.5 -295t257.5 -100zM741 1561l191 258q14 20 35 20h262q10 0 12 -6.5t-6 -13.5l-262 -260q-19 -19 -41 -19h-184q-8 0 -10.5 7t3.5 14z" />
    <glyph glyph-name="Ocircumflex" unicode="&#xd4;" horiz-adv-x="1538" 
d="M659 -20q-133 0 -244.5 38.5t-194.5 112.5t-130 191t-47 266q0 172 59.5 329t166 276t265.5 190t347 71q133 0 244.5 -38.5t194.5 -112.5t130 -191t47 -266q0 -172 -60 -329t-166.5 -276t-265.5 -190t-346 -71zM674 217q119 0 223 51.5t174.5 136t111 193.5t40.5 223
q0 195 -99.5 295.5t-257.5 100.5q-119 0 -223 -51.5t-174.5 -136.5t-111 -194t-40.5 -223q0 -195 99.5 -295t257.5 -100zM1059 1823l170 -291q5 -8 0 -14.5t-15 -6.5h-188q-19 0 -33 19l-78 96l-118 -96q-19 -19 -41 -19h-197q-10 0 -12 6.5t6 14.5l276 291q19 16 35 16h168
q17 0 27 -16z" />
    <glyph glyph-name="Otilde" unicode="&#xd5;" horiz-adv-x="1538" 
d="M659 -20q-133 0 -244.5 38.5t-194.5 112.5t-130 191t-47 266q0 172 59.5 329t166 276t265.5 190t347 71q133 0 244.5 -38.5t194.5 -112.5t130 -191t47 -266q0 -172 -60 -329t-166.5 -276t-265.5 -190t-346 -71zM674 217q119 0 223 51.5t174.5 136t111 193.5t40.5 223
q0 195 -99.5 295.5t-257.5 100.5q-119 0 -223 -51.5t-174.5 -136.5t-111 -194t-40.5 -223q0 -195 99.5 -295t257.5 -100zM580 1765q134 103 260 103q54 0 93 -12.5t57.5 -27.5t48 -27.5t65.5 -12.5q58 0 147 59q12 4 15 4q8 0 18 -16l68 -129q4 -12 4 -14q0 -10 -10 -17
q-59 -45 -128.5 -73.5t-132.5 -28.5q-54 0 -93 12.5t-57.5 27.5t-48 27.5t-65.5 12.5q-56 0 -147 -60q-12 -4 -15 -4q-8 0 -18 17l-68 129q-4 12 -4 14q0 9 11 16z" />
    <glyph glyph-name="Odieresis" unicode="&#xd6;" horiz-adv-x="1538" 
d="M659 -20q-133 0 -244.5 38.5t-194.5 112.5t-130 191t-47 266q0 172 59.5 329t166 276t265.5 190t347 71q133 0 244.5 -38.5t194.5 -112.5t130 -191t47 -266q0 -172 -60 -329t-166.5 -276t-265.5 -190t-346 -71zM674 217q119 0 223 51.5t174.5 136t111 193.5t40.5 223
q0 195 -99.5 295.5t-257.5 100.5q-119 0 -223 -51.5t-174.5 -136.5t-111 -194t-40.5 -223q0 -195 99.5 -295t257.5 -100zM616 1597l43 222q3 20 25 20h221q17 0 17 -20l-43 -222q-3 -20 -25 -20h-221q-17 0 -17 20zM981 1597l43 222q3 20 25 20h221q16 0 16 -20l-43 -222
q-3 -20 -24 -20h-222q-16 0 -16 20z" />
    <glyph glyph-name="multiply" unicode="&#xd7;" horiz-adv-x="1009" 
d="M971 940l-289 -248l188 -237q4 -8 4 -11q0 -8 -10 -18l-153 -129q-8 -8 -15 -8q-9 0 -14 8l-193 246l-299 -256q-8 -8 -14 -8t-14 8l-125 147q-4 8 -4 12q0 7 10 17l305 254l-180 229q-6 9 -6 17t8 16l154 129q9 6 14 6q8 0 14 -6l187 -236l290 244q8 8 15 8q6 0 14 -8
l119 -147q4 -8 4 -11q0 -8 -10 -18z" />
    <glyph glyph-name="Oslash" unicode="&#xd8;" horiz-adv-x="1538" 
d="M659 -20q-184 0 -321 73l-117 -147q-9 -12 -18 -12q-5 0 -13 4l-86 63q-8 8 -8 14t6 15l115 145q-174 160 -174 453q0 172 59.5 329t166 276t265.5 190t347 71q182 0 321 -74l117 148q9 12 18 12q5 0 13 -4l86 -63q8 -8 8 -15q0 -5 -6 -14l-115 -146q174 -160 174 -452
q0 -172 -60 -329t-166.5 -276t-265.5 -190t-346 -71zM317 612q0 -164 70 -262l653 828q-74 39 -174 39q-119 0 -223 -51.5t-174.5 -136.5t-111 -194t-40.5 -223zM674 217q119 0 223 51.5t174.5 136t111 193.5t40.5 223q0 164 -70 262l-653 -827q74 -39 174 -39z" />
    <glyph glyph-name="Ugrave" unicode="&#xd9;" horiz-adv-x="1349" 
d="M102 567l166 846q3 21 25 21h225q17 0 17 -21l-168 -858q-13 -67 -13 -111q0 -227 230 -227q273 0 340 338l168 858q3 21 24 21h225q17 0 17 -21l-168 -860q-60 -300 -218.5 -436.5t-414.5 -136.5q-230 0 -349.5 114.5t-119.5 339.5q0 51 14 133zM885 1819l90 -258
q9 -21 -14 -21h-179q-21 0 -32 19l-162 260q-5 7 -0.5 13.5t14.5 6.5h256q18 0 27 -20z" />
    <glyph glyph-name="Uacute" unicode="&#xda;" horiz-adv-x="1349" 
d="M102 567l166 846q3 21 25 21h225q17 0 17 -21l-168 -858q-13 -67 -13 -111q0 -227 230 -227q273 0 340 338l168 858q3 21 24 21h225q17 0 17 -21l-168 -860q-60 -300 -218.5 -436.5t-414.5 -136.5q-230 0 -349.5 114.5t-119.5 339.5q0 51 14 133zM662 1561l190 258
q14 20 35 20h262q10 0 12 -6.5t-6 -13.5l-262 -260q-19 -19 -41 -19h-184q-8 0 -10 7t4 14z" />
    <glyph glyph-name="Ucircumflex" unicode="&#xdb;" horiz-adv-x="1349" 
d="M102 567l166 846q3 21 25 21h225q17 0 17 -21l-168 -858q-13 -67 -13 -111q0 -227 230 -227q273 0 340 338l168 858q3 21 24 21h225q17 0 17 -21l-168 -860q-60 -300 -218.5 -436.5t-414.5 -136.5q-230 0 -349.5 114.5t-119.5 339.5q0 51 14 133zM999 1823l170 -291
q5 -8 0.5 -14.5t-14.5 -6.5h-188q-19 0 -33 19l-78 96l-119 -96q-19 -19 -41 -19h-196q-10 0 -12 6.5t6 14.5l276 291q19 16 35 16h168q16 0 26 -16z" />
    <glyph glyph-name="Udieresis" unicode="&#xdc;" horiz-adv-x="1349" 
d="M102 567l166 846q3 21 25 21h225q17 0 17 -21l-168 -858q-13 -67 -13 -111q0 -227 230 -227q273 0 340 338l168 858q3 21 24 21h225q17 0 17 -21l-168 -860q-60 -300 -218.5 -436.5t-414.5 -136.5q-230 0 -349.5 114.5t-119.5 339.5q0 51 14 133zM528 1597l43 222
q3 20 25 20h221q17 0 17 -20l-43 -222q-3 -20 -25 -20h-221q-17 0 -17 20zM893 1597l43 222q3 20 25 20h221q16 0 16 -20l-43 -222q-3 -20 -25 -20h-221q-16 0 -16 20z" />
    <glyph glyph-name="Yacute" unicode="&#xdd;" horiz-adv-x="1081" 
d="M1225 1413l-609 -909l-94 -484q-3 -20 -24 -20h-222q-16 0 -16 20l94 484l-258 909q0 21 17 21h231q20 0 23 -17l165 -626l414 626q10 17 27 17h244q12 0 12 -9q0 -4 -4 -12zM496 1561l190 258q14 20 35 20h262q10 0 12 -6.5t-6 -13.5l-262 -260q-19 -19 -41 -19h-184
q-8 0 -10 7t4 14z" />
    <glyph glyph-name="Thorn" unicode="&#xde;" horiz-adv-x="1292" 
d="M514 1128h289q189 0 298 -90.5t109 -255.5q0 -229 -153 -353t-416 -124h-289l-55 -285q-3 -20 -25 -20h-225q-16 0 -16 20l272 1393q3 21 25 21h225q16 0 16 -21zM467 891l-68 -348h295q118 0 182 52t64 150q0 146 -178 146h-295z" />
    <glyph glyph-name="germandbls" unicode="&#xdf;" horiz-adv-x="1243" 
d="M713 -20q-162 0 -254 95.5t-92 229.5q0 21 2 39q3 21 24 21h180q17 0 17 -21q0 -143 143 -143q62 0 103 44t41 111q0 37 -21.5 68.5t-53 52t-69 46.5t-69 52t-53 68.5t-21.5 95.5q0 52 25.5 96t61.5 75t72 60.5t61.5 66t25.5 77.5q0 55 -36 87t-102 32q-192 0 -241 -254
l-187 -959q-3 -20 -24 -20h-213q-17 0 -17 20l156 787h-137q-17 0 -17 20l33 181q3 20 25 20h137q41 207 172.5 316.5t335.5 109.5q171 0 265.5 -89.5t94.5 -229.5q0 -72 -24 -128.5t-58.5 -90t-68.5 -59t-58 -49t-24 -46.5q0 -21 20.5 -43t51 -40.5t66.5 -47t66.5 -60.5
t51 -83t20.5 -113q0 -178 -115 -286.5t-296 -108.5z" />
    <glyph glyph-name="agrave" unicode="&#xe0;" horiz-adv-x="1239" 
d="M1161 1008l-190 -988q-3 -20 -25 -20h-217q-16 0 -16 20l8 48q-67 -48 -134.5 -68t-164.5 -20q-81 0 -151 28.5t-124.5 83.5t-86 144t-31.5 202q0 119 41 228.5t115 195t188.5 136.5t251.5 51q172 0 270 -88l8 47q3 20 25 20h217q16 0 16 -20zM512 201q139 0 230.5 112
t91.5 265q0 249 -224 249q-128 0 -217.5 -112t-89.5 -260q0 -123 54.5 -188.5t154.5 -65.5zM739 1413l90 -258q9 -20 -14 -20h-178q-23 0 -33 18l-162 260q-5 8 0 14.5t15 6.5h256q17 0 26 -21z" />
    <glyph glyph-name="aacute" unicode="&#xe1;" horiz-adv-x="1239" 
d="M1161 1008l-190 -988q-3 -20 -25 -20h-217q-16 0 -16 20l8 48q-67 -48 -134.5 -68t-164.5 -20q-81 0 -151 28.5t-124.5 83.5t-86 144t-31.5 202q0 119 41 228.5t115 195t188.5 136.5t251.5 51q172 0 270 -88l8 47q3 20 25 20h217q16 0 16 -20zM512 201q139 0 230.5 112
t91.5 265q0 249 -224 249q-128 0 -217.5 -112t-89.5 -260q0 -123 54.5 -188.5t154.5 -65.5zM457 1155l190 258q15 21 35 21h262q10 0 12 -7t-6 -14l-262 -260q-18 -18 -41 -18h-184q-8 0 -10 6.5t4 13.5z" />
    <glyph glyph-name="acircumflex" unicode="&#xe2;" horiz-adv-x="1239" 
d="M1161 1008l-190 -988q-3 -20 -25 -20h-217q-16 0 -16 20l8 48q-67 -48 -134.5 -68t-164.5 -20q-81 0 -151 28.5t-124.5 83.5t-86 144t-31.5 202q0 119 41 228.5t115 195t188.5 136.5t251.5 51q172 0 270 -88l8 47q3 20 25 20h217q16 0 16 -20zM512 201q139 0 230.5 112
t91.5 265q0 249 -224 249q-128 0 -217.5 -112t-89.5 -260q0 -123 54.5 -188.5t154.5 -65.5zM838 1417l170 -291q5 -8 0 -14t-15 -6h-188q-20 0 -33 18l-78 97l-119 -97q-18 -18 -40 -18h-197q-10 0 -12 6t6 14l276 291q20 17 35 17h168q17 0 27 -17z" />
    <glyph glyph-name="atilde" unicode="&#xe3;" horiz-adv-x="1239" 
d="M1161 1008l-190 -988q-3 -20 -25 -20h-217q-16 0 -16 20l8 48q-67 -48 -134.5 -68t-164.5 -20q-81 0 -151 28.5t-124.5 83.5t-86 144t-31.5 202q0 119 41 228.5t115 195t188.5 136.5t251.5 51q172 0 270 -88l8 47q3 20 25 20h217q16 0 16 -20zM512 201q139 0 230.5 112
t91.5 265q0 249 -224 249q-128 0 -217.5 -112t-89.5 -260q0 -123 54.5 -188.5t154.5 -65.5zM315 1360q59 45 128 73.5t132 28.5q54 0 93 -12.5t58 -27.5t48.5 -27.5t65.5 -12.5q56 0 147 60q12 4 14 4q9 0 19 -16l67 -130q1 -2 2 -5t2 -5t1 -4q0 -9 -11 -16
q-134 -103 -260 -103q-54 0 -93 12.5t-57.5 27.5t-48 27.5t-65.5 12.5q-58 0 -147 -59q-12 -4 -15 -4q-8 0 -18 16l-68 129q-4 12 -4 14q0 10 10 17z" />
    <glyph glyph-name="adieresis" unicode="&#xe4;" horiz-adv-x="1239" 
d="M1161 1008l-190 -988q-3 -20 -25 -20h-217q-16 0 -16 20l8 48q-67 -48 -134.5 -68t-164.5 -20q-81 0 -151 28.5t-124.5 83.5t-86 144t-31.5 202q0 119 41 228.5t115 195t188.5 136.5t251.5 51q172 0 270 -88l8 47q3 20 25 20h217q16 0 16 -20zM512 201q139 0 230.5 112
t91.5 265q0 249 -224 249q-128 0 -217.5 -112t-89.5 -260q0 -123 54.5 -188.5t154.5 -65.5zM385 1192l43 221q3 21 25 21h221q16 0 16 -21l-43 -221q-3 -21 -24 -21h-222q-16 0 -16 21zM750 1192l43 221q3 21 24 21h221q17 0 17 -21l-43 -221q-3 -21 -25 -21h-221
q-16 0 -16 21z" />
    <glyph glyph-name="aring" unicode="&#xe5;" horiz-adv-x="1239" 
d="M1161 1008l-190 -988q-3 -20 -25 -20h-217q-16 0 -16 20l8 48q-67 -48 -134.5 -68t-164.5 -20q-81 0 -151 28.5t-124.5 83.5t-86 144t-31.5 202q0 119 41 228.5t115 195t188.5 136.5t251.5 51q172 0 270 -88l8 47q3 20 25 20h217q16 0 16 -20zM512 201q139 0 230.5 112
t91.5 265q0 249 -224 249q-128 0 -217.5 -112t-89.5 -260q0 -123 54.5 -188.5t154.5 -65.5zM500 1249q0 100 69.5 163t169.5 63q87 0 139 -46.5t52 -130.5q0 -100 -70 -162.5t-170 -62.5q-87 0 -138.5 46t-51.5 130zM725 1343q-39 0 -61.5 -21.5t-22.5 -61.5q0 -24 17 -40
t47 -16q39 0 61 21.5t22 62.5q0 24 -16.5 39.5t-46.5 15.5z" />
    <glyph glyph-name="ae" unicode="&#xe6;" horiz-adv-x="1931" 
d="M1257 201q84 0 144 30t115 97q10 12 15.5 15t16.5 3h217q13 0 13 -14q0 -6 -9 -21q-92 -176 -218 -253.5t-318 -77.5q-274 0 -395 186q-163 -186 -430 -186q-184 0 -279.5 82.5t-95.5 232.5q0 157 124 264t328 107q159 0 281 -39l6 26q4 28 4 39q0 135 -174 135
q-122 0 -194 -96q-16 -18 -33 -18h-195q-20 0 -20 20q0 8 2 12q56 142 178.5 223t286.5 81q120 0 208.5 -40.5t137.5 -109.5q178 150 418 150q111 0 198.5 -34.5t141.5 -94t82 -136.5t28 -166q0 -62 -12 -126l-6 -35q-3 -21 -25 -21h-788q0 -106 62 -170.5t185 -64.5z
M725 416q-69 22 -122.5 31.5t-131.5 9.5q-72 0 -132 -36.5t-60 -103.5q0 -54 42 -85t115 -31q104 0 182.5 54t106.5 161zM1364 827q-89 0 -169.5 -49.5t-127.5 -136.5h530q-26 186 -233 186z" />
    <glyph glyph-name="ccedilla" unicode="&#xe7;" horiz-adv-x="1148" 
d="M330 -238l-37 43q-6 6 -6 13q0 4 6 16l76 160q-156 33 -247 147.5t-91 296.5q0 128 46 240.5t127 194t198 129t253 47.5q206 0 321.5 -106.5t115.5 -264.5q0 -29 -31 -29h-189q-11 0 -15.5 3.5t-8.5 15.5q-20 82 -75.5 120.5t-154.5 38.5q-142 0 -229.5 -107t-87.5 -265
q0 -254 223 -254q81 0 151.5 41.5t112.5 117.5q10 19 33 19h195q20 0 20 -17l-4 -16q-65 -174 -200 -267t-316 -99l-57 -89q58 15 98 15q166 0 166 -135q0 -100 -74 -148.5t-198 -48.5q-151 0 -218 20q-18 6 -18 21l18 90q3 21 25 21q3 0 60 -13.5t128 -13.5q17 0 32.5 2.5
t31.5 13.5t16 29q0 33 -43 33q-51 0 -125 -19q-4 -2 -12 -2q-10 0 -16 6z" />
    <glyph glyph-name="egrave" unicode="&#xe8;" horiz-adv-x="1196" 
d="M518 201q84 0 143.5 30t114.5 97q16 18 33 18h213q16 0 16 -12q0 -10 -8 -23q-92 -176 -218 -253.5t-318 -77.5q-215 0 -342 121t-127 343q0 120 46.5 230.5t127.5 193t199 132t253 49.5q111 0 198.5 -34.5t142 -94t82.5 -136.5t28 -166q0 -62 -12 -126l-7 -35
q-3 -21 -24 -21h-789q0 -105 62.5 -170t185.5 -65zM625 827q-89 0 -169.5 -49.5t-127.5 -136.5h530q-26 186 -233 186zM723 1413l90 -258q9 -20 -14 -20h-178q-23 0 -33 18l-162 260q-5 7 -0.5 14t14.5 7h256q18 0 27 -21z" />
    <glyph glyph-name="eacute" unicode="&#xe9;" horiz-adv-x="1196" 
d="M518 201q84 0 143.5 30t114.5 97q16 18 33 18h213q16 0 16 -12q0 -10 -8 -23q-92 -176 -218 -253.5t-318 -77.5q-215 0 -342 121t-127 343q0 120 46.5 230.5t127.5 193t199 132t253 49.5q111 0 198.5 -34.5t142 -94t82.5 -136.5t28 -166q0 -62 -12 -126l-7 -35
q-3 -21 -24 -21h-789q0 -105 62.5 -170t185.5 -65zM625 827q-89 0 -169.5 -49.5t-127.5 -136.5h530q-26 186 -233 186zM518 1155l191 258q15 21 34 21h263q10 0 12 -7t-6 -14l-262 -260q-18 -18 -41 -18h-185q-8 0 -10 6.5t4 13.5z" />
    <glyph glyph-name="ecircumflex" unicode="&#xea;" horiz-adv-x="1196" 
d="M518 201q84 0 143.5 30t114.5 97q16 18 33 18h213q16 0 16 -12q0 -10 -8 -23q-92 -176 -218 -253.5t-318 -77.5q-215 0 -342 121t-127 343q0 120 46.5 230.5t127.5 193t199 132t253 49.5q111 0 198.5 -34.5t142 -94t82.5 -136.5t28 -166q0 -62 -12 -126l-7 -35
q-3 -21 -24 -21h-789q0 -105 62.5 -170t185.5 -65zM625 827q-89 0 -169.5 -49.5t-127.5 -136.5h530q-26 186 -233 186zM862 1417l170 -291q5 -8 0.5 -14t-14.5 -6h-189q-19 0 -32 18l-78 97l-119 -97q-18 -18 -41 -18h-197q-10 0 -12 6t6 14l277 291q20 17 35 17h168
q16 0 26 -17z" />
    <glyph glyph-name="edieresis" unicode="&#xeb;" horiz-adv-x="1196" 
d="M518 201q84 0 143.5 30t114.5 97q16 18 33 18h213q16 0 16 -12q0 -10 -8 -23q-92 -176 -218 -253.5t-318 -77.5q-215 0 -342 121t-127 343q0 120 46.5 230.5t127.5 193t199 132t253 49.5q111 0 198.5 -34.5t142 -94t82.5 -136.5t28 -166q0 -62 -12 -126l-7 -35
q-3 -21 -24 -21h-789q0 -105 62.5 -170t185.5 -65zM625 827q-89 0 -169.5 -49.5t-127.5 -136.5h530q-26 186 -233 186zM393 1192l43 221q3 21 25 21h221q16 0 16 -21l-43 -221q-3 -21 -24 -21h-221q-17 0 -17 21zM758 1192l43 221q3 21 24 21h222q16 0 16 -21l-43 -221
q-3 -21 -25 -21h-221q-16 0 -16 21z" />
    <glyph glyph-name="igrave" unicode="&#xec;" horiz-adv-x="548" 
d="M20 20l191 988q3 20 25 20h213q16 0 16 -20l-193 -988q-3 -20 -28 -20h-207q-17 0 -17 20zM373 1413l90 -258q9 -20 -14 -20h-179q-22 0 -32 18l-162 260q-5 7 -0.5 14t14.5 7h256q18 0 27 -21z" />
    <glyph glyph-name="iacute" unicode="&#xed;" horiz-adv-x="548" 
d="M20 20l191 988q3 20 25 20h213q16 0 16 -20l-193 -988q-3 -20 -28 -20h-207q-17 0 -17 20zM248 1155l190 258q15 21 35 21h262q10 0 12 -7t-6 -14l-262 -260q-18 -18 -41 -18h-184q-8 0 -10 6.5t4 13.5z" />
    <glyph glyph-name="icircumflex" unicode="&#xee;" horiz-adv-x="548" 
d="M20 20l191 988q3 20 25 20h213q16 0 16 -20l-193 -988q-3 -20 -28 -20h-207q-17 0 -17 20zM528 1417l170 -291q5 -8 0.5 -14t-14.5 -6h-188q-20 0 -33 18l-78 97l-119 -97q-18 -18 -41 -18h-196q-10 0 -12 6t6 14l276 291q20 17 35 17h168q16 0 26 -17z" />
    <glyph glyph-name="idieresis" unicode="&#xef;" horiz-adv-x="548" 
d="M20 20l191 988q3 20 25 20h213q16 0 16 -20l-193 -988q-3 -20 -28 -20h-207q-17 0 -17 20zM57 1192l43 221q3 21 25 21h221q16 0 16 -21l-43 -221q-3 -21 -24 -21h-221q-17 0 -17 21zM422 1192l43 221q3 21 24 21h222q16 0 16 -21l-43 -221q-3 -21 -25 -21h-221
q-16 0 -16 21z" />
    <glyph glyph-name="eth" unicode="&#xf0;" horiz-adv-x="1222" 
d="M864 987q-18 51 -42.5 84t-65.5 66l-226 -80q-18 -9 -24 10l-47 119q-7 15 18 26l55 19q-53 14 -102 22q-16 3 -10 29l41 148q6 14 31 14q206 -23 354 -90l254 86q4 2 14 2q13 0 19 -15l45 -127q2 -4 2 -12q0 -17 -17 -20l-151 -51q110 -179 110 -472
q0 -121 -24.5 -232.5t-76 -209t-125 -169t-178.5 -113t-229 -41.5q-214 0 -333 120.5t-119 337.5q0 167 73.5 306.5t206 222t295.5 82.5q148 0 252 -62zM612 827q-94 0 -168.5 -57.5t-111.5 -143t-37 -177.5q0 -248 215 -248q89 0 164 55.5t115 141t40 177.5
q0 121 -56.5 186.5t-160.5 65.5z" />
    <glyph glyph-name="ntilde" unicode="&#xf1;" horiz-adv-x="1218" 
d="M29 20l190 988q3 20 25 20h213q16 0 16 -20l-14 -74q73 59 147 87t172 28q147 0 224 -76t77 -193q0 -45 -6 -78l-131 -682q-3 -20 -24 -20h-213q-17 0 -17 20l115 594q6 38 6 66q0 147 -137 147q-104 0 -184 -83t-115 -259l-90 -465q-3 -20 -25 -20h-213q-16 0 -16 20z
M350 1360q59 45 128 73.5t132 28.5q54 0 93 -12.5t57.5 -27.5t48 -27.5t65.5 -12.5q57 0 148 60q12 4 14 4q9 0 19 -16l67 -130q4 -12 4 -14q0 -9 -10 -16q-134 -103 -260 -103q-54 0 -93 12.5t-57.5 27.5t-48 27.5t-65.5 12.5q-59 0 -148 -59q-12 -4 -14 -4q-8 0 -18 16
l-68 129q-4 12 -4 14q0 10 10 17z" />
    <glyph glyph-name="ograve" unicode="&#xf2;" horiz-adv-x="1245" 
d="M35 428q0 129 47 243t130 197.5t204 132t262 48.5q215 0 346 -124t131 -325q0 -172 -79.5 -313t-227.5 -224t-336 -83q-215 0 -346 123.5t-131 324.5zM647 827q-148 0 -245 -113t-97 -276q0 -109 64 -173t174 -64q148 0 245 113t97 276q0 110 -64 173.5t-174 63.5z
M760 1413l90 -258q9 -20 -14 -20h-179q-22 0 -32 18l-162 260q-5 7 -0.5 14t14.5 7h256q18 0 27 -21z" />
    <glyph glyph-name="oacute" unicode="&#xf3;" horiz-adv-x="1245" 
d="M35 428q0 129 47 243t130 197.5t204 132t262 48.5q215 0 346 -124t131 -325q0 -172 -79.5 -313t-227.5 -224t-336 -83q-215 0 -346 123.5t-131 324.5zM647 827q-148 0 -245 -113t-97 -276q0 -109 64 -173t174 -64q148 0 245 113t97 276q0 110 -64 173.5t-174 63.5z
M506 1155l190 258q15 21 35 21h262q10 0 12 -7t-6 -14l-262 -260q-18 -18 -41 -18h-184q-8 0 -10 6.5t4 13.5z" />
    <glyph glyph-name="ocircumflex" unicode="&#xf4;" horiz-adv-x="1245" 
d="M35 428q0 129 47 243t130 197.5t204 132t262 48.5q215 0 346 -124t131 -325q0 -172 -79.5 -313t-227.5 -224t-336 -83q-215 0 -346 123.5t-131 324.5zM647 827q-148 0 -245 -113t-97 -276q0 -109 64 -173t174 -64q148 0 245 113t97 276q0 110 -64 173.5t-174 63.5z
M881 1417l170 -291q5 -8 0 -14t-15 -6h-188q-20 0 -33 18l-78 97l-119 -97q-18 -18 -40 -18h-197q-10 0 -12 6t6 14l276 291q20 17 35 17h168q17 0 27 -17z" />
    <glyph glyph-name="otilde" unicode="&#xf5;" horiz-adv-x="1245" 
d="M35 428q0 129 47 243t130 197.5t204 132t262 48.5q215 0 346 -124t131 -325q0 -172 -79.5 -313t-227.5 -224t-336 -83q-215 0 -346 123.5t-131 324.5zM647 827q-148 0 -245 -113t-97 -276q0 -109 64 -173t174 -64q148 0 245 113t97 276q0 110 -64 173.5t-174 63.5z
M375 1360q59 45 128 73.5t132 28.5q54 0 93 -12.5t57.5 -27.5t48 -27.5t65.5 -12.5q57 0 148 60q12 4 14 4q8 0 18 -16l68 -130q4 -12 4 -14q0 -9 -10 -16q-134 -103 -260 -103q-54 0 -93 12.5t-58 27.5t-48.5 27.5t-65.5 12.5q-58 0 -147 -59q-12 -4 -14 -4q-9 0 -19 16
l-67 129q-4 12 -4 14q0 10 10 17z" />
    <glyph glyph-name="odieresis" unicode="&#xf6;" horiz-adv-x="1245" 
d="M35 428q0 129 47 243t130 197.5t204 132t262 48.5q215 0 346 -124t131 -325q0 -172 -79.5 -313t-227.5 -224t-336 -83q-215 0 -346 123.5t-131 324.5zM647 827q-148 0 -245 -113t-97 -276q0 -109 64 -173t174 -64q148 0 245 113t97 276q0 110 -64 173.5t-174 63.5z
M406 1192l43 221q3 21 24 21h221q17 0 17 -21l-43 -221q-3 -21 -25 -21h-221q-16 0 -16 21zM770 1192l43 221q3 21 25 21h221q16 0 16 -21l-43 -221q-3 -21 -24 -21h-222q-16 0 -16 21z" />
    <glyph glyph-name="divide" unicode="&#xf7;" horiz-adv-x="1193" 
d="M424 262h221q17 0 17 -20l-44 -222q-3 -20 -24 -20h-221q-17 0 -17 20l43 222q3 20 25 20zM571 1028h222q16 0 16 -20l-43 -222q-3 -20 -25 -20h-221q-16 0 -16 20l43 222q3 20 24 20zM152 629h921q17 0 17 -21l-35 -188q-3 -21 -25 -21h-921q-17 0 -17 21l35 188
q3 21 25 21z" />
    <glyph glyph-name="oslash" unicode="&#xf8;" horiz-adv-x="1245" 
d="M35 428q0 129 47 243t130 197.5t204 132t262 48.5q115 0 213 -39l92 118q10 13 18 13q5 0 13 -4l78 -60q8 -5 8 -14q0 -5 -6 -14l-86 -111q147 -122 147 -338q0 -172 -79.5 -313t-227.5 -224t-336 -83q-117 0 -213 38l-92 -118q-10 -13 -19 -13q-4 0 -12 4l-78 60
q-8 5 -8 14q0 6 6 15l86 110q-147 122 -147 338zM885 590q0 84 -37 139l-397 -514q54 -14 92 -14q148 0 245 113t97 276zM647 827q-148 0 -245 -113t-97 -276q0 -84 37 -139l397 514q-54 14 -92 14z" />
    <glyph glyph-name="ugrave" unicode="&#xf9;" horiz-adv-x="1206" 
d="M1118 1008l-190 -988q-3 -20 -25 -20h-213q-16 0 -16 20l14 74q-73 -58 -146.5 -86t-172.5 -28q-147 0 -224 75.5t-77 192.5q0 45 6 78l131 682q3 20 24 20h213q17 0 17 -20l-115 -594q-6 -37 -6 -66q0 -147 137 -147q104 0 184 83t115 259l90 465q3 20 25 20h213
q16 0 16 -20zM760 1413l90 -258q9 -20 -14 -20h-179q-22 0 -32 18l-162 260q-5 7 -0.5 14t14.5 7h256q18 0 27 -21z" />
    <glyph glyph-name="uacute" unicode="&#xfa;" horiz-adv-x="1206" 
d="M1118 1008l-190 -988q-3 -20 -25 -20h-213q-16 0 -16 20l14 74q-73 -58 -146.5 -86t-172.5 -28q-147 0 -224 75.5t-77 192.5q0 45 6 78l131 682q3 20 24 20h213q17 0 17 -20l-115 -594q-6 -37 -6 -66q0 -147 137 -147q104 0 184 83t115 259l90 465q3 20 25 20h213
q16 0 16 -20zM498 1155l190 258q15 21 35 21h262q10 0 12 -7t-6 -14l-262 -260q-18 -18 -41 -18h-184q-8 0 -10 6.5t4 13.5z" />
    <glyph glyph-name="ucircumflex" unicode="&#xfb;" horiz-adv-x="1206" 
d="M1118 1008l-190 -988q-3 -20 -25 -20h-213q-16 0 -16 20l14 74q-73 -58 -146.5 -86t-172.5 -28q-147 0 -224 75.5t-77 192.5q0 45 6 78l131 682q3 20 24 20h213q17 0 17 -20l-115 -594q-6 -37 -6 -66q0 -147 137 -147q104 0 184 83t115 259l90 465q3 20 25 20h213
q16 0 16 -20zM846 1417l170 -291q5 -8 0 -14t-15 -6h-188q-20 0 -33 18l-78 97l-118 -97q-18 -18 -41 -18h-197q-10 0 -12 6t6 14l276 291q20 17 35 17h168q17 0 27 -17z" />
    <glyph glyph-name="udieresis" unicode="&#xfc;" horiz-adv-x="1206" 
d="M1118 1008l-190 -988q-3 -20 -25 -20h-213q-16 0 -16 20l14 74q-73 -58 -146.5 -86t-172.5 -28q-147 0 -224 75.5t-77 192.5q0 45 6 78l131 682q3 20 24 20h213q17 0 17 -20l-115 -594q-6 -37 -6 -66q0 -147 137 -147q104 0 184 83t115 259l90 465q3 20 25 20h213
q16 0 16 -20zM375 1192l43 221q3 21 24 21h222q16 0 16 -21l-43 -221q-3 -21 -25 -21h-221q-16 0 -16 21zM739 1192l43 221q3 21 25 21h221q16 0 16 -21l-43 -221q-3 -21 -24 -21h-221q-17 0 -17 21z" />
    <glyph glyph-name="yacute" unicode="&#xfd;" horiz-adv-x="1075" 
d="M96 1028h242q19 0 22 -20l115 -643l326 643q9 20 30 20h230q12 0 12 -12q0 -5 -4 -17l-577 -1099q-170 -326 -429 -326q-138 0 -200 33q-15 9 -15 33l35 180q3 20 21 20q11 0 60 -22.5t91 -22.5q71 0 124.5 54t117.5 186l-217 960q-2 6 -2 17q0 16 18 16zM449 1155
l190 258q15 21 35 21h262q10 0 12 -7t-6 -14l-262 -260q-18 -18 -41 -18h-184q-8 0 -10 6.5t4 13.5z" />
    <glyph glyph-name="thorn" unicode="&#xfe;" horiz-adv-x="1267" 
d="M-45 -385l346 1798q3 21 25 21h213q16 0 16 -21l-90 -457q134 93 299 93q185 0 286 -116t101 -329q0 -120 -37 -230t-106.5 -199t-180.5 -142t-247 -53q-85 0 -160 28t-125 76l-86 -469q-3 -21 -25 -21h-213q-16 0 -16 21zM672 827q-140 0 -227 -105.5t-87 -275.5
q0 -115 59 -180t163 -65q86 0 155 53.5t105.5 137.5t36.5 179q0 127 -49 191.5t-156 64.5z" />
    <glyph glyph-name="ydieresis" unicode="&#xff;" horiz-adv-x="1075" 
d="M96 1028h242q19 0 22 -20l115 -643l326 643q9 20 30 20h230q12 0 12 -12q0 -5 -4 -17l-577 -1099q-170 -326 -429 -326q-138 0 -200 33q-15 9 -15 33l35 180q3 20 21 20q11 0 60 -22.5t91 -22.5q71 0 124.5 54t117.5 186l-217 960q-2 6 -2 17q0 16 18 16zM311 1192
l43 221q3 21 25 21h221q16 0 16 -21l-43 -221q-3 -21 -24 -21h-221q-17 0 -17 21zM676 1192l43 221q3 21 24 21h222q16 0 16 -21l-43 -221q-3 -21 -25 -21h-221q-16 0 -16 21z" />
    <glyph glyph-name="Amacron" unicode="&#x100;" horiz-adv-x="1255" 
d="M815 379h-502l-192 -359q-9 -20 -29 -20h-231q-11 0 -16 8t1 19l758 1386q12 21 31 21h242q21 0 24 -21l236 -1380q0 -33 -29 -33h-219q-11 0 -15 4.5t-6 15.5zM709 1110l-267 -494h340zM551 1606l35 184q3 20 24 20h443q16 0 16 -20l-35 -184q-3 -21 -24 -21h-443
q-16 0 -16 21z" />
    <glyph glyph-name="amacron" unicode="&#x101;" horiz-adv-x="1239" 
d="M1161 1008l-190 -988q-3 -20 -25 -20h-217q-16 0 -16 20l8 48q-67 -48 -134.5 -68t-164.5 -20q-81 0 -151 28.5t-124.5 83.5t-86 144t-31.5 202q0 119 41 228.5t115 195t188.5 136.5t251.5 51q172 0 270 -88l8 47q3 20 25 20h217q16 0 16 -20zM512 201q139 0 230.5 112
t91.5 265q0 249 -224 249q-128 0 -217.5 -112t-89.5 -260q0 -123 54.5 -188.5t154.5 -65.5zM438 1200l35 184q3 21 25 21h442q16 0 16 -21l-34 -184q-3 -20 -25 -20h-442q-17 0 -17 20z" />
    <glyph glyph-name="Abreve" unicode="&#x102;" horiz-adv-x="1255" 
d="M815 379h-502l-192 -359q-9 -20 -29 -20h-231q-11 0 -16 8t1 19l758 1386q12 21 31 21h242q21 0 24 -21l236 -1380q0 -33 -29 -33h-219q-11 0 -15 4.5t-6 15.5zM709 1110l-267 -494h340zM588 1831h160q16 0 16 -21q0 -1 -2 -12.5t-2 -25.5q0 -66 63 -66q78 0 97 104
q3 21 24 21h160q16 0 16 -21q-53 -280 -321 -280q-110 0 -176 59t-66 162q0 29 6 59q3 21 25 21z" />
    <glyph glyph-name="abreve" unicode="&#x103;" horiz-adv-x="1239" 
d="M1161 1008l-190 -988q-3 -20 -25 -20h-217q-16 0 -16 20l8 48q-67 -48 -134.5 -68t-164.5 -20q-81 0 -151 28.5t-124.5 83.5t-86 144t-31.5 202q0 119 41 228.5t115 195t188.5 136.5t251.5 51q172 0 270 -88l8 47q3 20 25 20h217q16 0 16 -20zM512 201q139 0 230.5 112
t91.5 265q0 249 -224 249q-128 0 -217.5 -112t-89.5 -260q0 -123 54.5 -188.5t154.5 -65.5zM471 1425h160q16 0 16 -20q0 -1 -2 -13t-2 -26q0 -66 64 -66q77 0 96 105q3 20 24 20h160q17 0 17 -20q-53 -281 -322 -281q-110 0 -176 59.5t-66 162.5q0 29 6 59q3 20 25 20z" />
    <glyph glyph-name="Aogonek" unicode="&#x104;" horiz-adv-x="1255" 
d="M815 379h-502l-192 -359q-9 -20 -29 -20h-231q-11 0 -16 8t1 19l758 1386q12 21 31 21h242q21 0 24 -21l236 -1380q0 -27 -19 -33q-44 -15 -75 -48t-31 -79q0 -59 71 -59h39q19 0 19 -21l-25 -131q-6 -20 -24 -20h-111q-215 0 -215 168q0 109 106 178zM709 1110
l-267 -494h340z" />
    <glyph glyph-name="aogonek" unicode="&#x105;" horiz-adv-x="1239" 
d="M1161 1008l-190 -988q-3 -16 -15 -20q-44 -15 -75 -48t-31 -79q0 -59 72 -59h39q18 0 18 -21l-25 -131q-6 -20 -24 -20h-111q-215 0 -215 168q0 96 103 170l14 88q-67 -48 -134.5 -68t-164.5 -20q-81 0 -151 28.5t-124.5 83.5t-86 144t-31.5 202q0 119 41 228.5t115 195
t188.5 136.5t251.5 51q172 0 270 -88l8 47q3 20 25 20h217q16 0 16 -20zM512 201q139 0 230.5 112t91.5 265q0 249 -224 249q-84 0 -156 -55t-111.5 -140.5t-39.5 -176.5q0 -123 54.5 -188.5t154.5 -65.5z" />
    <glyph glyph-name="Cacute" unicode="&#x106;" horiz-adv-x="1413" 
d="M1098 514h211q22 0 22 -20q-79 -251 -264 -382.5t-451 -131.5q-160 0 -287.5 67t-203.5 201.5t-76 316.5q0 136 34 266t102.5 242.5t163 197.5t224.5 134t279 49q270 0 418.5 -135.5t148.5 -378.5q-6 -20 -26 -20h-207q-21 0 -21 20q-25 277 -334 277
q-153 0 -270.5 -86.5t-177 -226t-59.5 -306.5q0 -188 91 -284.5t238 -96.5q141 0 243.5 65t172.5 212q11 20 29 20zM725 1561l190 258q14 20 35 20h262q10 0 12.5 -6.5t-5.5 -13.5l-263 -260q-19 -19 -41 -19h-184q-8 0 -10 7t4 14z" />
    <glyph glyph-name="cacute" unicode="&#x107;" horiz-adv-x="1148" 
d="M618 827q-142 0 -229.5 -107t-87.5 -265q0 -254 223 -254q81 0 151.5 41.5t112.5 117.5q10 19 33 19h195q20 0 20 -17l-4 -16q-66 -180 -205.5 -273t-328.5 -93q-209 0 -338 120.5t-129 337.5q0 128 46 240.5t127 194t198 129t253 47.5q206 0 321.5 -106.5t115.5 -264.5
q0 -29 -31 -29h-189q-11 0 -15.5 3.5t-8.5 15.5q-20 82 -75.5 120.5t-154.5 38.5zM518 1155l191 258q15 21 34 21h263q10 0 12 -7t-6 -14l-262 -260q-18 -18 -41 -18h-185q-8 0 -10 6.5t4 13.5z" />
    <glyph glyph-name="Ccircumflex" unicode="&#x108;" horiz-adv-x="1413" 
d="M1098 514h211q22 0 22 -20q-79 -251 -264 -382.5t-451 -131.5q-160 0 -287.5 67t-203.5 201.5t-76 316.5q0 136 34 266t102.5 242.5t163 197.5t224.5 134t279 49q270 0 418.5 -135.5t148.5 -378.5q-6 -20 -26 -20h-207q-21 0 -21 20q-25 277 -334 277
q-153 0 -270.5 -86.5t-177 -226t-59.5 -306.5q0 -188 91 -284.5t238 -96.5q141 0 243.5 65t172.5 212q11 20 29 20zM1077 1823l170 -291q5 -8 0.5 -14.5t-14.5 -6.5h-189q-18 0 -32 19l-78 96l-119 -96q-19 -19 -41 -19h-196q-10 0 -12.5 6.5t5.5 14.5l277 291q19 16 35 16
h168q16 0 26 -16z" />
    <glyph glyph-name="ccircumflex" unicode="&#x109;" horiz-adv-x="1148" 
d="M618 827q-142 0 -229.5 -107t-87.5 -265q0 -254 223 -254q81 0 151.5 41.5t112.5 117.5q10 19 33 19h195q20 0 20 -17l-4 -16q-66 -180 -205.5 -273t-328.5 -93q-209 0 -338 120.5t-129 337.5q0 128 46 240.5t127 194t198 129t253 47.5q206 0 321.5 -106.5t115.5 -264.5
q0 -29 -31 -29h-189q-11 0 -15.5 3.5t-8.5 15.5q-20 82 -75.5 120.5t-154.5 38.5zM862 1417l170 -291q5 -8 0.5 -14t-14.5 -6h-189q-19 0 -32 18l-78 97l-119 -97q-18 -18 -41 -18h-197q-10 0 -12 6t6 14l277 291q20 17 35 17h168q16 0 26 -17z" />
    <glyph glyph-name="Cdotaccent" unicode="&#x10a;" horiz-adv-x="1413" 
d="M1098 514h211q22 0 22 -20q-79 -251 -264 -382.5t-451 -131.5q-160 0 -287.5 67t-203.5 201.5t-76 316.5q0 136 34 266t102.5 242.5t163 197.5t224.5 134t279 49q270 0 418.5 -135.5t148.5 -378.5q-6 -20 -26 -20h-207q-21 0 -21 20q-25 277 -334 277
q-153 0 -270.5 -86.5t-177 -226t-59.5 -306.5q0 -188 91 -284.5t238 -96.5q141 0 243.5 65t172.5 212q11 20 29 20zM748 1585l47 234q3 20 24 20h242q16 0 16 -20l-47 -234q-3 -20 -24 -20h-242q-16 0 -16 20z" />
    <glyph glyph-name="cdotaccent" unicode="&#x10b;" horiz-adv-x="1148" 
d="M618 827q-142 0 -229.5 -107t-87.5 -265q0 -254 223 -254q81 0 151.5 41.5t112.5 117.5q10 19 33 19h195q20 0 20 -17l-4 -16q-66 -180 -205.5 -273t-328.5 -93q-209 0 -338 120.5t-129 337.5q0 128 46 240.5t127 194t198 129t253 47.5q206 0 321.5 -106.5t115.5 -264.5
q0 -29 -31 -29h-189q-11 0 -15.5 3.5t-8.5 15.5q-20 82 -75.5 120.5t-154.5 38.5zM535 1180l47 233q3 21 24 21h242q16 0 16 -21l-47 -233q-3 -21 -24 -21h-242q-16 0 -16 21z" />
    <glyph glyph-name="Ccaron" unicode="&#x10c;" horiz-adv-x="1413" 
d="M1098 514h211q22 0 22 -20q-79 -251 -264 -382.5t-451 -131.5q-160 0 -287.5 67t-203.5 201.5t-76 316.5q0 136 34 266t102.5 242.5t163 197.5t224.5 134t279 49q270 0 418.5 -135.5t148.5 -378.5q-6 -20 -26 -20h-207q-21 0 -21 20q-25 277 -334 277
q-153 0 -270.5 -86.5t-177 -226t-59.5 -306.5q0 -188 91 -284.5t238 -96.5q141 0 243.5 65t172.5 212q11 20 29 20zM791 1528l-170 291q-5 7 -0.5 13.5t14.5 6.5h188q20 0 33 -18l78 -97l119 97q21 18 41 18h196q10 0 12 -6.5t-6 -13.5l-276 -291q-20 -17 -35 -17h-168
q-16 0 -26 17z" />
    <glyph glyph-name="ccaron" unicode="&#x10d;" horiz-adv-x="1148" 
d="M618 827q-142 0 -229.5 -107t-87.5 -265q0 -254 223 -254q81 0 151.5 41.5t112.5 117.5q10 19 33 19h195q20 0 20 -17l-4 -16q-66 -180 -205.5 -273t-328.5 -93q-209 0 -338 120.5t-129 337.5q0 128 46 240.5t127 194t198 129t253 47.5q206 0 321.5 -106.5t115.5 -264.5
q0 -29 -31 -29h-189q-11 0 -15.5 3.5t-8.5 15.5q-20 82 -75.5 120.5t-154.5 38.5zM567 1122l-170 291q-5 8 0 14.5t15 6.5h188q19 0 33 -19l78 -96l118 96q22 19 41 19h197q10 0 12 -7t-6 -14l-276 -291q-19 -16 -35 -16h-168q-17 0 -27 16z" />
    <glyph glyph-name="Dcaron" unicode="&#x10e;" horiz-adv-x="1376" 
d="M31 20l272 1393q3 21 25 21h420q126 0 229.5 -36t180 -106.5t119 -182.5t42.5 -257q0 -143 -34.5 -271t-104.5 -234.5t-171 -183.5t-240.5 -120t-305.5 -43h-416q-16 0 -16 20zM696 1196h-170l-186 -958h168q124 0 226.5 48.5t169.5 130.5t103.5 188.5t36.5 223.5
q0 184 -91 275.5t-257 91.5zM594 1528l-170 291q-5 7 -0.5 13.5t14.5 6.5h189q19 0 32 -18l78 -97l119 97q21 18 41 18h197q10 0 12 -6.5t-6 -13.5l-277 -291q-20 -17 -35 -17h-167q-17 0 -27 17z" />
    <glyph glyph-name="dcaron" unicode="&#x10f;" horiz-adv-x="1529" 
d="M1235 1413l-272 -1393q-3 -20 -25 -20h-213q-16 0 -16 20l12 64q-135 -104 -291 -104q-178 0 -287.5 117.5t-109.5 332.5q0 163 70 304t199.5 228t289.5 87q108 0 174 -24t123 -79l92 467q3 21 25 21h213q16 0 16 -21zM825 582q0 114 -53 179.5t-158 65.5
q-93 0 -165.5 -54t-109 -139t-36.5 -185q0 -118 55 -183t160 -65q94 0 165.5 54.5t106.5 140.5t35 186zM1303 1065q67 0 95.5 23t39.5 79l2 13h-101q-16 0 -16 20l41 213q3 21 25 21h233q16 0 16 -21l-51 -262q-40 -209 -239 -209h-70q-16 0 -16 21l16 81q3 21 25 21z" />
    <glyph glyph-name="Dcroat" unicode="&#x110;" horiz-adv-x="1413" 
d="M63 20l113 578h-145q-17 0 -17 20l39 197q3 21 25 21h143l115 577q3 21 24 21h420q127 0 230 -35t180 -105t119.5 -182.5t42.5 -259.5q0 -143 -34.5 -271t-104.5 -234.5t-171 -183.5t-240.5 -120t-305.5 -43h-416q-17 0 -17 20zM729 1196h-170l-72 -360h271q16 0 16 -21
l-39 -197q-3 -20 -24 -20h-269l-69 -360h168q124 0 226.5 48.5t169.5 130.5t103.5 188.5t36.5 223.5q0 184 -91 275.5t-257 91.5z" />
    <glyph glyph-name="dcroat" unicode="&#x111;" horiz-adv-x="1247" 
d="M1176 1108l-213 -1088q-3 -20 -25 -20h-213q-16 0 -16 20l12 64q-135 -104 -291 -104q-178 0 -287.5 117.5t-109.5 332.5q0 163 70 304t199.5 228t289.5 87q108 0 174 -24t123 -79l33 162h-232q-16 0 -16 20l26 144q3 20 25 20h231l25 121q3 21 25 21h213q16 0 16 -21
l-25 -121h101q16 0 16 -20l-27 -144q-3 -20 -24 -20h-100zM825 582q0 114 -53 179.5t-158 65.5q-93 0 -165.5 -54t-109 -139t-36.5 -185q0 -118 55 -183t160 -65q94 0 165.5 54.5t106.5 140.5t35 186z" />
    <glyph glyph-name="Emacron" unicode="&#x112;" horiz-adv-x="1165" 
d="M418 635l-78 -397h659q17 0 17 -21l-39 -197q-3 -20 -25 -20h-905q-16 0 -16 20l272 1393q3 21 25 21h874q17 0 17 -21l-39 -196q-3 -21 -25 -21h-629l-63 -324h567q17 0 17 -20l-37 -197q-3 -20 -25 -20h-567zM551 1606l35 184q3 20 24 20h443q16 0 16 -20l-35 -184
q-3 -21 -24 -21h-443q-16 0 -16 21z" />
    <glyph glyph-name="emacron" unicode="&#x113;" horiz-adv-x="1196" 
d="M518 201q84 0 143.5 30t114.5 97q16 18 33 18h213q16 0 16 -12q0 -10 -8 -23q-92 -176 -218 -253.5t-318 -77.5q-215 0 -342 121t-127 343q0 120 46.5 230.5t127.5 193t199 132t253 49.5q111 0 198.5 -34.5t142 -94t82.5 -136.5t28 -166q0 -62 -12 -126l-7 -35
q-3 -21 -24 -21h-789q0 -105 62.5 -170t185.5 -65zM625 827q-89 0 -169.5 -49.5t-127.5 -136.5h530q-26 186 -233 186zM449 1200l34 184q3 21 25 21h442q17 0 17 -21l-35 -184q-3 -20 -25 -20h-442q-16 0 -16 20z" />
    <glyph glyph-name="Ebreve" unicode="&#x114;" horiz-adv-x="1165" 
d="M418 635l-78 -397h659q17 0 17 -21l-39 -197q-3 -20 -25 -20h-905q-16 0 -16 20l272 1393q3 21 25 21h874q17 0 17 -21l-39 -196q-3 -21 -25 -21h-629l-63 -324h567q17 0 17 -20l-37 -197q-3 -20 -25 -20h-567zM569 1831h160q16 0 16 -21q0 -1 -2 -12.5t-2 -25.5
q0 -66 64 -66q77 0 96 104q3 21 25 21h159q17 0 17 -21q-53 -280 -322 -280q-110 0 -175.5 59t-65.5 162q0 29 6 59q3 21 24 21z" />
    <glyph glyph-name="ebreve" unicode="&#x115;" horiz-adv-x="1196" 
d="M518 201q84 0 143.5 30t114.5 97q16 18 33 18h213q16 0 16 -12q0 -10 -8 -23q-92 -176 -218 -253.5t-318 -77.5q-215 0 -342 121t-127 343q0 120 46.5 230.5t127.5 193t199 132t253 49.5q111 0 198.5 -34.5t142 -94t82.5 -136.5t28 -166q0 -62 -12 -126l-7 -35
q-3 -21 -24 -21h-789q0 -105 62.5 -170t185.5 -65zM625 827q-89 0 -169.5 -49.5t-127.5 -136.5h530q-26 186 -233 186zM475 1425h160q16 0 16 -20q0 -1 -2 -13t-2 -26q0 -66 64 -66q77 0 96 105q3 20 24 20h160q17 0 17 -20q-53 -281 -322 -281q-110 0 -176 59.5t-66 162.5
q0 24 7 59q3 20 24 20z" />
    <glyph glyph-name="Edotaccent" unicode="&#x116;" horiz-adv-x="1165" 
d="M418 635l-78 -397h659q17 0 17 -21l-39 -197q-3 -20 -25 -20h-905q-16 0 -16 20l272 1393q3 21 25 21h874q17 0 17 -21l-39 -196q-3 -21 -25 -21h-629l-63 -324h567q17 0 17 -20l-37 -197q-3 -20 -25 -20h-567zM618 1585l48 234q3 20 24 20h242q16 0 16 -20l-47 -234
q-3 -20 -24 -20h-242q-17 0 -17 20z" />
    <glyph glyph-name="edotaccent" unicode="&#x117;" horiz-adv-x="1196" 
d="M518 201q84 0 143.5 30t114.5 97q16 18 33 18h213q16 0 16 -12q0 -10 -8 -23q-92 -176 -218 -253.5t-318 -77.5q-215 0 -342 121t-127 343q0 120 46.5 230.5t127.5 193t199 132t253 49.5q111 0 198.5 -34.5t142 -94t82.5 -136.5t28 -166q0 -62 -12 -126l-7 -35
q-3 -21 -24 -21h-789q0 -105 62.5 -170t185.5 -65zM625 827q-89 0 -169.5 -49.5t-127.5 -136.5h530q-26 186 -233 186zM541 1180l47 233q3 21 24 21h242q16 0 16 -21l-47 -233q-3 -21 -24 -21h-242q-16 0 -16 21z" />
    <glyph glyph-name="Eogonek" unicode="&#x118;" horiz-adv-x="1165" 
d="M418 635l-78 -397h659q17 0 17 -21l-39 -197q-3 -17 -19 -20q-42 -13 -72 -47t-30 -80q0 -59 72 -59h39q18 0 18 -21l-24 -131q-6 -20 -25 -20h-111q-215 0 -215 168q0 59 35.5 108.5t93.5 81.5h-692q-16 0 -16 20l272 1393q3 21 25 21h874q17 0 17 -21l-39 -196
q-3 -21 -25 -21h-629l-63 -324h567q17 0 17 -20l-37 -197q-3 -20 -25 -20h-567z" />
    <glyph glyph-name="eogonek" unicode="&#x119;" horiz-adv-x="1196" 
d="M518 201q84 0 143.5 30t114.5 97q16 18 33 18h213q16 0 16 -12q0 -10 -8 -23q-66 -125 -151 -196.5t-207 -114.5q-42 -14 -73.5 -47.5t-31.5 -79.5q0 -59 72 -59h39q18 0 18 -21l-24 -131q-6 -20 -25 -20h-110q-215 0 -215 168q0 103 102 174q-187 19 -293 137t-106 323
q0 120 46.5 230.5t127.5 193t199 132t253 49.5q111 0 198.5 -34.5t142 -94t82.5 -136.5t28 -166q0 -62 -12 -126l-7 -35q-3 -21 -24 -21h-789q0 -105 62.5 -170t185.5 -65zM625 827q-89 0 -169.5 -49.5t-127.5 -136.5h530q-26 186 -233 186z" />
    <glyph glyph-name="Ecaron" unicode="&#x11a;" horiz-adv-x="1165" 
d="M418 635l-78 -397h659q17 0 17 -21l-39 -197q-3 -20 -25 -20h-905q-16 0 -16 20l272 1393q3 21 25 21h874q17 0 17 -21l-39 -196q-3 -21 -25 -21h-629l-63 -324h567q17 0 17 -20l-37 -197q-3 -20 -25 -20h-567zM670 1528l-170 291q-5 7 -0.5 13.5t14.5 6.5h188
q20 0 33 -18l78 -97l119 97q21 18 41 18h196q10 0 12.5 -6.5t-5.5 -13.5l-277 -291q-20 -17 -35 -17h-168q-16 0 -26 17z" />
    <glyph glyph-name="ecaron" unicode="&#x11b;" horiz-adv-x="1196" 
d="M518 201q84 0 143.5 30t114.5 97q16 18 33 18h213q16 0 16 -12q0 -10 -8 -23q-92 -176 -218 -253.5t-318 -77.5q-215 0 -342 121t-127 343q0 120 46.5 230.5t127.5 193t199 132t253 49.5q111 0 198.5 -34.5t142 -94t82.5 -136.5t28 -166q0 -62 -12 -126l-7 -35
q-3 -21 -24 -21h-789q0 -105 62.5 -170t185.5 -65zM625 827q-89 0 -169.5 -49.5t-127.5 -136.5h530q-26 186 -233 186zM582 1122l-170 291q-5 7 -0.5 14t14.5 7h188q19 0 33 -19l78 -96l119 96q22 19 41 19h196q10 0 12 -7t-6 -14l-276 -291q-19 -16 -35 -16h-168
q-16 0 -26 16z" />
    <glyph glyph-name="Gcircumflex" unicode="&#x11c;" horiz-adv-x="1474" 
d="M758 752h616q17 0 17 -21l-72 -366q-9 -44 -35 -78q-117 -153 -277 -230t-352 -77q-132 0 -239.5 35.5t-188 107.5t-124.5 188.5t-44 270.5q0 130 34.5 256.5t104 237.5t165.5 195.5t228 133.5t283 49q251 0 399 -122t148 -337q-6 -20 -26 -20h-215q-18 0 -21 20
q-18 114 -99.5 168t-209.5 54q-115 0 -214.5 -56t-164 -145t-101 -197t-36.5 -215q0 -193 89 -290t257 -97q113 0 214.5 44t174.5 132l23 121h-381q-17 0 -17 21l39 196q3 21 25 21zM1051 1823l170 -291q5 -8 0 -14.5t-15 -6.5h-188q-19 0 -33 19l-78 96l-119 -96
q-19 -19 -40 -19h-197q-10 0 -12 6.5t6 14.5l276 291q19 16 35 16h168q17 0 27 -16z" />
    <glyph glyph-name="gcircumflex" unicode="&#x11d;" horiz-adv-x="1247" 
d="M416 -426q-201 0 -304.5 94.5t-103.5 257.5q0 21 25 21h203q19 0 22 -21q10 -71 55 -101t133 -30q236 0 287 271l8 36q-71 -53 -134.5 -75.5t-137.5 -22.5q-191 0 -301.5 111t-110.5 323q0 120 40 230t113 195t185 135.5t246 50.5q171 0 264 -103l13 62q3 20 24 20h213
q16 0 16 -20l-176 -906q-28 -149 -79 -252t-125.5 -163.5t-165 -86.5t-209.5 -26zM539 225q137 0 223 108t86 267q0 108 -52.5 167.5t-154.5 59.5q-136 0 -224.5 -111t-88.5 -267q0 -103 53 -163.5t158 -60.5zM836 1417l170 -291q5 -8 0 -14t-15 -6h-188q-20 0 -33 18
l-78 97l-119 -97q-18 -18 -41 -18h-196q-10 0 -12 6t6 14l276 291q20 17 35 17h168q17 0 27 -17z" />
    <glyph glyph-name="Gbreve" unicode="&#x11e;" horiz-adv-x="1474" 
d="M758 752h616q17 0 17 -21l-72 -366q-9 -44 -35 -78q-117 -153 -277 -230t-352 -77q-132 0 -239.5 35.5t-188 107.5t-124.5 188.5t-44 270.5q0 130 34.5 256.5t104 237.5t165.5 195.5t228 133.5t283 49q251 0 399 -122t148 -337q-6 -20 -26 -20h-215q-18 0 -21 20
q-18 114 -99.5 168t-209.5 54q-115 0 -214.5 -56t-164 -145t-101 -197t-36.5 -215q0 -193 89 -290t257 -97q113 0 214.5 44t174.5 132l23 121h-381q-17 0 -17 21l39 196q3 21 25 21zM717 1831h160q16 0 16 -21q0 -1 -2 -12.5t-2 -25.5q0 -66 63 -66q78 0 97 104q3 21 24 21
h160q16 0 16 -21q-53 -280 -321 -280q-110 0 -176 59t-66 162q0 29 6 59q3 21 25 21z" />
    <glyph glyph-name="gbreve" unicode="&#x11f;" horiz-adv-x="1247" 
d="M416 -426q-201 0 -304.5 94.5t-103.5 257.5q0 21 25 21h203q19 0 22 -21q10 -71 55 -101t133 -30q236 0 287 271l8 36q-71 -53 -134.5 -75.5t-137.5 -22.5q-191 0 -301.5 111t-110.5 323q0 120 40 230t113 195t185 135.5t246 50.5q171 0 264 -103l13 62q3 20 24 20h213
q16 0 16 -20l-176 -906q-28 -149 -79 -252t-125.5 -163.5t-165 -86.5t-209.5 -26zM539 225q137 0 223 108t86 267q0 108 -52.5 167.5t-154.5 59.5q-136 0 -224.5 -111t-88.5 -267q0 -103 53 -163.5t158 -60.5zM496 1425h159q17 0 17 -20q0 -1 -2 -13t-2 -26q0 -66 63 -66
q77 0 96 105q3 20 25 20h160q16 0 16 -20q-53 -281 -321 -281q-110 0 -176 59.5t-66 162.5q0 29 6 59q3 20 25 20z" />
    <glyph glyph-name="Gdotaccent" unicode="&#x120;" horiz-adv-x="1474" 
d="M758 752h616q17 0 17 -21l-72 -366q-9 -44 -35 -78q-117 -153 -277 -230t-352 -77q-132 0 -239.5 35.5t-188 107.5t-124.5 188.5t-44 270.5q0 130 34.5 256.5t104 237.5t165.5 195.5t228 133.5t283 49q251 0 399 -122t148 -337q-6 -20 -26 -20h-215q-18 0 -21 20
q-18 114 -99.5 168t-209.5 54q-115 0 -214.5 -56t-164 -145t-101 -197t-36.5 -215q0 -193 89 -290t257 -97q113 0 214.5 44t174.5 132l23 121h-381q-17 0 -17 21l39 196q3 21 25 21zM791 1585l47 234q3 20 24 20h242q16 0 16 -20l-47 -234q-3 -20 -24 -20h-242q-16 0 -16 20
z" />
    <glyph glyph-name="gdotaccent" unicode="&#x121;" horiz-adv-x="1247" 
d="M416 -426q-201 0 -304.5 94.5t-103.5 257.5q0 21 25 21h203q19 0 22 -21q10 -71 55 -101t133 -30q236 0 287 271l8 36q-71 -53 -134.5 -75.5t-137.5 -22.5q-191 0 -301.5 111t-110.5 323q0 120 40 230t113 195t185 135.5t246 50.5q171 0 264 -103l13 62q3 20 24 20h213
q16 0 16 -20l-176 -906q-28 -149 -79 -252t-125.5 -163.5t-165 -86.5t-209.5 -26zM539 225q137 0 223 108t86 267q0 108 -52.5 167.5t-154.5 59.5q-136 0 -224.5 -111t-88.5 -267q0 -103 53 -163.5t158 -60.5zM563 1180l47 233q3 21 25 21h242q16 0 16 -21l-47 -233
q-3 -21 -25 -21h-241q-17 0 -17 21z" />
    <glyph glyph-name="Gcommaaccent" unicode="&#x122;" horiz-adv-x="1474" 
d="M758 752h616q17 0 17 -21l-72 -366q-9 -44 -35 -78q-117 -153 -277 -230t-352 -77q-132 0 -239.5 35.5t-188 107.5t-124.5 188.5t-44 270.5q0 130 34.5 256.5t104 237.5t165.5 195.5t228 133.5t283 49q251 0 399 -122t148 -337q-6 -20 -26 -20h-215q-18 0 -21 20
q-18 114 -99.5 168t-209.5 54q-115 0 -214.5 -56t-164 -145t-101 -197t-36.5 -215q0 -193 89 -290t257 -97q113 0 214.5 44t174.5 132l23 121h-381q-17 0 -17 21l39 196q3 21 25 21zM451 -455q52 0 75.5 20t34.5 66l4 25h-102q-17 0 -17 20l43 222q3 20 25 20h221
q17 0 17 -20l-54 -281q-19 -101 -71.5 -150t-145.5 -49h-55q-16 0 -16 21l16 86q3 20 25 20z" />
    <glyph glyph-name="gcommaaccent" unicode="&#x123;" horiz-adv-x="1247" 
d="M416 -426q-201 0 -304.5 94.5t-103.5 257.5q0 21 25 21h203q19 0 22 -21q10 -71 55 -101t133 -30q236 0 287 271l8 36q-71 -53 -134.5 -75.5t-137.5 -22.5q-191 0 -301.5 111t-110.5 323q0 120 40 230t113 195t185 135.5t246 50.5q171 0 264 -103l13 62q3 20 24 20h213
q16 0 16 -20l-176 -906q-28 -149 -79 -252t-125.5 -163.5t-165 -86.5t-209.5 -26zM539 225q137 0 223 108t86 267q0 108 -52.5 167.5t-154.5 59.5q-136 0 -224.5 -111t-88.5 -267q0 -103 53 -163.5t158 -60.5zM870 1456q-67 0 -95.5 -23t-39.5 -79l-2 -13h101q16 0 16 -20
l-41 -213q-3 -21 -25 -21h-233q-16 0 -16 21l51 262q40 209 239 209h70q16 0 16 -20l-16 -82q-3 -21 -25 -21z" />
    <glyph glyph-name="Hcircumflex" unicode="&#x124;" horiz-adv-x="1435" 
d="M406 629l-119 -609q-3 -20 -25 -20h-225q-17 0 -17 20l273 1393q3 21 24 21h226q16 0 16 -21l-106 -547h585l107 547q3 21 24 21h226q16 0 16 -21l-272 -1393q-3 -20 -25 -20h-225q-17 0 -17 20l119 609h-585zM1038 1823l170 -291q5 -8 0.5 -14.5t-14.5 -6.5h-188
q-19 0 -33 19l-78 96l-119 -96q-19 -19 -41 -19h-196q-10 0 -12.5 6.5t5.5 14.5l277 291q19 16 35 16h168q16 0 26 -16z" />
    <glyph glyph-name="hcircumflex" unicode="&#x125;" horiz-adv-x="1243" 
d="M33 20l270 1393q3 21 25 21h213q16 0 16 -21l-92 -471q139 107 332 107q141 0 226 -73t85 -194q0 -46 -12 -108l-127 -654q-3 -20 -25 -20h-213q-16 0 -16 20l116 598q7 31 7 74q0 64 -39.5 99.5t-118.5 35.5q-108 0 -189.5 -88.5t-115.5 -257.5l-90 -461q-3 -20 -25 -20
h-213q-10 0 -12 4t-2 16zM844 1823l170 -291q5 -8 0 -14.5t-15 -6.5h-188q-19 0 -33 19l-78 96l-118 -96q-19 -19 -41 -19h-197q-10 0 -12 6.5t6 14.5l276 291q19 16 35 16h168q17 0 27 -16z" />
    <glyph glyph-name="Hbar" unicode="&#x126;" horiz-adv-x="1435" 
d="M406 629l-119 -609q-3 -20 -25 -20h-225q-17 0 -17 20l193 990h-125q-16 0 -16 20l37 180q3 21 22 21h125l37 182q3 21 24 21h226q16 0 16 -21l-37 -182h586l37 182q3 21 24 21h226q16 0 16 -21l-37 -182h125q19 0 19 -21l-37 -180q-3 -20 -25 -20h-125l-192 -990
q-3 -20 -25 -20h-225q-17 0 -17 20l119 609h-585zM453 866h585l27 144h-586z" />
    <glyph glyph-name="hbar" unicode="&#x127;" horiz-adv-x="1243" 
d="M33 20l209 1076h-133q-17 0 -17 20l33 168q6 21 25 21h131l22 108q3 21 25 21h213q16 0 16 -21l-22 -108h215q16 0 16 -21l-33 -168q-3 -20 -24 -20h-213l-31 -154q139 107 332 107q141 0 226 -73t85 -194q0 -46 -12 -108l-127 -654q-3 -20 -25 -20h-213q-16 0 -16 20
l116 598q7 31 7 74q0 64 -39.5 99.5t-118.5 35.5q-108 0 -189.5 -88.5t-115.5 -257.5l-90 -461q-3 -20 -25 -20h-213q-10 0 -12 4t-2 16z" />
    <glyph glyph-name="Itilde" unicode="&#x128;" horiz-adv-x="567" 
d="M16 20l271 1393q3 21 24 21h226q16 0 16 -21l-272 -1393q-3 -20 -25 -20h-225q-15 0 -15 20zM82 1765q134 103 260 103q54 0 93 -12.5t57.5 -27.5t48 -27.5t65.5 -12.5q59 0 148 59q12 4 14 4q8 0 18 -16l68 -129q4 -12 4 -14q0 -10 -10 -17q-59 -45 -128 -73.5
t-132 -28.5q-54 0 -93 12.5t-57.5 27.5t-48 27.5t-65.5 12.5q-57 0 -148 -60q-12 -4 -14 -4q-9 0 -19 17l-67 129q-4 12 -4 14q0 9 10 16z" />
    <glyph glyph-name="itilde" unicode="&#x129;" horiz-adv-x="548" 
d="M20 20l191 988q3 20 25 20h213q16 0 16 -20l-193 -988q-3 -20 -28 -20h-207q-17 0 -17 20zM12 1360q59 45 128 73.5t132 28.5q54 0 93 -12.5t58 -27.5t48.5 -27.5t65.5 -12.5q56 0 147 60q12 4 14 4q9 0 19 -16l67 -130q4 -12 4 -14q0 -9 -10 -16q-134 -103 -260 -103
q-54 0 -93 12.5t-57.5 27.5t-48 27.5t-65.5 12.5q-59 0 -148 -59q-12 -4 -14 -4q-8 0 -18 16l-68 129q-4 12 -4 14q0 10 10 17z" />
    <glyph glyph-name="uni012A" unicode="&#x12a;" horiz-adv-x="567" 
d="M16 20l271 1393q3 21 24 21h226q16 0 16 -21l-272 -1393q-3 -20 -25 -20h-225q-15 0 -15 20zM201 1606l35 184q3 20 24 20h442q17 0 17 -20l-35 -184q-3 -21 -25 -21h-442q-16 0 -16 21z" />
    <glyph glyph-name="imacron" unicode="&#x12b;" horiz-adv-x="548" 
d="M20 20l191 988q3 20 25 20h213q16 0 16 -20l-193 -988q-3 -20 -28 -20h-207q-17 0 -17 20zM123 1200l35 184q3 21 24 21h443q16 0 16 -21l-35 -184q-3 -20 -24 -20h-443q-16 0 -16 20z" />
    <glyph glyph-name="Ibreve" unicode="&#x12c;" horiz-adv-x="567" 
d="M16 20l271 1393q3 21 24 21h226q16 0 16 -21l-272 -1393q-3 -20 -25 -20h-225q-15 0 -15 20zM236 1831h159q17 0 17 -21q0 -1 -2 -12.5t-2 -25.5q0 -66 63 -66q77 0 96 104q3 21 25 21h160q16 0 16 -21q-53 -280 -322 -280q-110 0 -175.5 59t-65.5 162q0 29 6 59
q3 21 25 21z" />
    <glyph glyph-name="uni012D" unicode="&#x12d;" horiz-adv-x="548" 
d="M20 20l191 988q3 20 25 20h213q16 0 16 -20l-193 -988q-3 -20 -28 -20h-207q-17 0 -17 20zM152 1425h159q17 0 17 -20q0 -1 -2 -13t-2 -26q0 -66 63 -66q77 0 96 105q3 20 25 20h160q16 0 16 -20q-53 -281 -322 -281q-110 0 -175.5 59.5t-65.5 162.5q0 29 6 59
q3 20 25 20z" />
    <glyph glyph-name="Iogonek" unicode="&#x12e;" horiz-adv-x="567" 
d="M553 1413l-272 -1393q-3 -17 -19 -20q-42 -13 -73 -47t-31 -80q0 -59 71 -59h39q19 0 19 -21l-25 -131q-6 -20 -24 -20h-111q-215 0 -215 168q0 97 98 170l277 1433q3 21 24 21h226q16 0 16 -21z" />
    <glyph glyph-name="iogonek" unicode="&#x12f;" horiz-adv-x="548" 
d="M12 -14l199 1022q3 20 25 20h213q16 0 16 -20l-193 -988q-3 -14 -18 -20q-107 -48 -107 -127q0 -59 72 -59h39q18 0 18 -21l-24 -131q-6 -20 -25 -20h-110q-215 0 -215 168q0 104 110 176zM229 1180l47 233q3 21 25 21h242q16 0 16 -21l-47 -233q-3 -21 -25 -21h-241
q-17 0 -17 21z" />
    <glyph glyph-name="Idotaccent" unicode="&#x130;" horiz-adv-x="567" 
d="M16 20l271 1393q3 21 24 21h226q16 0 16 -21l-272 -1393q-3 -20 -25 -20h-225q-15 0 -15 20zM307 1585l47 234q3 20 25 20h242q16 0 16 -20l-47 -234q-3 -20 -25 -20h-241q-17 0 -17 20z" />
    <glyph glyph-name="dotlessi" unicode="&#x131;" horiz-adv-x="548" 
d="M20 20l191 988q3 20 25 20h213q16 0 16 -20l-193 -988q-3 -20 -28 -20h-207q-17 0 -17 20z" />
    <glyph glyph-name="IJ" unicode="&#x132;" horiz-adv-x="1693" 
d="M16 20l271 1393q3 21 24 21h226q16 0 16 -21l-272 -1393q-3 -20 -25 -20h-225q-15 0 -15 20zM1679 1413l-166 -854q-30 -160 -83 -272.5t-128.5 -179.5t-167 -97t-208.5 -30q-197 0 -307.5 105.5t-110.5 274.5q0 51 10 105q4 13 8 16.5t15 3.5h221q18 0 18 -20
q0 -2 -3 -29.5t-3 -40.5q0 -178 176 -178q122 0 190.5 80t104.5 260l168 856q3 21 25 21h225q16 0 16 -21z" />
    <glyph glyph-name="ij" unicode="&#x133;" horiz-adv-x="1099" 
d="M20 20l191 988q3 20 25 20h213q16 0 16 -20l-193 -988q-3 -20 -28 -20h-207q-17 0 -17 20zM229 1180l47 233q3 21 25 21h242q16 0 16 -21l-47 -233q-3 -21 -25 -21h-241q-17 0 -17 21zM557 -47l203 1055q3 20 24 20h213q17 0 17 -20l-205 -1063q-22 -122 -54.5 -200
t-80.5 -157q-8 -14 -17 -14q-5 0 -20 6l-195 70q-12 3 -12 12l4 12q9 17 37.5 65t39 68t25 61t21.5 85zM780 1180l45 233q3 21 25 21h242q16 0 16 -21l-45 -233q-3 -21 -25 -21h-241q-17 0 -17 21z" />
    <glyph glyph-name="Jcircumflex" unicode="&#x134;" horiz-adv-x="1161" 
d="M1147 1413l-166 -854q-30 -160 -83 -272.5t-128.5 -179.5t-167.5 -97t-209 -30q-197 0 -307.5 105.5t-110.5 274.5q0 46 11 105q5 14 8.5 17t13.5 3h221q19 0 19 -20q0 -2 -3 -29.5t-3 -40.5q0 -178 176 -178q122 0 190.5 80t104.5 260l168 856q3 21 24 21h225
q17 0 17 -21zM1198 1823l170 -291q5 -8 0.5 -14.5t-14.5 -6.5h-189q-18 0 -32 19l-78 96l-119 -96q-19 -19 -41 -19h-197q-10 0 -12 6.5t6 14.5l277 291q19 16 35 16h167q17 0 27 -16z" />
    <glyph glyph-name="jcircumflex" unicode="&#x135;" horiz-adv-x="548" 
d="M522 1417l170 -291q5 -8 0.5 -14t-14.5 -6h-189q-19 0 -32 18l-78 97l-119 -97q-18 -18 -41 -18h-196q-10 0 -12.5 6t5.5 14l277 291q20 17 35 17h168q16 0 26 -17zM6 -47l203 1055q3 20 24 20h213q17 0 17 -20l-205 -1063q-22 -122 -54.5 -200t-80.5 -157
q-8 -14 -17 -14q-5 0 -20 6l-195 70q-12 3 -12 12l4 12q9 17 37.5 65t39 68t25 61t21.5 85z" />
    <glyph glyph-name="Kcommaaccent" unicode="&#x136;" horiz-adv-x="1282" 
d="M565 1413l-98 -498l543 498q21 21 43 21h280q12 0 14 -9t-8 -20l-573 -528l381 -848q2 -2 2 -11q0 -18 -23 -18h-247q-12 0 -18.5 6.5t-12.5 24.5l-293 663l-158 -139l-104 -535q-3 -20 -25 -20h-225q-16 0 -16 20l272 1393q3 21 25 21h225q16 0 16 -21zM373 -455
q52 0 75.5 20t34.5 66l4 25h-102q-16 0 -16 20l43 222q3 20 24 20h221q17 0 17 -20l-53 -281q-19 -101 -72 -150t-146 -49h-55q-16 0 -16 21l16 86q3 20 25 20z" />
    <glyph glyph-name="kcommaaccent" unicode="&#x137;" horiz-adv-x="1116" 
d="M1108 997l-424 -352l277 -614q2 -4 2 -15q0 -16 -21 -16h-229q-20 0 -29 18l-207 471l-115 -92l-75 -377q-3 -20 -25 -20h-213q-10 0 -12 4t-2 16l270 1393q3 21 25 21h213q19 0 16 -21l-137 -702l377 299q24 18 47 18h260q14 0 14 -12q0 -10 -12 -19zM295 -455
q52 0 76 20t35 66l4 25h-103q-16 0 -16 20l43 222q3 20 24 20h222q16 0 16 -20l-53 -281q-19 -101 -71.5 -150t-145.5 -49h-56q-16 0 -16 21l16 86q3 20 25 20z" />
    <glyph glyph-name="kgreenlandic" unicode="&#x138;" horiz-adv-x="1116" 
d="M1108 997l-424 -352l277 -614q2 -4 2 -15q0 -16 -23 -16h-227q-20 0 -29 18l-207 471l-115 -92l-75 -377q-3 -20 -25 -20h-213q-10 0 -12 4t-2 16l192 988q3 20 25 20h213q16 0 16 -20l-59 -297l377 299q25 18 37 18h270q14 0 14 -14q0 -8 -12 -17z" />
    <glyph glyph-name="Lacute" unicode="&#x139;" horiz-adv-x="1122" 
d="M31 20l272 1393q3 21 25 21h225q16 0 16 -21l-229 -1175h694q17 0 17 -21l-39 -197q-3 -20 -25 -20h-940q-16 0 -16 20zM334 1561l190 258q14 20 35 20h262q10 0 12 -6.5t-6 -13.5l-262 -260q-19 -19 -41 -19h-184q-8 0 -10 7t4 14z" />
    <glyph glyph-name="lacute" unicode="&#x13a;" horiz-adv-x="550" 
d="M23 20l270 1393q3 21 24 21h213q17 0 17 -21l-273 -1393q-3 -20 -24 -20h-213q-14 0 -14 20zM336 1561l190 258q14 20 35 20h262q10 0 12 -6.5t-6 -13.5l-262 -260q-19 -19 -41 -19h-184q-8 0 -10 7t4 14z" />
    <glyph glyph-name="Lcommaaccent" unicode="&#x13b;" horiz-adv-x="1122" 
d="M31 20l272 1393q3 21 25 21h225q16 0 16 -21l-229 -1175h694q17 0 17 -21l-39 -197q-3 -20 -25 -20h-940q-16 0 -16 20zM346 -455q52 0 76 20t35 66l4 25h-103q-16 0 -16 20l43 222q3 20 25 20h221q16 0 16 -20l-53 -281q-19 -101 -71.5 -150t-145.5 -49h-55
q-17 0 -17 21l17 86q3 20 24 20z" />
    <glyph glyph-name="lcommaaccent" unicode="&#x13c;" horiz-adv-x="550" 
d="M23 20l270 1393q3 21 24 21h213q17 0 17 -21l-273 -1393q-3 -20 -24 -20h-213q-14 0 -14 20zM-45 -455q52 0 76 20t35 66l4 25h-103q-16 0 -16 20l43 222q3 20 24 20h222q16 0 16 -20l-53 -281q-19 -101 -71.5 -150t-145.5 -49h-56q-16 0 -16 21l16 86q3 20 25 20z" />
    <glyph glyph-name="Lcaron" unicode="&#x13d;" horiz-adv-x="1122" 
d="M31 20l272 1393q3 21 25 21h225q16 0 16 -21l-229 -1175h694q17 0 17 -21l-39 -197q-3 -20 -25 -20h-940q-16 0 -16 20zM741 1065q67 0 96 23t40 79l2 13h-101q-16 0 -16 20l41 213q3 21 24 21h234q16 0 16 -21l-51 -262q-40 -209 -240 -209h-69q-17 0 -17 21l17 81
q3 21 24 21z" />
    <glyph glyph-name="lcaron" unicode="&#x13e;" horiz-adv-x="874" 
d="M23 20l270 1393q3 21 24 21h213q17 0 17 -21l-273 -1393q-3 -20 -24 -20h-213q-14 0 -14 20zM621 1065q67 0 95.5 23t39.5 79l2 13h-101q-16 0 -16 20l41 213q3 21 25 21h233q16 0 16 -21l-51 -262q-40 -209 -239 -209h-70q-16 0 -16 21l16 81q3 21 25 21z" />
    <glyph glyph-name="Ldot" unicode="&#x13f;" horiz-adv-x="1122" 
d="M31 20l272 1393q3 21 25 21h225q16 0 16 -21l-229 -1175h694q17 0 17 -21l-39 -197q-3 -20 -25 -20h-940q-16 0 -16 20zM670 877h221q16 0 16 -21l-41 -221q-3 -21 -24 -21h-221q-17 0 -17 21l41 221q3 21 25 21z" />
    <glyph glyph-name="ldot" unicode="&#x140;" horiz-adv-x="831" 
d="M23 20l270 1393q3 21 24 21h213q17 0 17 -21l-273 -1393q-3 -20 -24 -20h-213q-14 0 -14 20zM573 877h222q16 0 16 -21l-41 -221q-3 -21 -25 -21h-221q-16 0 -16 21l41 221q3 21 24 21z" />
    <glyph glyph-name="Lslash" unicode="&#x141;" horiz-adv-x="1161" 
d="M98 20l84 429l-90 -43q-3 -3 -10 -3q-11 0 -14 13l-76 149q-2 2 -2 8q0 15 14 21l227 108l140 711q3 21 24 21h226q16 0 16 -21l-111 -569l258 125q2 2 11 2q11 0 14 -13l76 -149q2 -2 2 -8q0 -15 -15 -21l-397 -190l-67 -352h677q17 0 17 -21l-39 -197q-3 -20 -25 -20
h-923q-17 0 -17 20z" />
    <glyph glyph-name="lslash" unicode="&#x142;" horiz-adv-x="724" 
d="M94 20l94 484l-127 -60q-2 -2 -10 -2q-11 0 -14 13l-76 149q-2 2 -2 8q0 15 14 21l265 125l127 655q3 21 24 21h213q19 0 16 -21l-102 -522l148 72q2 2 10 2q11 0 14 -13l76 -149q2 -2 2 -8q0 -15 -14 -21l-285 -137l-121 -617q-3 -20 -24 -20h-213q-18 0 -15 20z" />
    <glyph glyph-name="Nacute" unicode="&#x143;" horiz-adv-x="1468" 
d="M1141 0h-230q-18 0 -28 16l-394 971l-188 -967q-3 -20 -25 -20h-229q-16 0 -16 20l272 1393q3 21 25 21h229q19 0 29 -17l393 -971l188 967q3 21 25 21h229q17 0 17 -21l-273 -1393q-3 -20 -24 -20zM743 1561l191 258q14 20 35 20h262q10 0 12 -6.5t-6 -13.5l-262 -260
q-19 -19 -41 -19h-184q-8 0 -10.5 7t3.5 14z" />
    <glyph glyph-name="nacute" unicode="&#x144;" horiz-adv-x="1218" 
d="M29 20l190 988q3 20 25 20h213q16 0 16 -20l-14 -74q73 59 147 87t172 28q147 0 224 -76t77 -193q0 -45 -6 -78l-131 -682q-3 -20 -24 -20h-213q-17 0 -17 20l115 594q6 38 6 66q0 147 -137 147q-104 0 -184 -83t-115 -259l-90 -465q-3 -20 -25 -20h-213q-16 0 -16 20z
M559 1155l191 258q15 21 34 21h263q10 0 12 -7t-6 -14l-262 -260q-18 -18 -41 -18h-185q-8 0 -10 6.5t4 13.5z" />
    <glyph glyph-name="Ncommaaccent" unicode="&#x145;" horiz-adv-x="1468" 
d="M1141 0h-230q-18 0 -28 16l-394 971l-188 -967q-3 -20 -25 -20h-229q-16 0 -16 20l272 1393q3 21 25 21h229q19 0 29 -17l393 -971l188 967q3 21 25 21h229q17 0 17 -21l-273 -1393q-3 -20 -24 -20zM424 -455q52 0 76 20t35 66l4 25h-103q-16 0 -16 20l43 222q3 20 24 20
h222q16 0 16 -20l-53 -281q-19 -101 -71.5 -150t-145.5 -49h-56q-16 0 -16 21l16 86q3 20 25 20z" />
    <glyph glyph-name="ncommaaccent" unicode="&#x146;" horiz-adv-x="1218" 
d="M29 20l190 988q3 20 25 20h213q16 0 16 -20l-14 -74q73 59 147 87t172 28q147 0 224 -76t77 -193q0 -45 -6 -78l-131 -682q-3 -20 -24 -20h-213q-17 0 -17 20l115 594q6 38 6 66q0 147 -137 147q-104 0 -184 -83t-115 -259l-90 -465q-3 -20 -25 -20h-213q-16 0 -16 20z
M301 -455q52 0 76 20t35 66l4 25h-103q-16 0 -16 20l43 222q3 20 25 20h221q16 0 16 -20l-53 -281q-19 -101 -71.5 -150t-145.5 -49h-56q-16 0 -16 21l16 86q3 20 25 20z" />
    <glyph glyph-name="Ncaron" unicode="&#x147;" horiz-adv-x="1468" 
d="M1141 0h-230q-18 0 -28 16l-394 971l-188 -967q-3 -20 -25 -20h-229q-16 0 -16 20l272 1393q3 21 25 21h229q19 0 29 -17l393 -971l188 967q3 21 25 21h229q17 0 17 -21l-273 -1393q-3 -20 -24 -20zM748 1528l-170 291q-5 7 -0.5 13.5t14.5 6.5h188q20 0 33 -18l78 -97
l119 97q21 18 41 18h196q10 0 12 -6.5t-6 -13.5l-276 -291q-20 -17 -35 -17h-168q-16 0 -26 17z" />
    <glyph glyph-name="ncaron" unicode="&#x148;" horiz-adv-x="1218" 
d="M29 20l190 988q3 20 25 20h213q16 0 16 -20l-14 -74q73 59 147 87t172 28q147 0 224 -76t77 -193q0 -45 -6 -78l-131 -682q-3 -20 -24 -20h-213q-17 0 -17 20l115 594q6 38 6 66q0 147 -137 147q-104 0 -184 -83t-115 -259l-90 -465q-3 -20 -25 -20h-213q-16 0 -16 20z
M584 1122l-170 291q-5 7 -0.5 14t14.5 7h188q19 0 33 -19l78 -96l119 96q22 19 41 19h196q10 0 12.5 -7t-5.5 -14l-277 -291q-19 -16 -35 -16h-168q-16 0 -26 16z" />
    <glyph glyph-name="napostrophe" unicode="&#x149;" horiz-adv-x="1390" 
d="M201 20l190 988q3 20 25 20h213q16 0 16 -20l-14 -74q73 59 147 87t172 28q147 0 224 -76t77 -193q0 -45 -6 -78l-131 -682q-3 -20 -24 -20h-213q-17 0 -17 20l115 594q6 38 6 66q0 147 -137 147q-104 0 -184 -83t-115 -259l-90 -465q-3 -20 -25 -20h-213q-16 0 -16 20z
M80 1126q67 0 95.5 23.5t39.5 79.5l2 12h-100q-17 0 -17 21l41 213q3 20 25 20h233q17 0 17 -20l-51 -263q-40 -208 -240 -208h-70q-16 0 -16 20l16 82q3 20 25 20z" />
    <glyph glyph-name="Eng" unicode="&#x14a;" horiz-adv-x="1468" 
d="M555 -426q-16 0 -16 20l39 197q3 21 24 21q141 0 204 42t83 146l-404 975l-184 -955q-6 -20 -25 -20h-229q-16 0 -16 20l270 1393q3 21 25 21h223q19 0 29 -17l401 -966l188 962q3 21 25 21h229q17 0 17 -21l-273 -1401q-18 -89 -43 -155t-62 -115.5t-83 -81.5t-110 -51
t-138.5 -27t-173.5 -8z" />
    <glyph glyph-name="eng" unicode="&#x14b;" horiz-adv-x="1218" 
d="M676 -47l127 661q6 38 6 66q0 147 -137 147q-104 0 -184 -83t-115 -259l-90 -465q-3 -20 -25 -20h-213q-16 0 -16 20l190 988q3 20 25 20h213q16 0 16 -20l-14 -74q73 59 147 87t172 28q147 0 224 -74t77 -195q0 -43 -6 -78l-145 -757q-22 -122 -54.5 -200t-80.5 -157
q-8 -14 -17 -14q-5 0 -20 6l-195 70q-12 3 -12 12l4 12q9 17 37.5 65t39 68t25 61t21.5 85z" />
    <glyph glyph-name="Omacron" unicode="&#x14c;" horiz-adv-x="1538" 
d="M659 -20q-133 0 -244.5 38.5t-194.5 112.5t-130 191t-47 266q0 172 59.5 329t166 276t265.5 190t347 71q133 0 244.5 -38.5t194.5 -112.5t130 -191t47 -266q0 -172 -60 -329t-166.5 -276t-265.5 -190t-346 -71zM674 217q119 0 223 51.5t174.5 136t111 193.5t40.5 223
q0 195 -99.5 295.5t-257.5 100.5q-119 0 -223 -51.5t-174.5 -136.5t-111 -194t-40.5 -223q0 -195 99.5 -295t257.5 -100zM670 1606l35 184q3 20 24 20h442q17 0 17 -20l-35 -184q-3 -21 -25 -21h-442q-16 0 -16 21z" />
    <glyph glyph-name="omacron" unicode="&#x14d;" horiz-adv-x="1245" 
d="M35 428q0 129 47 243t130 197.5t204 132t262 48.5q215 0 346 -124t131 -325q0 -172 -79.5 -313t-227.5 -224t-336 -83q-215 0 -346 123.5t-131 324.5zM647 827q-148 0 -245 -113t-97 -276q0 -109 64 -173t174 -64q148 0 245 113t97 276q0 110 -64 173.5t-174 63.5z
M479 1200l35 184q3 21 25 21h442q16 0 16 -21l-34 -184q-3 -20 -25 -20h-442q-17 0 -17 20z" />
    <glyph glyph-name="Obreve" unicode="&#x14e;" horiz-adv-x="1538" 
d="M659 -20q-133 0 -244.5 38.5t-194.5 112.5t-130 191t-47 266q0 172 59.5 329t166 276t265.5 190t347 71q133 0 244.5 -38.5t194.5 -112.5t130 -191t47 -266q0 -172 -60 -329t-166.5 -276t-265.5 -190t-346 -71zM674 217q119 0 223 51.5t174.5 136t111 193.5t40.5 223
q0 195 -99.5 295.5t-257.5 100.5q-119 0 -223 -51.5t-174.5 -136.5t-111 -194t-40.5 -223q0 -195 99.5 -295t257.5 -100zM711 1831h159q17 0 17 -21q0 -1 -2 -12.5t-2 -25.5q0 -66 63 -66q77 0 96 104q3 21 25 21h160q16 0 16 -21q-53 -280 -321 -280q-110 0 -176 59
t-66 162q0 29 6 59q3 21 25 21z" />
    <glyph glyph-name="obreve" unicode="&#x14f;" horiz-adv-x="1245" 
d="M35 428q0 129 47 243t130 197.5t204 132t262 48.5q215 0 346 -124t131 -325q0 -172 -79.5 -313t-227.5 -224t-336 -83q-215 0 -346 123.5t-131 324.5zM647 827q-148 0 -245 -113t-97 -276q0 -109 64 -173t174 -64q148 0 245 113t97 276q0 110 -64 173.5t-174 63.5z
M496 1425h159q17 0 17 -20q0 -1 -2 -13t-2 -26q0 -66 63 -66q77 0 96 105q3 20 25 20h160q16 0 16 -20q-53 -281 -321 -281q-110 0 -176 59.5t-66 162.5q0 29 6 59q3 20 25 20z" />
    <glyph glyph-name="Ohungarumlaut" unicode="&#x150;" horiz-adv-x="1538" 
d="M659 -20q-133 0 -244.5 38.5t-194.5 112.5t-130 191t-47 266q0 172 59.5 329t166 276t265.5 190t347 71q133 0 244.5 -38.5t194.5 -112.5t130 -191t47 -266q0 -172 -60 -329t-166.5 -276t-265.5 -190t-346 -71zM674 217q119 0 223 51.5t174.5 136t111 193.5t40.5 223
q0 195 -99.5 295.5t-257.5 100.5q-119 0 -223 -51.5t-174.5 -136.5t-111 -194t-40.5 -223q0 -195 99.5 -295t257.5 -100zM565 1561l191 258q14 20 35 20h262q10 0 12 -6.5t-6 -13.5l-262 -260q-19 -19 -41 -19h-185q-10 0 -11.5 7t5.5 14zM954 1561l191 258q14 20 35 20h262
q10 0 12 -6.5t-6 -13.5l-262 -260q-19 -19 -41 -19h-184q-10 0 -11.5 7t4.5 14z" />
    <glyph glyph-name="ohungarumlaut" unicode="&#x151;" horiz-adv-x="1245" 
d="M35 428q0 129 47 243t130 197.5t204 132t262 48.5q215 0 346 -124t131 -325q0 -172 -79.5 -313t-227.5 -224t-336 -83q-215 0 -346 123.5t-131 324.5zM647 827q-148 0 -245 -113t-97 -276q0 -109 64 -173t174 -64q148 0 245 113t97 276q0 110 -64 173.5t-174 63.5z
M330 1155l190 258q15 21 35 21h262q10 0 12 -7t-6 -14l-262 -260q-18 -18 -41 -18h-184q-7 0 -9.5 3t-1.5 7.5t5 9.5zM719 1155l190 258q15 21 35 21h262q10 0 12 -7t-6 -14l-262 -260q-18 -18 -41 -18h-184q-10 0 -11.5 6.5t5.5 13.5z" />
    <glyph glyph-name="OE" unicode="&#x152;" horiz-adv-x="2242" 
d="M1485 635l-78 -397h659q17 0 17 -21l-39 -197q-3 -20 -25 -20h-905q-16 0 -16 20l16 89q-197 -129 -455 -129q-133 0 -244.5 38.5t-194.5 112.5t-130 191t-47 266q0 172 59.5 329t166 276t265.5 190t347 71q289 0 462 -176l27 135q3 21 25 21h874q17 0 17 -21l-39 -196
q-3 -21 -25 -21h-629l-63 -324h567q17 0 17 -20l-37 -197q-3 -20 -25 -20h-567zM674 217q119 0 223 51.5t174.5 136t111 193.5t40.5 223q0 195 -99.5 295.5t-257.5 100.5q-119 0 -223 -51.5t-174.5 -136.5t-111 -194t-40.5 -223q0 -195 99.5 -295t257.5 -100z" />
    <glyph glyph-name="oe" unicode="&#x153;" horiz-adv-x="2070" 
d="M1395 201q84 0 143.5 30t114.5 97q16 18 33 18h212q17 0 17 -12q0 -10 -8 -23q-92 -176 -218.5 -253.5t-318.5 -77.5q-272 0 -391 180q-180 -180 -467 -180q-215 0 -346 123.5t-131 324.5q0 129 47 243t130 197.5t204 132t262 48.5q131 0 232.5 -48.5t164.5 -136.5
q182 185 453 185q111 0 198.5 -34.5t141.5 -94t82 -136.5t28 -166q0 -62 -12 -126l-6 -35q-3 -21 -25 -21h-788q0 -105 62.5 -170t185.5 -65zM647 827q-148 0 -245 -113t-97 -276q0 -109 64 -173t174 -64q148 0 245 113t97 276q0 110 -64 173.5t-174 63.5zM1501 827
q-89 0 -169.5 -49.5t-127.5 -136.5h531q-26 186 -234 186z" />
    <glyph glyph-name="Racute" unicode="&#x154;" horiz-adv-x="1300" 
d="M25 20l272 1393q3 21 25 21h550q181 0 282 -86t101 -246q0 -312 -335 -430l182 -652q0 -20 -21 -20h-245q-19 0 -25 20l-172 631h-225l-123 -631q-3 -20 -25 -20h-225q-16 0 -16 20zM520 1196l-59 -307h317q91 0 151 45.5t60 126.5q0 135 -147 135h-322zM590 1561
l190 258q14 20 35 20h262q10 0 12 -6.5t-6 -13.5l-262 -260q-19 -19 -41 -19h-184q-8 0 -10 7t4 14z" />
    <glyph glyph-name="racute" unicode="&#x155;" horiz-adv-x="905" 
d="M930 975l-37 -187q-3 -22 -23 -22l-12 4q-106 57 -201 57t-171.5 -69t-104.5 -207l-102 -531q-3 -20 -25 -20h-213q-16 0 -16 20l190 988q3 20 25 20h213q16 0 16 -20l-10 -56q59 49 125 73t155 24q93 0 172 -33q21 -9 21 -25q0 -10 -2 -16zM440 1155l191 258
q15 21 35 21h262q10 0 12 -7t-6 -14l-262 -260q-18 -18 -41 -18h-185q-8 0 -10 6.5t4 13.5z" />
    <glyph glyph-name="Rcommaaccent" unicode="&#x156;" horiz-adv-x="1300" 
d="M25 20l272 1393q3 21 25 21h550q181 0 282 -86t101 -246q0 -312 -335 -430l182 -652q0 -20 -21 -20h-245q-19 0 -25 20l-172 631h-225l-123 -631q-3 -20 -25 -20h-225q-16 0 -16 20zM520 1196l-59 -307h317q91 0 151 45.5t60 126.5q0 135 -147 135h-322zM371 -455
q52 0 75.5 20t34.5 66l4 25h-102q-16 0 -16 20l43 222q3 20 24 20h221q17 0 17 -20l-54 -281q-19 -101 -71.5 -150t-145.5 -49h-55q-16 0 -16 21l16 86q3 20 25 20z" />
    <glyph glyph-name="rcommaaccent" unicode="&#x157;" horiz-adv-x="905" 
d="M930 975l-37 -187q-3 -22 -23 -22l-12 4q-106 57 -201 57t-171.5 -69t-104.5 -207l-102 -531q-3 -20 -25 -20h-213q-16 0 -16 20l190 988q3 20 25 20h213q16 0 16 -20l-10 -56q59 49 125 73t155 24q93 0 172 -33q21 -9 21 -25q0 -10 -2 -16zM88 -455q52 0 76 20t35 66
l4 25h-103q-16 0 -16 20l43 222q3 20 25 20h221q16 0 16 -20l-53 -281q-19 -101 -71.5 -150t-145.5 -49h-56q-16 0 -16 21l16 86q3 20 25 20z" />
    <glyph glyph-name="Rcaron" unicode="&#x158;" horiz-adv-x="1300" 
d="M25 20l272 1393q3 21 25 21h550q181 0 282 -86t101 -246q0 -312 -335 -430l182 -652q0 -20 -21 -20h-245q-19 0 -25 20l-172 631h-225l-123 -631q-3 -20 -25 -20h-225q-16 0 -16 20zM520 1196l-59 -307h317q91 0 151 45.5t60 126.5q0 135 -147 135h-322zM623 1528
l-170 291q-5 7 -0.5 13.5t14.5 6.5h188q20 0 33 -18l78 -97l119 97q21 18 41 18h196q10 0 12 -6.5t-6 -13.5l-276 -291q-20 -17 -35 -17h-168q-16 0 -26 17z" />
    <glyph glyph-name="rcaron" unicode="&#x159;" horiz-adv-x="905" 
d="M930 975l-37 -187q-3 -22 -23 -22l-12 4q-106 57 -201 57t-171.5 -69t-104.5 -207l-102 -531q-3 -20 -25 -20h-213q-16 0 -16 20l190 988q3 20 25 20h213q16 0 16 -20l-10 -56q59 49 125 73t155 24q93 0 172 -33q21 -9 21 -25q0 -10 -2 -16zM492 1122l-170 291
q-5 7 -0.5 14t14.5 7h188q19 0 33 -19l78 -96l119 96q22 19 41 19h196q10 0 12 -7t-6 -14l-276 -291q-19 -16 -35 -16h-168q-16 0 -26 16z" />
    <glyph glyph-name="Sacute" unicode="&#x15a;" horiz-adv-x="1206" 
d="M141 1016q0 102 44.5 186t120.5 138.5t174.5 84t209.5 29.5q119 0 212 -30.5t150 -83.5t86 -120.5t29 -146.5q0 -31 -2 -47q-3 -20 -24 -20h-223q-17 0 -17 20q0 191 -248 191q-59 0 -111.5 -14.5t-93 -52.5t-40.5 -95q0 -44 21.5 -78.5t65 -61t89 -45t114.5 -39.5
q83 -26 136 -46.5t109.5 -52t88 -66.5t52 -86.5t20.5 -116.5q0 -123 -45.5 -217t-127 -151t-189 -86t-236.5 -29q-235 0 -368.5 118.5t-133.5 304.5q0 14 4 60q3 20 23 20h223q16 0 16 -20v-19q0 -227 267 -227q131 0 214 51.5t83 161.5q0 65 -71 111.5t-212 83.5
q-104 28 -176 60.5t-127 78t-81 108t-26 144.5zM561 1561l191 258q14 20 34 20h263q10 0 12 -6.5t-6 -13.5l-262 -260q-19 -19 -41 -19h-185q-8 0 -10 7t4 14z" />
    <glyph glyph-name="sacute" unicode="&#x15b;" horiz-adv-x="1036" 
d="M903 346q0 -76 -26 -138.5t-70 -104t-104 -70t-125 -41t-136 -12.5q-216 0 -322 93.5t-106 268.5q0 20 25 20h203q20 0 20 -20q0 -71 50 -106t134 -35q187 0 187 112q0 41 -47.5 69t-169.5 50q-160 29 -233.5 92.5t-73.5 173.5q0 85 38.5 153.5t103 111t144 64.5
t166.5 22q192 0 291.5 -85.5t99.5 -230.5q0 -20 -24 -20h-207q-19 0 -25 20q-26 103 -172 103q-64 0 -113 -26t-49 -79q0 -43 47 -71.5t177 -51.5q165 -32 241 -88t76 -174zM440 1155l191 258q15 21 35 21h262q10 0 12 -7t-6 -14l-262 -260q-18 -18 -41 -18h-185
q-8 0 -10 6.5t4 13.5z" />
    <glyph glyph-name="Scircumflex" unicode="&#x15c;" horiz-adv-x="1206" 
d="M141 1016q0 102 44.5 186t120.5 138.5t174.5 84t209.5 29.5q119 0 212 -30.5t150 -83.5t86 -120.5t29 -146.5q0 -31 -2 -47q-3 -20 -24 -20h-223q-17 0 -17 20q0 191 -248 191q-59 0 -111.5 -14.5t-93 -52.5t-40.5 -95q0 -44 21.5 -78.5t65 -61t89 -45t114.5 -39.5
q83 -26 136 -46.5t109.5 -52t88 -66.5t52 -86.5t20.5 -116.5q0 -123 -45.5 -217t-127 -151t-189 -86t-236.5 -29q-235 0 -368.5 118.5t-133.5 304.5q0 14 4 60q3 20 23 20h223q16 0 16 -20v-19q0 -227 267 -227q131 0 214 51.5t83 161.5q0 65 -71 111.5t-212 83.5
q-104 28 -176 60.5t-127 78t-81 108t-26 144.5zM920 1823l170 -291q5 -8 0 -14.5t-15 -6.5h-188q-19 0 -33 19l-78 96l-119 -96q-19 -19 -41 -19h-196q-10 0 -12 6.5t6 14.5l276 291q19 16 35 16h168q17 0 27 -16z" />
    <glyph glyph-name="scircumflex" unicode="&#x15d;" horiz-adv-x="1036" 
d="M903 346q0 -76 -26 -138.5t-70 -104t-104 -70t-125 -41t-136 -12.5q-216 0 -322 93.5t-106 268.5q0 20 25 20h203q20 0 20 -20q0 -71 50 -106t134 -35q187 0 187 112q0 41 -47.5 69t-169.5 50q-160 29 -233.5 92.5t-73.5 173.5q0 85 38.5 153.5t103 111t144 64.5
t166.5 22q192 0 291.5 -85.5t99.5 -230.5q0 -20 -24 -20h-207q-19 0 -25 20q-26 103 -172 103q-64 0 -113 -26t-49 -79q0 -43 47 -71.5t177 -51.5q165 -32 241 -88t76 -174zM768 1417l170 -291q5 -8 0.5 -14t-14.5 -6h-189q-20 0 -33 18l-77 97l-119 -97q-18 -18 -41 -18
h-197q-10 0 -12 6t6 14l277 291q20 17 34 17h168q17 0 27 -17z" />
    <glyph glyph-name="Scedilla" unicode="&#x15e;" horiz-adv-x="1206" 
d="M367 -238l-37 43q-6 6 -6 13q0 4 6 16l71 154q-187 24 -292 138t-105 277q0 14 4 60q3 20 23 20h223q16 0 16 -20v-19q0 -227 267 -227q131 0 214 51.5t83 161.5q0 65 -71 111.5t-212 83.5q-104 28 -176 60.5t-127 78t-81 108t-26 144.5q0 102 44.5 186t120.5 138.5
t174.5 84t209.5 29.5q119 0 212 -30.5t150 -83.5t86 -120.5t29 -146.5q0 -31 -2 -47q-3 -20 -24 -20h-223q-17 0 -17 20q0 191 -248 191q-59 0 -111.5 -14.5t-93 -52.5t-40.5 -95q0 -44 21.5 -78.5t65 -61t89 -45t114.5 -39.5q83 -26 136 -46.5t109.5 -52t88 -66.5t52 -86.5
t20.5 -116.5q0 -118 -41.5 -208.5t-116.5 -148t-173.5 -89t-219.5 -37.5l-57 -89q58 15 98 15q166 0 166 -135q0 -100 -74.5 -148.5t-198.5 -48.5q-150 0 -217 20q-18 6 -18 21l18 90q3 21 25 21q3 0 60 -13.5t128 -13.5q17 0 32.5 2.5t31.5 13.5t16 29q0 33 -43 33
q-51 0 -125 -19q-4 -2 -12 -2q-10 0 -16 6z" />
    <glyph glyph-name="scedilla" unicode="&#x15f;" horiz-adv-x="1036" 
d="M285 -238l-37 43q-6 6 -6 13q0 4 6 16l74 156q-308 48 -308 352q0 20 25 20h203q20 0 20 -20q0 -71 50 -106t134 -35q187 0 187 112q0 41 -47.5 69t-169.5 50q-160 29 -233.5 92.5t-73.5 173.5q0 85 38.5 153.5t103 111t144 64.5t166.5 22q192 0 291.5 -85.5t99.5 -230.5
q0 -20 -24 -20h-207q-19 0 -25 20q-26 103 -172 103q-64 0 -113 -26t-49 -79q0 -43 47 -71.5t177 -51.5q165 -32 241 -88t76 -174q0 -91 -36 -161.5t-98.5 -113t-137 -65t-160.5 -26.5l-57 -89q58 15 98 15q166 0 166 -135q0 -100 -74 -148.5t-198 -48.5q-151 0 -218 20
q-18 6 -18 21l18 90q3 21 25 21q3 0 60 -13.5t128 -13.5q17 0 32.5 2.5t31.5 13.5t16 29q0 33 -43 33q-51 0 -125 -19q-4 -2 -12 -2q-10 0 -16 6z" />
    <glyph glyph-name="Scaron" unicode="&#x160;" horiz-adv-x="1206" 
d="M141 1016q0 102 44.5 186t120.5 138.5t174.5 84t209.5 29.5q119 0 212 -30.5t150 -83.5t86 -120.5t29 -146.5q0 -31 -2 -47q-3 -20 -24 -20h-223q-17 0 -17 20q0 191 -248 191q-59 0 -111.5 -14.5t-93 -52.5t-40.5 -95q0 -44 21.5 -78.5t65 -61t89 -45t114.5 -39.5
q83 -26 136 -46.5t109.5 -52t88 -66.5t52 -86.5t20.5 -116.5q0 -123 -45.5 -217t-127 -151t-189 -86t-236.5 -29q-235 0 -368.5 118.5t-133.5 304.5q0 14 4 60q3 20 23 20h223q16 0 16 -20v-19q0 -227 267 -227q131 0 214 51.5t83 161.5q0 65 -71 111.5t-212 83.5
q-104 28 -176 60.5t-127 78t-81 108t-26 144.5zM625 1528l-170 291q-5 7 -0.5 13.5t14.5 6.5h188q20 0 33 -18l78 -97l119 97q21 18 41 18h196q10 0 12 -6.5t-6 -13.5l-276 -291q-20 -17 -35 -17h-168q-16 0 -26 17z" />
    <glyph glyph-name="scaron" unicode="&#x161;" horiz-adv-x="1036" 
d="M903 346q0 -76 -26 -138.5t-70 -104t-104 -70t-125 -41t-136 -12.5q-216 0 -322 93.5t-106 268.5q0 20 25 20h203q20 0 20 -20q0 -71 50 -106t134 -35q187 0 187 112q0 41 -47.5 69t-169.5 50q-160 29 -233.5 92.5t-73.5 173.5q0 85 38.5 153.5t103 111t144 64.5
t166.5 22q192 0 291.5 -85.5t99.5 -230.5q0 -20 -24 -20h-207q-19 0 -25 20q-26 103 -172 103q-64 0 -113 -26t-49 -79q0 -43 47 -71.5t177 -51.5q165 -32 241 -88t76 -174zM477 1122l-170 291q-5 8 0 14.5t15 6.5h188q19 0 33 -19l78 -96l118 96q22 19 41 19h197
q10 0 12 -7t-6 -14l-276 -291q-19 -16 -35 -16h-168q-17 0 -27 16z" />
    <glyph glyph-name="uni0162" unicode="&#x162;" horiz-adv-x="1058" 
d="M252 -238l-37 43q-6 6 -6 13q0 4 6 16l78 166h-31q-16 0 -16 20l229 1176h-389q-16 0 -16 21l39 196q3 21 24 21h1045q16 0 16 -21l-39 -196q-3 -21 -25 -21h-389l-229 -1176q-3 -20 -25 -20h-36l-70 -109q58 15 98 15q166 0 166 -135q0 -100 -74 -148.5t-198 -48.5
q-150 0 -217 20q-19 6 -19 21l19 90q3 21 24 21q3 0 60.5 -13.5t128.5 -13.5q17 0 32.5 2.5t31.5 13.5t16 29q0 33 -43 33q-51 0 -125 -19q-4 -2 -13 -2q-10 0 -16 6z" />
    <glyph glyph-name="uni0163" unicode="&#x163;" horiz-adv-x="845" 
d="M176 -238l-37 43q-6 6 -6 13q0 4 6 16l90 189q-114 67 -114 227q0 66 4 84l92 473h-172q-16 0 -16 20l34 181q3 20 25 20h172l57 295q3 20 25 20h213q16 0 16 -20l-57 -295h305q16 0 16 -20l-34 -181q-3 -20 -25 -20h-305l-84 -438q-12 -62 -12 -80q0 -51 30 -69.5
t90 -18.5q84 0 183 35q4 2 14 2q12 0 12 -17l-34 -176q-4 -18 -11 -25t-20 -12q-77 -28 -223 -28q-8 0 -23 1t-22 1l-60 -91q58 15 98 15q166 0 166 -135q0 -100 -74 -148.5t-198 -48.5q-150 0 -217 20q-19 6 -19 21l19 90q3 21 24 21q3 0 60.5 -13.5t128.5 -13.5
q17 0 32.5 2.5t31.5 13.5t16 29q0 33 -43 33q-51 0 -125 -19q-4 -2 -12 -2q-11 0 -17 6z" />
    <glyph glyph-name="Tcaron" unicode="&#x164;" horiz-adv-x="1058" 
d="M70 1217l39 196q3 21 24 21h1045q16 0 16 -21l-39 -196q-3 -21 -25 -21h-389l-229 -1176q-3 -20 -25 -20h-225q-16 0 -16 20l229 1176h-389q-16 0 -16 21zM557 1528l-170 291q-5 7 -0.5 13.5t14.5 6.5h189q20 0 33 -18l77 -97l119 97q21 18 41 18h197q10 0 12 -6.5
t-6 -13.5l-277 -291q-20 -17 -34 -17h-168q-17 0 -27 17z" />
    <glyph glyph-name="tcaron" unicode="&#x165;" horiz-adv-x="845" 
d="M502 1028h305q16 0 16 -20l-35 -181q-3 -20 -24 -20h-305l-84 -438q-13 -67 -13 -80q0 -51 30.5 -69.5t90.5 -18.5q84 0 183 35q4 2 14 2q12 0 12 -17l-35 -176q-4 -18 -10.5 -25t-19.5 -12q-77 -28 -224 -28q-138 0 -216 69t-78 201q0 66 4 84l92 473h-172q-17 0 -17 20
l35 181q3 20 25 20h172l57 295q3 20 25 20h213q16 0 16 -20zM719 1192q67 0 95.5 23t39.5 79l2 13h-100q-17 0 -17 20l41 213q3 21 25 21h233q17 0 17 -21l-51 -262q-40 -209 -240 -209h-70q-16 0 -16 21l16 81q3 21 25 21z" />
    <glyph glyph-name="Tbar" unicode="&#x166;" horiz-adv-x="1058" 
d="M70 1217l39 196q3 21 24 21h1045q16 0 16 -21l-39 -196q-3 -21 -25 -21h-389l-30 -149h336q16 0 16 -21l-35 -180q-3 -21 -24 -21h-336l-156 -805q-3 -20 -25 -20h-225q-16 0 -16 20l155 805h-344q-16 0 -16 21l35 180q3 21 24 21h344l31 149h-389q-16 0 -16 21z" />
    <glyph glyph-name="tbar" unicode="&#x167;" horiz-adv-x="845" 
d="M508 1028h305q16 0 16 -20l-34 -181q-3 -20 -25 -20h-305l-23 -117h269q16 0 16 -20l-33 -168q-6 -21 -24 -21h-269l-20 -112q-8 -31 -8 -64q0 -104 116 -104q84 0 183 35q4 2 14 2q12 0 12 -17l-34 -176q-4 -18 -11 -25t-20 -12q-77 -28 -223 -28q-139 0 -219 69
t-80 201q0 48 8 84l28 147h-137q-16 0 -16 21l33 168q3 20 24 20h137l23 117h-172q-16 0 -16 20l34 181q3 20 25 20h172l57 295q3 20 25 20h213q16 0 16 -20z" />
    <glyph glyph-name="Utilde" unicode="&#x168;" horiz-adv-x="1349" 
d="M102 567l166 846q3 21 25 21h225q17 0 17 -21l-168 -858q-13 -67 -13 -111q0 -227 230 -227q273 0 340 338l168 858q3 21 24 21h225q17 0 17 -21l-168 -860q-60 -300 -218.5 -436.5t-414.5 -136.5q-230 0 -349.5 114.5t-119.5 339.5q0 51 14 133zM459 1765
q134 103 260 103q54 0 93 -12.5t57.5 -27.5t48 -27.5t65.5 -12.5q58 0 147 59q12 4 15 4q8 0 18 -16l68 -129q4 -12 4 -14q0 -10 -10 -17q-59 -45 -128 -73.5t-132 -28.5q-54 0 -93 12.5t-58 27.5t-48.5 27.5t-65.5 12.5q-56 0 -147 -60q-12 -4 -14 -4q-9 0 -19 17l-67 129
q-4 12 -4 14q0 9 10 16z" />
    <glyph glyph-name="utilde" unicode="&#x169;" horiz-adv-x="1206" 
d="M1118 1008l-190 -988q-3 -20 -25 -20h-213q-16 0 -16 20l14 74q-73 -58 -146.5 -86t-172.5 -28q-147 0 -224 75.5t-77 192.5q0 45 6 78l131 682q3 20 24 20h213q17 0 17 -20l-115 -594q-6 -37 -6 -66q0 -147 137 -147q104 0 184 83t115 259l90 465q3 20 25 20h213
q16 0 16 -20zM307 1360q59 45 128 73.5t132 28.5q54 0 93 -12.5t57.5 -27.5t48 -27.5t65.5 -12.5q57 0 148 60q12 4 14 4q9 0 19 -16l67 -130q4 -12 4 -14q0 -9 -10 -16q-134 -103 -260 -103q-54 0 -93 12.5t-57.5 27.5t-48 27.5t-65.5 12.5q-59 0 -148 -59q-12 -4 -14 -4
q-8 0 -18 16l-68 129q-4 12 -4 14q0 10 10 17z" />
    <glyph glyph-name="Umacron" unicode="&#x16a;" horiz-adv-x="1349" 
d="M102 567l166 846q3 21 25 21h225q17 0 17 -21l-168 -858q-13 -67 -13 -111q0 -227 230 -227q273 0 340 338l168 858q3 21 24 21h225q17 0 17 -21l-168 -860q-60 -300 -218.5 -436.5t-414.5 -136.5q-230 0 -349.5 114.5t-119.5 339.5q0 51 14 133zM608 1606l35 184
q3 20 25 20h442q16 0 16 -20l-34 -184q-3 -21 -25 -21h-442q-17 0 -17 21z" />
    <glyph glyph-name="umacron" unicode="&#x16b;" horiz-adv-x="1206" 
d="M1118 1008l-190 -988q-3 -20 -25 -20h-213q-16 0 -16 20l14 74q-73 -58 -146.5 -86t-172.5 -28q-147 0 -224 75.5t-77 192.5q0 45 6 78l131 682q3 20 24 20h213q17 0 17 -20l-115 -594q-6 -37 -6 -66q0 -147 137 -147q104 0 184 83t115 259l90 465q3 20 25 20h213
q16 0 16 -20zM451 1200l34 184q3 21 25 21h442q17 0 17 -21l-35 -184q-3 -20 -25 -20h-442q-16 0 -16 20z" />
    <glyph glyph-name="Ubreve" unicode="&#x16c;" horiz-adv-x="1349" 
d="M102 567l166 846q3 21 25 21h225q17 0 17 -21l-168 -858q-13 -67 -13 -111q0 -227 230 -227q273 0 340 338l168 858q3 21 24 21h225q17 0 17 -21l-168 -860q-60 -300 -218.5 -436.5t-414.5 -136.5q-230 0 -349.5 114.5t-119.5 339.5q0 51 14 133zM635 1831h160
q16 0 16 -21q0 -1 -2 -12.5t-2 -25.5q0 -66 63 -66q78 0 97 104q3 21 24 21h160q16 0 16 -21q-53 -280 -321 -280q-110 0 -176 59t-66 162q0 29 6 59q3 21 25 21z" />
    <glyph glyph-name="ubreve" unicode="&#x16d;" horiz-adv-x="1206" 
d="M1118 1008l-190 -988q-3 -20 -25 -20h-213q-16 0 -16 20l14 74q-73 -58 -146.5 -86t-172.5 -28q-147 0 -224 75.5t-77 192.5q0 45 6 78l131 682q3 20 24 20h213q17 0 17 -20l-115 -594q-6 -37 -6 -66q0 -147 137 -147q104 0 184 83t115 259l90 465q3 20 25 20h213
q16 0 16 -20zM471 1425h160q16 0 16 -20q0 -1 -2 -13t-2 -26q0 -66 64 -66q77 0 96 105q3 20 24 20h160q17 0 17 -20q-53 -281 -322 -281q-110 0 -176 59.5t-66 162.5q0 29 6 59q3 20 25 20z" />
    <glyph glyph-name="Uring" unicode="&#x16e;" horiz-adv-x="1349" 
d="M102 567l166 846q3 21 25 21h225q17 0 17 -21l-168 -858q-13 -67 -13 -111q0 -227 230 -227q273 0 340 338l168 858q3 21 24 21h225q17 0 17 -21l-168 -860q-60 -300 -218.5 -436.5t-414.5 -136.5q-230 0 -349.5 114.5t-119.5 339.5q0 51 14 133zM647 1655
q0 100 70 162.5t170 62.5q87 0 138.5 -46t51.5 -130q0 -100 -69.5 -162.5t-169.5 -62.5q-87 0 -139 46t-52 130zM872 1749q-39 0 -61.5 -21.5t-22.5 -62.5q0 -24 17 -39.5t47 -15.5q39 0 61.5 21.5t22.5 62.5q0 24 -17 39.5t-47 15.5z" />
    <glyph glyph-name="uring" unicode="&#x16f;" horiz-adv-x="1206" 
d="M1118 1008l-190 -988q-3 -20 -25 -20h-213q-16 0 -16 20l14 74q-73 -58 -146.5 -86t-172.5 -28q-147 0 -224 75.5t-77 192.5q0 45 6 78l131 682q3 20 24 20h213q17 0 17 -20l-115 -594q-6 -37 -6 -66q0 -147 137 -147q104 0 184 83t115 259l90 465q3 20 25 20h213
q16 0 16 -20zM489 1249q0 100 70 163t170 63q87 0 139 -46.5t52 -130.5q0 -100 -70 -162.5t-170 -62.5q-87 0 -139 46t-52 130zM715 1343q-39 0 -61.5 -21.5t-22.5 -61.5q0 -24 16.5 -40t46.5 -16q39 0 61.5 21.5t22.5 62.5q0 24 -16.5 39.5t-46.5 15.5z" />
    <glyph glyph-name="Uhungarumlaut" unicode="&#x170;" horiz-adv-x="1349" 
d="M102 567l166 846q3 21 25 21h225q17 0 17 -21l-168 -858q-13 -67 -13 -111q0 -227 230 -227q273 0 340 338l168 858q3 21 24 21h225q17 0 17 -21l-168 -860q-60 -300 -218.5 -436.5t-414.5 -136.5q-230 0 -349.5 114.5t-119.5 339.5q0 51 14 133zM473 1561l191 258
q14 20 34 20h263q10 0 12 -6.5t-6 -13.5l-262 -260q-19 -19 -41 -19h-185q-10 0 -11.5 7t5.5 14zM862 1561l191 258q14 20 34 20h263q10 0 12 -6.5t-6 -13.5l-262 -260q-19 -19 -41 -19h-185q-10 0 -11.5 7t5.5 14z" />
    <glyph glyph-name="uhungarumlaut" unicode="&#x171;" horiz-adv-x="1206" 
d="M1118 1008l-190 -988q-3 -20 -25 -20h-213q-16 0 -16 20l14 74q-73 -58 -146.5 -86t-172.5 -28q-147 0 -224 75.5t-77 192.5q0 45 6 78l131 682q3 20 24 20h213q17 0 17 -20l-115 -594q-6 -37 -6 -66q0 -147 137 -147q104 0 184 83t115 259l90 465q3 20 25 20h213
q16 0 16 -20zM297 1155l190 258q15 21 35 21h262q10 0 12.5 -7t-5.5 -14l-263 -260q-18 -18 -41 -18h-184q-10 0 -11.5 6.5t5.5 13.5zM686 1155l191 258q15 21 34 21h263q10 0 12 -7t-6 -14l-262 -260q-18 -18 -41 -18h-185q-7 0 -9.5 3t-1.5 7.5t5 9.5z" />
    <glyph glyph-name="Uogonek" unicode="&#x172;" horiz-adv-x="1349" 
d="M102 567l166 846q3 21 25 21h225q17 0 17 -21l-168 -858q-13 -67 -13 -111q0 -227 230 -227q273 0 340 338l168 858q3 21 24 21h225q17 0 17 -21l-168 -860q-48 -239 -157.5 -370.5t-287.5 -182.5q-42 -12 -74 -46.5t-32 -80.5q0 -59 72 -59h39q18 0 18 -21l-25 -131
q-6 -20 -24 -20h-111q-215 0 -215 168q0 96 101 170q-406 41 -406 454q0 51 14 133z" />
    <glyph glyph-name="uogonek" unicode="&#x173;" horiz-adv-x="1206" 
d="M1118 1008l-190 -988q-3 -13 -19 -20q-104 -47 -104 -127q0 -59 72 -59h38q19 0 19 -21l-25 -131q-6 -20 -24 -20h-111q-215 0 -215 168q0 104 107 174l22 110q-73 -58 -146.5 -86t-172.5 -28q-147 0 -224 73.5t-77 194.5q0 51 6 78l131 682q3 20 24 20h213q17 0 17 -20
l-115 -594q-6 -37 -6 -66q0 -147 137 -147q104 0 184 83t115 259l90 465q3 20 25 20h213q16 0 16 -20z" />
    <glyph glyph-name="Wcircumflex" unicode="&#x174;" horiz-adv-x="1763" 
d="M1858 1413l-586 -1393q-9 -20 -31 -20h-246q-19 0 -22 20l-62 918l-403 -918q-9 -20 -27 -20h-258q-20 0 -20 20l-56 1393q0 21 21 21h225q21 0 21 -21l10 -1046l420 948q9 20 28 20h220q20 0 20 -20l64 -948l417 1046q9 21 29 21h223q15 0 15 -11q0 -6 -2 -10z
M1182 1823l170 -291q5 -8 0 -14.5t-15 -6.5h-188q-19 0 -33 19l-78 96l-118 -96q-19 -19 -41 -19h-197q-10 0 -12 6.5t6 14.5l276 291q19 16 35 16h168q17 0 27 -16z" />
    <glyph glyph-name="wcircumflex" unicode="&#x175;" horiz-adv-x="1560" 
d="M1585 997l-477 -977q-9 -20 -31 -20h-223q-20 0 -23 20l-73 621l-293 -621q-11 -20 -31 -20h-223q-20 0 -23 20l-114 981q0 27 24 27h205q25 0 25 -20l51 -682l293 632q9 21 30 21h218q21 0 24 -21l74 -632l311 682q5 12 11 16t22 4h215q14 0 14 -12q0 -7 -6 -19z
M993 1417l170 -291q5 -8 0.5 -14t-14.5 -6h-188q-20 0 -33 18l-78 97l-119 -97q-18 -18 -41 -18h-196q-10 0 -12.5 6t5.5 14l277 291q20 17 35 17h168q16 0 26 -17z" />
    <glyph glyph-name="Ycircumflex" unicode="&#x176;" horiz-adv-x="1081" 
d="M1225 1413l-609 -909l-94 -484q-3 -20 -24 -20h-222q-16 0 -16 20l94 484l-258 909q0 21 17 21h231q20 0 23 -17l165 -626l414 626q10 17 27 17h244q12 0 12 -9q0 -4 -4 -12zM819 1823l170 -291q5 -8 0.5 -14.5t-14.5 -6.5h-189q-18 0 -32 19l-78 96l-119 -96
q-19 -19 -41 -19h-197q-10 0 -12 6.5t6 14.5l277 291q19 16 35 16h168q16 0 26 -16z" />
    <glyph glyph-name="ycircumflex" unicode="&#x177;" horiz-adv-x="1075" 
d="M96 1028h242q19 0 22 -20l115 -643l326 643q9 20 30 20h230q12 0 12 -12q0 -5 -4 -17l-577 -1099q-170 -326 -429 -326q-138 0 -200 33q-15 9 -15 33l35 180q3 20 21 20q11 0 60 -22.5t91 -22.5q71 0 124.5 54t117.5 186l-217 960q-2 6 -2 17q0 16 18 16zM741 1417
l170 -291q5 -8 0.5 -14t-14.5 -6h-188q-20 0 -33 18l-78 97l-119 -97q-18 -18 -41 -18h-196q-10 0 -12 6t6 14l276 291q20 17 35 17h168q16 0 26 -17z" />
    <glyph glyph-name="Ydieresis" unicode="&#x178;" horiz-adv-x="1081" 
d="M1225 1413l-609 -909l-94 -484q-3 -20 -24 -20h-222q-16 0 -16 20l94 484l-258 909q0 21 17 21h231q20 0 23 -17l165 -626l414 626q10 17 27 17h244q12 0 12 -9q0 -4 -4 -12zM369 1597l43 222q3 20 24 20h221q17 0 17 -20l-43 -222q-3 -20 -25 -20h-221q-16 0 -16 20z
M733 1597l43 222q3 20 25 20h221q16 0 16 -20l-43 -222q-3 -20 -24 -20h-221q-17 0 -17 20z" />
    <glyph glyph-name="Zacute" unicode="&#x179;" horiz-adv-x="1230" 
d="M195 1217l38 196q3 21 25 21h985q17 0 17 -21l-37 -188q-11 -25 -21 -35l-909 -952h760q16 0 16 -21l-39 -197q-3 -20 -24 -20h-1061q-17 0 -17 20l37 189q6 20 21 35l909 952h-684q-16 0 -16 21zM567 1561l191 258q14 20 35 20h262q10 0 12 -6.5t-6 -13.5l-262 -260
q-19 -19 -41 -19h-185q-8 0 -10 7t4 14z" />
    <glyph glyph-name="zacute" unicode="&#x17a;" horiz-adv-x="999" 
d="M127 827l35 181q3 20 24 20h783q16 0 16 -20l-33 -172q-3 -23 -13 -34q-5 -4 -11 -9l-623 -572h537q16 0 16 -20l-35 -181q-3 -20 -24 -20h-834q-16 0 -16 20l33 173q2 14 18 30l633 584h-490q-16 0 -16 20zM408 1155l190 258q15 21 35 21h262q10 0 12 -7t-6 -14
l-262 -260q-18 -18 -41 -18h-184q-8 0 -10 6.5t4 13.5z" />
    <glyph glyph-name="Zdotaccent" unicode="&#x17b;" horiz-adv-x="1230" 
d="M195 1217l38 196q3 21 25 21h985q17 0 17 -21l-37 -188q-11 -25 -21 -35l-909 -952h760q16 0 16 -21l-39 -197q-3 -20 -24 -20h-1061q-17 0 -17 20l37 189q6 20 21 35l909 952h-684q-16 0 -16 21zM614 1585l48 234q3 20 24 20h242q16 0 16 -20l-47 -234q-3 -20 -25 -20
h-241q-17 0 -17 20z" />
    <glyph glyph-name="zdotaccent" unicode="&#x17c;" horiz-adv-x="999" 
d="M127 827l35 181q3 20 24 20h783q16 0 16 -20l-33 -172q-3 -23 -13 -34q-5 -4 -11 -9l-623 -572h537q16 0 16 -20l-35 -181q-3 -20 -24 -20h-834q-16 0 -16 20l33 173q2 14 18 30l633 584h-490q-16 0 -16 20zM446 1180l48 233q3 21 24 21h242q16 0 16 -21l-47 -233
q-3 -21 -24 -21h-242q-17 0 -17 21z" />
    <glyph glyph-name="Zcaron" unicode="&#x17d;" horiz-adv-x="1230" 
d="M195 1217l38 196q3 21 25 21h985q17 0 17 -21l-37 -188q-11 -25 -21 -35l-909 -952h760q16 0 16 -21l-39 -197q-3 -20 -24 -20h-1061q-17 0 -17 20l37 189q6 20 21 35l909 952h-684q-16 0 -16 21zM623 1528l-170 291q-5 7 -0.5 13.5t14.5 6.5h188q20 0 33 -18l78 -97
l119 97q21 18 41 18h196q10 0 12 -6.5t-6 -13.5l-276 -291q-20 -17 -35 -17h-168q-16 0 -26 17z" />
    <glyph glyph-name="zcaron" unicode="&#x17e;" horiz-adv-x="999" 
d="M127 827l35 181q3 20 24 20h783q16 0 16 -20l-33 -172q-3 -23 -13 -34q-5 -4 -11 -9l-623 -572h537q16 0 16 -20l-35 -181q-3 -20 -24 -20h-834q-16 0 -16 20l33 173q2 14 18 30l633 584h-490q-16 0 -16 20zM459 1122l-170 291q-5 7 -0.5 14t14.5 7h189q18 0 32 -19
l78 -96l119 96q22 19 41 19h196q10 0 12.5 -7t-5.5 -14l-277 -291q-19 -16 -35 -16h-168q-16 0 -26 16z" />
    <glyph glyph-name="longs" unicode="&#x17f;" horiz-adv-x="759" 
d="M524 1059l-202 -1039q-3 -20 -25 -20h-221q-17 0 -17 20l154 787h-156q-16 0 -16 20l35 181q3 20 24 20h156l16 78q76 348 430 348q127 0 226 -45q16 -7 16 -31l-35 -182q-3 -20 -18 -20q-2 0 -14 4q-94 53 -156 53q-88 0 -132.5 -38t-64.5 -136z" />
    <glyph glyph-name="uni018E" unicode="&#x18e;" horiz-adv-x="1165" 
d="M748 799l77 397h-659q-16 0 -16 21l38 196q3 21 25 21h905q17 0 17 -21l-273 -1393q-3 -20 -24 -20h-875q-16 0 -16 20l39 197q3 21 24 21h629l63 323h-567q-16 0 -16 21l37 196q3 21 24 21h568z" />
    <glyph glyph-name="uni018F" unicode="&#x18f;" horiz-adv-x="1196" 
d="M604 827q-84 0 -143.5 -30t-114.5 -97q-16 -18 -33 -18h-213q-16 0 -16 12q0 10 8 23q92 176 219 254t318 78q215 0 342 -121.5t127 -343.5q0 -120 -46.5 -230t-128 -193t-199.5 -132t-253 -49q-111 0 -198.5 34t-142 93.5t-82.5 136.5t-28 166q0 57 13 127l6 34
q3 21 24 21h789q0 105 -62.5 170t-185.5 65zM498 201q89 0 169.5 49.5t127.5 136.5h-531q26 -186 234 -186z" />
    <glyph glyph-name="florin" unicode="&#x192;" horiz-adv-x="1034" 
d="M696 1073l-16 -45h283q16 0 16 -20l-35 -181q-3 -20 -24 -20h-314l-303 -909q-62 -187 -152.5 -255.5t-246.5 -68.5q-160 0 -240 39q-12 6 -12 18q0 11 2 17l35 180q3 20 20 20q3 0 15 -4q85 -49 172 -49q63 0 102.5 35t69.5 125l284 852h-135q-14 0 -14 20l35 181
q3 20 26 20h162l29 88q63 186 167.5 262t256.5 76q138 0 231 -39q12 -6 12 -18q0 -11 -2 -17l-35 -180q-3 -20 -20 -20q-6 0 -14 4q-85 49 -172 49q-64 0 -109.5 -36.5t-73.5 -123.5z" />
    <glyph glyph-name="uni01B5" unicode="&#x1b5;" horiz-adv-x="1230" 
d="M195 1217l38 196q3 21 25 21h985q17 0 17 -21l-37 -188q-11 -25 -21 -35l-350 -369h260q16 0 16 -20l-36 -180q-3 -21 -25 -21h-430l-344 -362h760q16 0 16 -21l-39 -197q-3 -20 -24 -20h-1061q-17 0 -17 20l37 189q6 20 21 35l338 356h-207q-17 0 -17 21l37 180
q3 20 25 20h377l356 375h-684q-16 0 -16 21z" />
    <glyph glyph-name="uni01B6" unicode="&#x1b6;" horiz-adv-x="999" 
d="M127 827l35 181q3 20 24 20h783q16 0 16 -20l-33 -172q-3 -23 -13 -34q-5 -4 -11 -9l-160 -146h82q16 0 16 -20l-32 -168q-3 -21 -25 -21h-268l-236 -217h537q16 0 16 -20l-35 -181q-3 -20 -24 -20h-834q-16 0 -16 20l33 173q2 14 18 30l233 215h-114q-17 0 -17 21
l33 168q6 20 25 20h299l174 160h-490q-16 0 -16 20z" />
    <glyph glyph-name="Aringacute" unicode="&#x1fa;" horiz-adv-x="1255" 
d="M561 1479q0 100 70 162.5t170 62.5q87 0 138.5 -46t51.5 -130q0 -108 -80 -172l226 -1323q0 -33 -29 -33h-219q-11 0 -15 4.5t-6 15.5l-53 359h-502l-192 -359q-9 -20 -29 -20h-231q-11 0 -16 8t1 19l740 1353q-25 42 -25 99zM709 1110l-267 -494h340zM668 1765l190 258
q15 21 35 21h262q10 0 12 -7t-6 -14l-262 -260q-18 -18 -41 -18h-184q-8 0 -10 6.5t4 13.5zM786 1573q-39 0 -61.5 -21.5t-22.5 -62.5q0 -24 17 -39.5t47 -15.5q39 0 61.5 21.5t22.5 62.5q0 24 -17 39.5t-47 15.5z" />
    <glyph glyph-name="aringacute" unicode="&#x1fb;" horiz-adv-x="1239" 
d="M1161 1008l-190 -988q-3 -20 -25 -20h-217q-16 0 -16 20l8 48q-67 -48 -134.5 -68t-164.5 -20q-81 0 -151 28.5t-124.5 83.5t-86 144t-31.5 202q0 119 41 228.5t115 195t188.5 136.5t251.5 51q172 0 270 -88l8 47q3 20 25 20h217q16 0 16 -20zM512 201q139 0 230.5 112
t91.5 265q0 249 -224 249q-128 0 -217.5 -112t-89.5 -260q0 -123 54.5 -188.5t154.5 -65.5zM483 1249q0 100 70 163t170 63q87 0 138.5 -46t51.5 -131q0 -100 -69.5 -162.5t-169.5 -62.5q-87 0 -139 46t-52 130zM709 1343q-39 0 -61.5 -21.5t-22.5 -61.5q0 -24 16.5 -40
t46.5 -16q39 0 61.5 21.5t22.5 62.5q0 24 -16.5 39.5t-46.5 15.5zM592 1561l190 258q14 20 35 20h262q10 0 12 -6.5t-6 -13.5l-262 -260q-19 -19 -41 -19h-184q-8 0 -10 7t4 14z" />
    <glyph glyph-name="AEacute" unicode="&#x1fc;" horiz-adv-x="1732" 
d="M981 635l-78 -397h664q16 0 16 -21l-39 -197q-3 -20 -24 -20h-910q-16 0 -16 20l70 357h-338l-209 -357q-11 -20 -35 -20h-232q-14 0 -14 12q0 6 2 8l821 1393q12 21 29 21h1081q17 0 17 -21l-39 -196q-3 -21 -25 -21h-632l-64 -324h571q17 0 17 -20l-37 -197
q-3 -20 -25 -20h-571zM801 1196l-338 -582h248l112 582h-22zM1018 1561l190 258q14 20 35 20h262q10 0 12 -6.5t-6 -13.5l-262 -260q-19 -19 -41 -19h-184q-8 0 -10 7t4 14z" />
    <glyph glyph-name="aeacute" unicode="&#x1fd;" horiz-adv-x="1931" 
d="M1257 201q84 0 144 30t115 97q10 12 15.5 15t16.5 3h217q13 0 13 -14q0 -6 -9 -21q-92 -176 -218 -253.5t-318 -77.5q-274 0 -395 186q-163 -186 -430 -186q-184 0 -279.5 82.5t-95.5 232.5q0 157 124 264t328 107q159 0 281 -39l6 26q4 28 4 39q0 135 -174 135
q-122 0 -194 -96q-16 -18 -33 -18h-195q-20 0 -20 20q0 8 2 12q56 142 178.5 223t286.5 81q120 0 208.5 -40.5t137.5 -109.5q178 150 418 150q111 0 198.5 -34.5t141.5 -94t82 -136.5t28 -166q0 -62 -12 -126l-6 -35q-3 -21 -25 -21h-788q0 -106 62 -170.5t185 -64.5z
M725 416q-69 22 -122.5 31.5t-131.5 9.5q-72 0 -132 -36.5t-60 -103.5q0 -54 42 -85t115 -31q104 0 182.5 54t106.5 161zM1364 827q-89 0 -169.5 -49.5t-127.5 -136.5h530q-26 186 -233 186zM850 1155l190 258q15 21 35 21h262q10 0 12 -7t-6 -14l-262 -260q-18 -18 -41 -18
h-184q-8 0 -10 6.5t4 13.5z" />
    <glyph glyph-name="Scommaaccent" unicode="&#x218;" horiz-adv-x="1206" 
d="M141 1016q0 102 44.5 186t120.5 138.5t174.5 84t209.5 29.5q119 0 212 -30.5t150 -83.5t86 -120.5t29 -146.5q0 -31 -2 -47q-3 -20 -24 -20h-223q-17 0 -17 20q0 191 -248 191q-59 0 -111.5 -14.5t-93 -52.5t-40.5 -95q0 -44 21.5 -78.5t65 -61t89 -45t114.5 -39.5
q83 -26 136 -46.5t109.5 -52t88 -66.5t52 -86.5t20.5 -116.5q0 -123 -45.5 -217t-127 -151t-189 -86t-236.5 -29q-235 0 -368.5 118.5t-133.5 304.5q0 14 4 60q3 20 23 20h223q16 0 16 -20v-19q0 -227 267 -227q131 0 214 51.5t83 161.5q0 65 -71 111.5t-212 83.5
q-104 28 -176 60.5t-127 78t-81 108t-26 144.5zM311 -455q52 0 76 20t35 66l4 25h-102q-17 0 -17 20l43 222q3 20 25 20h221q16 0 16 -20l-53 -281q-19 -101 -71.5 -150t-145.5 -49h-55q-17 0 -17 21l17 86q3 20 24 20z" />
    <glyph glyph-name="scommaaccent" unicode="&#x219;" horiz-adv-x="1036" 
d="M903 346q0 -76 -26 -138.5t-70 -104t-104 -70t-125 -41t-136 -12.5q-216 0 -322 93.5t-106 268.5q0 20 25 20h203q20 0 20 -20q0 -71 50 -106t134 -35q187 0 187 112q0 41 -47.5 69t-169.5 50q-160 29 -233.5 92.5t-73.5 173.5q0 85 38.5 153.5t103 111t144 64.5
t166.5 22q192 0 291.5 -85.5t99.5 -230.5q0 -20 -24 -20h-207q-19 0 -25 20q-26 103 -172 103q-64 0 -113 -26t-49 -79q0 -43 47 -71.5t177 -51.5q165 -32 241 -88t76 -174zM205 -455q52 0 75.5 20t34.5 66l4 25h-102q-16 0 -16 20l43 222q3 20 24 20h221q17 0 17 -20
l-53 -281q-19 -101 -71.5 -150t-145.5 -49h-56q-16 0 -16 21l16 86q3 20 25 20z" />
    <glyph glyph-name="uni021A" unicode="&#x21a;" horiz-adv-x="1058" 
d="M70 1217l39 196q3 21 24 21h1045q16 0 16 -21l-39 -196q-3 -21 -25 -21h-389l-229 -1176q-3 -20 -25 -20h-225q-16 0 -16 20l229 1176h-389q-16 0 -16 21zM184 -455q52 0 76 20t35 66l4 25h-102q-17 0 -17 20l43 222q3 20 25 20h221q16 0 16 -20l-53 -281
q-19 -101 -71.5 -150t-145.5 -49h-55q-17 0 -17 21l17 86q3 20 24 20z" />
    <glyph glyph-name="uni021B" unicode="&#x21b;" horiz-adv-x="845" 
d="M201 -455q52 0 75.5 20t34.5 66l4 25h-102q-16 0 -16 20l43 222q3 20 24 20h221q17 0 17 -20l-53 -281q-19 -101 -72 -150t-146 -49h-55q-16 0 -16 21l16 86q3 20 25 20zM508 1028h305q16 0 16 -20l-34 -181q-3 -20 -25 -20h-305l-84 -438q-12 -62 -12 -80
q0 -51 30 -69.5t90 -18.5q84 0 183 35q4 2 14 2q12 0 12 -17l-34 -176q-4 -18 -11 -25t-20 -12q-77 -28 -223 -28q-138 0 -216.5 69t-78.5 201q0 66 4 84l92 473h-172q-16 0 -16 20l34 181q3 20 25 20h172l57 295q3 20 25 20h213q16 0 16 -20z" />
    <glyph glyph-name="circumflex" unicode="&#x2c6;" horiz-adv-x="763" 
d="M602 1417l170 -291q5 -8 0.5 -14t-14.5 -6h-189q-19 0 -32 18l-78 97l-119 -97q-18 -18 -41 -18h-197q-10 0 -12 6t6 14l277 291q20 17 35 17h167q17 0 27 -17z" />
    <glyph glyph-name="caron" unicode="&#x2c7;" horiz-adv-x="763" 
d="M334 1122l-170 291q-5 7 -0.5 14t14.5 7h189q18 0 32 -19l78 -96l119 96q22 19 41 19h197q10 0 12 -7t-6 -14l-277 -291q-19 -16 -35 -16h-168q-16 0 -26 16z" />
    <glyph glyph-name="breve" unicode="&#x2d8;" horiz-adv-x="663" 
d="M168 1425h160q16 0 16 -20q0 -1 -2 -13t-2 -26q0 -66 63 -66q78 0 97 105q3 20 24 20h160q16 0 16 -20q-53 -281 -321 -281q-110 0 -176 59.5t-66 162.5q0 29 6 59q3 20 25 20z" />
    <glyph glyph-name="dotaccent" unicode="&#x2d9;" horiz-adv-x="548" 
d="M229 1180l47 233q3 21 25 21h242q16 0 16 -21l-47 -233q-3 -21 -25 -21h-241q-17 0 -17 21z" />
    <glyph glyph-name="ring" unicode="&#x2da;" horiz-adv-x="575" 
d="M137 1249q0 100 70 163t170 63q87 0 138.5 -46t51.5 -131q0 -100 -69.5 -162.5t-169.5 -62.5q-87 0 -139 46t-52 130zM362 1343q-39 0 -61 -21t-22 -62q0 -24 16.5 -40t46.5 -16q39 0 61.5 21.5t22.5 62.5q0 24 -17 39.5t-47 15.5z" />
    <glyph glyph-name="ogonek" unicode="&#x2db;" horiz-adv-x="421" 
d="M154 35l98 -19q12 -3 12 -10q0 -4 -4 -4l-2 -2q-104 -51 -104 -127q0 -59 71 -59h39q19 0 19 -21l-25 -131q-6 -20 -25 -20h-110q-215 0 -215 168q0 75 59.5 135.5t143.5 87.5q4 1 9 2l7.5 1.5t3.5 0.5q9 0 23 -2z" />
    <glyph glyph-name="tilde" unicode="&#x2dc;" horiz-adv-x="808" 
d="M106 1360q59 45 128.5 73.5t132.5 28.5q54 0 93 -12.5t57.5 -27.5t48 -27.5t65.5 -12.5q56 0 147 60q12 4 15 4q8 0 18 -16l68 -130q4 -12 4 -14q0 -9 -11 -16q-134 -103 -260 -103q-54 0 -93 12.5t-57.5 27.5t-48 27.5t-65.5 12.5q-58 0 -147 -59q-12 -4 -15 -4
q-8 0 -18 16l-68 129q-4 12 -4 14q0 10 10 17z" />
    <glyph glyph-name="hungarumlaut" unicode="&#x2dd;" horiz-adv-x="854" 
d="M127 1155l190 258q15 21 35 21h262q10 0 12.5 -7t-5.5 -14l-263 -260q-18 -18 -41 -18h-184q-10 0 -11.5 6.5t5.5 13.5zM516 1155l191 258q15 21 34 21h263q10 0 12 -7t-6 -14l-262 -260q-18 -18 -41 -18h-185q-7 0 -9.5 3t-1.5 7.5t5 9.5z" />
    <glyph glyph-name="uni03A9" unicode="&#x3a9;" horiz-adv-x="1505" 
d="M821 1217q-199 0 -334 -144t-135 -350q0 -142 43 -243.5t142 -217.5q10 -10 10 -24q0 -11 -2 -17l-39 -201q-3 -20 -25 -20h-475q-16 0 -16 20l39 197q3 21 24 21h256q-211 191 -211 499q0 204 95 368t264 256.5t379 92.5q150 0 268 -40t192.5 -112t113 -169t38.5 -213
q0 -194 -119.5 -373.5t-306.5 -308.5h240q16 0 16 -21l-39 -197q-3 -20 -25 -20h-475q-16 0 -16 20l39 201q3 23 24 41q400 321 400 635q0 159 -94.5 239.5t-270.5 80.5z" />
    <glyph glyph-name="pi" unicode="&#x3c0;" horiz-adv-x="1312" 
d="M1243 807h-194l-95 -473q-6 -30 -6 -45q0 -36 19 -52t61 -16h25q16 0 16 -20l-33 -181q-3 -20 -24 -20h-125q-91 0 -144 52t-53 143q0 46 4 61l109 551h-297l-154 -787q-3 -20 -24 -20h-201q-16 0 -16 20l153 787h-194q-17 0 -17 20l33 181q3 20 25 20h1173q16 0 16 -20
l-32 -181q-3 -20 -25 -20z" />
    <glyph glyph-name="endash" unicode="&#x2013;" horiz-adv-x="1193" 
d="M158 815h917q17 0 17 -20l-35 -189q-3 -20 -25 -20h-917q-17 0 -17 20l35 189q3 20 25 20z" />
    <glyph glyph-name="emdash" unicode="&#x2014;" horiz-adv-x="1648" 
d="M158 815h1376q16 0 16 -20l-34 -189q-6 -20 -25 -20h-1376q-17 0 -17 20l35 189q6 20 25 20z" />
    <glyph glyph-name="quoteleft" unicode="&#x2018;" horiz-adv-x="501" 
d="M465 1311q-67 0 -95.5 -23.5t-39.5 -79.5l-2 -12h100q16 0 16 -20l-41 -213q-3 -21 -24 -21h-234q-16 0 -16 21l51 262q40 209 240 209h69q17 0 17 -21l-17 -82q-3 -20 -24 -20z" />
    <glyph glyph-name="quoteright" unicode="&#x2019;" horiz-adv-x="501" 
d="M182 1065q67 0 95.5 23t39.5 79l2 13h-100q-16 0 -16 20l41 213q3 21 24 21h234q16 0 16 -21l-51 -262q-40 -209 -240 -209h-69q-17 0 -17 21l17 81q3 21 24 21z" />
    <glyph glyph-name="quotesinglbase" unicode="&#x201a;" horiz-adv-x="501" 
d="M-25 -139q67 0 96 23t40 79l2 12h-101q-16 0 -16 21l41 213q3 20 24 20h234q16 0 16 -20l-51 -262q-40 -209 -240 -209h-69q-17 0 -17 20l17 82q3 21 24 21z" />
    <glyph glyph-name="quotedblleft" unicode="&#x201c;" horiz-adv-x="808" 
d="M786 1311q-67 0 -95.5 -23.5t-39.5 -79.5l-2 -12h101q16 0 16 -20l-41 -213q-3 -21 -25 -21h-233q-16 0 -16 21l51 262q40 209 239 209h70q16 0 16 -21l-16 -82q-3 -20 -25 -20zM436 1311q-67 0 -95.5 -23.5t-39.5 -79.5l-2 -12h100q17 0 17 -20l-41 -213q-3 -21 -25 -21
h-233q-17 0 -17 21l52 262q40 209 239 209h70q16 0 16 -21l-16 -82q-3 -20 -25 -20z" />
    <glyph glyph-name="quotedblright" unicode="&#x201d;" horiz-adv-x="808" 
d="M168 1065q67 0 95.5 23t39.5 79l2 13h-100q-17 0 -17 20l41 213q3 21 25 21h233q17 0 17 -21l-51 -262q-40 -209 -240 -209h-70q-16 0 -16 21l16 81q3 21 25 21zM518 1065q67 0 95.5 23t39.5 79l2 13h-100q-16 0 -16 20l41 213q3 21 24 21h234q16 0 16 -21l-51 -262
q-40 -209 -240 -209h-69q-17 0 -17 21l17 81q3 21 24 21z" />
    <glyph glyph-name="quotedblbase" unicode="&#x201e;" horiz-adv-x="808" 
d="M-37 -139q67 0 95.5 23t39.5 79l2 12h-100q-16 0 -16 21l41 213q3 20 24 20h234q16 0 16 -20l-51 -262q-40 -209 -240 -209h-69q-17 0 -17 20l17 82q3 21 24 21zM313 -139q67 0 96 23t40 79l2 12h-101q-16 0 -16 21l41 213q3 20 24 20h234q16 0 16 -20l-51 -262
q-40 -209 -240 -209h-69q-17 0 -17 20l17 82q3 21 24 21z" />
    <glyph glyph-name="dagger" unicode="&#x2020;" horiz-adv-x="989" 
d="M129 1028h297l76 385q3 21 24 21h222q16 0 16 -21l-76 -385h297q16 0 16 -20l-38 -201q-3 -21 -25 -21h-297l-227 -1171q-3 -21 -25 -21h-221q-16 0 -16 21l227 1171h-297q-16 0 -16 21l38 201q3 20 25 20z" />
    <glyph glyph-name="daggerdbl" unicode="&#x2021;" horiz-adv-x="989" 
d="M786 0h-297l-75 -385q-3 -21 -25 -21h-221q-16 0 -16 21l75 385h-295q-16 0 -16 20l39 201q3 21 22 21h297l105 544h-297q-16 0 -16 21l38 201q3 20 25 20h297l76 385q3 21 24 21h222q16 0 16 -21l-76 -385h297q16 0 16 -20l-38 -201q-3 -21 -25 -21h-297l-104 -544h297
q16 0 16 -21l-39 -201q-3 -20 -25 -20z" />
    <glyph glyph-name="bullet" unicode="&#x2022;" horiz-adv-x="780" 
d="M119 668q0 116 79.5 195t194.5 79q116 0 195.5 -79.5t79.5 -194.5q0 -116 -80 -195.5t-195 -79.5t-194.5 79.5t-79.5 195.5z" />
    <glyph glyph-name="ellipsis" unicode="&#x2026;" horiz-adv-x="1497" 
d="M86 262h221q17 0 17 -20l-41 -222q-3 -20 -25 -20h-221q-17 0 -17 20l41 222q3 20 25 20zM555 262h221q17 0 17 -20l-41 -222q-3 -20 -25 -20h-221q-17 0 -17 20l41 222q3 20 25 20zM1024 262h221q17 0 17 -20l-41 -222q-3 -20 -25 -20h-221q-17 0 -17 20l41 222
q3 20 25 20z" />
    <glyph glyph-name="perthousand" unicode="&#x2030;" horiz-adv-x="2695" 
d="M874 1124q0 -184 -121 -304t-307 -120q-137 0 -229 90t-92 220q0 184 121 304t307 120q137 0 229 -90t92 -220zM469 883q93 0 150 65t57 154q0 70 -41.5 109.5t-104.5 39.5q-93 0 -149.5 -65t-56.5 -154q0 -70 41.5 -109.5t103.5 -39.5zM1612 424q0 -184 -121 -304
t-307 -120q-137 0 -229.5 89.5t-92.5 219.5q0 184 121 304t307 120q137 0 229.5 -89.5t92.5 -219.5zM1206 182q93 0 150 65t57 154q0 70 -41.5 110t-103.5 40q-93 0 -150 -65t-57 -154q0 -70 41.5 -110t103.5 -40zM2435 424q0 -184 -121 -304t-307 -120q-137 0 -229 89.5
t-92 219.5q0 184 121 304t307 120q137 0 229 -89.5t92 -219.5zM2030 182q93 0 149.5 65t56.5 154q0 70 -41.5 110t-103.5 40q-93 0 -150 -65t-57 -154q0 -70 42 -110t104 -40zM129 127l1374 1300q7 7 15 7q7 0 14 -7l84 -92q6 -6 6 -14q0 -6 -8 -14l-1374 -1301
q-6 -6 -15 -6q-8 0 -14 6l-84 92q-6 6 -6 15q0 6 8 14z" />
    <glyph glyph-name="guilsinglleft" unicode="&#x2039;" horiz-adv-x="733" 
d="M680 1083l-49 -258q-3 -20 -21 -32l-323 -244l227 -252q10 -10 10 -18q0 -9 -2 -15l-43 -229q-3 -15 -14 -15q-5 0 -12 7l-396 432q-15 18 -12 37l25 137q3 23 28 37l559 422q8 4 11 4q12 0 12 -13z" />
    <glyph glyph-name="guilsinglright" unicode="&#x203a;" horiz-adv-x="733" 
d="M18 37l50 258q3 22 20 33l324 243l-228 252q-10 10 -10 19q0 8 2 14l43 229q3 15 14 15q7 0 13 -6l395 -432q15 -18 12 -37l-24 -138q-3 -22 -29 -36l-559 -422q-8 -4 -10 -4q-13 0 -13 12z" />
    <glyph glyph-name="fraction" unicode="&#x2044;" horiz-adv-x="1372" 
d="M-96 127l1374 1300q7 7 14 7q8 0 15 -7l84 -92q6 -6 6 -14q0 -6 -8 -14l-1375 -1301q-6 -6 -14 -6t-14 6l-84 92q-6 6 -6 15q0 6 8 14z" />
    <glyph glyph-name="zerosuperior" unicode="&#x2070;" horiz-adv-x="763" 
d="M92 969q0 92 24 176t70.5 152t123 108.5t173.5 40.5q123 0 202 -79.5t79 -233.5q0 -92 -24 -176t-70.5 -152.5t-123 -109t-173.5 -40.5q-123 0 -202 80t-79 234zM467 1282q-63 0 -108 -47.5t-64 -113t-19 -138.5q0 -164 113 -164q63 0 108 47.5t64 113t19 138.5
q0 164 -113 164z" />
    <glyph glyph-name="foursuperior" unicode="&#x2074;" horiz-adv-x="743" 
d="M399 688l19 92h-326q-14 0 -14 21l20 112q3 13 15 25l426 481q15 15 26 15h127q17 0 17 -21l-91 -465h103q16 0 16 -20l-24 -127q-6 -21 -25 -21h-102l-19 -92q-3 -20 -24 -20h-127q-17 0 -17 20zM487 1145l-172 -197h136z" />
    <glyph glyph-name="fivesuperior" unicode="&#x2075;" horiz-adv-x="700" 
d="M129 1028l123 389q7 17 22 17h426q17 0 17 -21l-23 -123q-6 -20 -24 -20h-301l-45 -123q59 29 145 29q95 0 148 -52.5t53 -158.5q0 -137 -90 -223.5t-232 -86.5q-113 0 -179.5 62t-66.5 157l2 23q3 21 23 21h127q15 0 18 -21q9 -78 97 -78q54 0 86 33.5t32 87.5
q0 84 -84 84q-86 0 -139 -35q-12 -9 -24 -6l-105 27q-8 3 -8 8v6q0 2 2 4z" />
    <glyph glyph-name="sixsuperior" unicode="&#x2076;" horiz-adv-x="759" 
d="M119 946q0 88 23 175t67 160.5t116 119t160 45.5q107 0 170.5 -57t63.5 -160q0 -12 -14 -12h-132q-13 0 -16 10q-23 55 -90 55q-44 0 -84 -38t-57 -116q62 33 145 33q87 0 147 -55t60 -154q0 -132 -87.5 -214.5t-219.5 -82.5q-110 0 -181 72t-71 219zM416 1006
q-53 0 -90 -31.5t-37 -81.5q0 -40 25 -61t69 -21q51 0 89 32t38 81q0 82 -94 82z" />
    <glyph glyph-name="sevensuperior" unicode="&#x2077;" horiz-adv-x="565" 
d="M109 1290l24 123q3 21 25 21h495q17 0 17 -21l-13 -67q-4 -18 -18 -46l-322 -614q-9 -18 -28 -18h-158q-12 0 -12 10q0 4 6 16l301 576h-301q-16 0 -16 20z" />
    <glyph glyph-name="eightsuperior" unicode="&#x2078;" horiz-adv-x="696" 
d="M180 1212q0 96 81.5 165t199.5 69q106 0 168.5 -50t62.5 -139q0 -117 -119 -184q80 -50 80 -155q0 -117 -87.5 -190t-223.5 -73q-115 0 -182.5 53.5t-67.5 151.5q0 68 39.5 124.5t110.5 88.5q-62 54 -62 139zM389 987q-46 0 -75 -29t-29 -73q0 -31 20.5 -50.5t50.5 -19.5
q47 0 76 27t29 69q0 76 -72 76zM451 1298q-39 0 -69 -27t-30 -65q0 -32 18.5 -49.5t49.5 -17.5q41 0 68.5 27.5t27.5 68.5q0 63 -65 63z" />
    <glyph glyph-name="ninesuperior" unicode="&#x2079;" horiz-adv-x="759" 
d="M733 1155q0 -88 -23 -175t-67 -160.5t-116 -119t-160 -45.5q-107 0 -170.5 57t-63.5 160q0 13 14 13h132q12 0 16 -11q23 -55 90 -55q44 0 84 38t57 116q-62 -33 -145 -33q-87 0 -147 55t-60 154q0 132 87.5 214.5t219.5 82.5q110 0 181 -72t71 -219zM436 1096
q53 0 90 31t37 81q0 40 -25 61t-69 21q-51 0 -89 -31.5t-38 -80.5q0 -82 94 -82z" />
    <glyph glyph-name="zeroinferior" unicode="&#x2080;" horiz-adv-x="763" 
d="M-72 -104q0 92 24 176t70.5 152t123 108.5t173.5 40.5q123 0 202 -80t79 -234q0 -92 -24 -176t-70.5 -152t-123 -108.5t-173.5 -40.5q-123 0 -202 80t-79 234zM303 209q-63 0 -107.5 -47.5t-63.5 -113t-19 -138.5q0 -164 112 -164q63 0 108 47.5t64 113t19 138.5
q0 164 -113 164z" />
    <glyph glyph-name="oneinferior" unicode="&#x2081;" horiz-adv-x="563" 
d="M76 -385l100 520l-129 -67q-14 -7 -20 -7q-13 0 -13 17l29 149q4 13 18 21l197 104q13 8 33 8h82q16 0 16 -20l-141 -725q-3 -21 -25 -21h-131q-16 0 -16 21z" />
    <glyph glyph-name="twoinferior" unicode="&#x2082;" horiz-adv-x="786" 
d="M-49 -385l16 94q3 20 19 29l360 254q86 62 86 133q0 84 -88 84q-44 0 -78 -25t-51 -71q-9 -21 -25 -21h-127q-16 0 -16 21q19 117 103.5 188.5t203.5 71.5t185.5 -60.5t66.5 -154.5q0 -151 -155 -264l-185 -136h260q17 0 17 -20l-23 -123q-3 -21 -24 -21h-529
q-16 0 -16 21z" />
    <glyph glyph-name="threeinferior" unicode="&#x2083;" horiz-adv-x="770" 
d="M172 -66l23 119q3 21 24 21h57q46 0 77.5 21.5t31.5 60.5q0 59 -72 59q-31 0 -59.5 -18.5t-46.5 -55.5q-4 -10 -8 -13t-15 -3h-125q-18 0 -18 18q25 106 103 167t188 61q109 0 168 -51t59 -134q0 -110 -108 -180q75 -57 75 -164q0 -121 -83 -191.5t-210 -70.5
q-119 0 -189.5 64.5t-70.5 160.5v23q3 20 23 20h133q15 0 18 -20q9 -84 97 -84q45 0 73.5 24.5t28.5 73.5q0 32 -22.5 52t-65.5 20h-70q-16 0 -16 20z" />
    <glyph glyph-name="fourinferior" unicode="&#x2084;" horiz-adv-x="743" 
d="M229 -385l19 92h-326q-14 0 -14 21l20 112q3 13 15 25l426 481q14 14 26 14h127q17 0 17 -20l-90 -465h102q16 0 16 -20l-24 -127q-6 -21 -25 -21h-102l-19 -92q-3 -21 -24 -21h-127q-17 0 -17 21zM317 72l-172 -197h136z" />
    <glyph glyph-name="fiveinferior" unicode="&#x2085;" horiz-adv-x="700" 
d="M-14 -45l123 389q6 16 22 16h426q16 0 16 -20l-22 -123q-6 -20 -25 -20h-301l-45 -123q57 28 146 28q95 0 147.5 -52.5t52.5 -158.5q0 -137 -89.5 -223t-231.5 -86q-113 0 -179.5 62t-66.5 157l2 23q3 20 23 20h127q15 0 18 -20q9 -78 96 -78q54 0 86.5 33.5t32.5 87.5
q0 84 -84 84q-86 0 -139 -35q-12 -9 -25 -6l-104 27q-8 3 -8 8v6q0 2 2 4z" />
    <glyph glyph-name="sixinferior" unicode="&#x2086;" horiz-adv-x="759" 
d="M16 -127q0 70 14 140t44.5 135t73 115t103.5 80t132 30q107 0 170 -57t63 -160q0 -13 -14 -13h-131q-12 0 -16 11q-23 55 -90 55q-44 0 -84.5 -38t-57.5 -116q62 33 146 33q87 0 146.5 -55t59.5 -154q0 -132 -87.5 -214.5t-219.5 -82.5q-110 0 -181 72t-71 219zM313 -68
q-53 0 -90 -31t-37 -81q0 -40 25.5 -61t69.5 -21q51 0 89 31.5t38 80.5q0 82 -95 82z" />
    <glyph glyph-name="seveninferior" unicode="&#x2087;" horiz-adv-x="565" 
d="M-80 217l25 123q3 20 24 20h496q16 0 16 -20l-12 -68q-3 -17 -18 -45l-322 -614q-9 -19 -29 -19h-157q-13 0 -13 11q0 2 7 16l301 576h-301q-17 0 -17 20z" />
    <glyph glyph-name="eightinferior" unicode="&#x2088;" horiz-adv-x="696" 
d="M14 139q0 96 81.5 165t199.5 69q106 0 168.5 -50t62.5 -139q0 -118 -118 -184q79 -50 79 -156q0 -117 -87.5 -189.5t-223.5 -72.5q-115 0 -182.5 53.5t-67.5 151.5q0 68 39.5 124.5t110.5 88.5q-62 54 -62 139zM223 -86q-46 0 -75 -29t-29 -73q0 -31 20.5 -50.5
t50.5 -19.5q47 0 76 27t29 69q0 76 -72 76zM285 225q-39 0 -69 -27t-30 -65q0 -32 18.5 -49.5t49.5 -17.5q41 0 68.5 27.5t27.5 68.5q0 63 -65 63z" />
    <glyph glyph-name="nineinferior" unicode="&#x2089;" horiz-adv-x="759" 
d="M575 82q0 -88 -23 -175t-67 -160.5t-116 -119t-160 -45.5q-107 0 -170.5 57t-63.5 160q0 13 15 13h131q12 0 16 -11q23 -55 90 -55q44 0 84.5 38t57.5 116q-62 -33 -146 -33q-87 0 -147 55t-60 154q0 132 88 214.5t220 82.5q110 0 180.5 -72t70.5 -219zM279 23
q53 0 90 31t37 81q0 40 -25.5 61t-69.5 21q-51 0 -89 -32t-38 -81q0 -81 95 -81z" />
    <glyph glyph-name="Euro" unicode="&#x20ac;" horiz-adv-x="1384" 
d="M799 414h-373q24 -104 86.5 -150.5t167.5 -46.5q239 0 356 248q9 20 25 20h209q18 0 18 -20q-85 -241 -249 -363t-386 -122q-202 0 -330.5 107.5t-162.5 326.5h-180q-17 0 -17 20l37 197q3 20 23 20h129q15 116 18 131h-121q-16 0 -16 21l37 196q3 21 24 21h154
q94 194 257 314t376 120q247 0 375 -131t128 -354q-3 -21 -24 -21h-205q-19 0 -22 21q-22 248 -267 248q-209 0 -334 -197h383q17 0 17 -21l-37 -196q-6 -21 -25 -21h-434q-18 -62 -22 -131h430q16 0 16 -20l-37 -197q-3 -20 -24 -20z" />
    <glyph glyph-name="uni2117" unicode="&#x2117;" horiz-adv-x="1638" 
d="M819 -20q-105 0 -207.5 30.5t-194 93t-161 149t-110 206.5t-40.5 258t40.5 258t110 206.5t161 149t194 93t207.5 30.5t207.5 -30.5t194 -93t161 -149t110 -206.5t40.5 -258t-40.5 -258t-110 -206.5t-161 -149t-194 -93t-207.5 -30.5zM819 66q92 0 180 25.5t167 79
t138.5 129t94.5 183.5t35 234t-35 234t-94.5 183.5t-138.5 129t-167 79t-180 25.5t-180 -25.5t-167 -79t-138 -129.5t-94 -183.5t-35 -233.5t35 -233.5t94 -183.5t138 -129.5t167 -79t180 -25.5zM537 272v893q0 23 22 23h309q144 0 227 -76.5t83 -200.5t-83 -200t-227 -76
h-233v-363q0 -22 -23 -22h-53q-22 0 -22 22zM635 1102v-381h248q97 0 146.5 50.5t49.5 139.5t-49.5 140t-146.5 51h-248z" />
    <glyph glyph-name="trademark" unicode="&#x2122;" horiz-adv-x="1439" 
d="M100 1298l23 115q3 21 24 21h541q17 0 17 -21l-23 -115q-3 -20 -25 -20h-188l-115 -590q-3 -20 -24 -20h-123q-17 0 -17 20l115 590h-188q-17 0 -17 20zM1485 1413l-142 -725q-3 -20 -24 -20h-123q-16 0 -16 20l92 473l-201 -356q-9 -12 -18 -12h-103q-11 0 -14 12
l-78 356l-92 -473q-3 -20 -25 -20h-123q-16 0 -16 20l141 725q3 21 25 21h170q17 0 20 -17l74 -397l225 397q10 17 29 17h182q17 0 17 -21z" />
    <glyph glyph-name="Omega" unicode="&#x2126;" horiz-adv-x="1505" 
d="M821 1217q-199 0 -334 -144t-135 -350q0 -142 43 -243.5t142 -217.5q10 -10 10 -24q0 -11 -2 -17l-39 -201q-3 -20 -25 -20h-475q-16 0 -16 20l39 197q3 21 24 21h256q-211 191 -211 499q0 204 95 368t264 256.5t379 92.5q150 0 268 -40t192.5 -112t113 -169t38.5 -213
q0 -194 -119.5 -373.5t-306.5 -308.5h240q16 0 16 -21l-39 -197q-3 -20 -25 -20h-475q-16 0 -16 20l39 201q3 23 24 41q400 321 400 635q0 159 -94.5 239.5t-270.5 80.5z" />
    <glyph glyph-name="onethird" unicode="&#x2153;" horiz-adv-x="1822" 
d="M1270 342l22 119q3 20 25 20h57q46 0 77.5 21.5t31.5 60.5q0 60 -72 60q-31 0 -59.5 -18.5t-46.5 -55.5q-5 -11 -9 -14t-14 -3h-125q-18 0 -18 19q25 106 103 166.5t188 60.5q109 0 168 -51t59 -133q0 -62 -28.5 -104t-80.5 -76q76 -57 76 -164q0 -121 -83 -191.5
t-210 -70.5q-119 0 -189.5 64.5t-70.5 160.5v23q3 20 23 20h133q15 0 18 -20q9 -84 96 -84q46 0 74.5 24.5t28.5 73.5q0 32 -22.5 52t-65.5 20h-70q-16 0 -16 20zM106 127l1375 1300q7 7 14 7t14 -7l84 -92q6 -6 6 -14q0 -6 -8 -14l-1374 -1301q-6 -6 -14 -6q-9 0 -15 6
l-84 92q-6 6 -6 15q0 6 8 14zM233 688l101 520l-129 -67q-12 -6 -21 -6q-12 0 -12 16l29 149q4 13 18 21l197 104q15 9 33 9h81q17 0 17 -21l-141 -725q-3 -20 -25 -20h-131q-17 0 -17 20z" />
    <glyph glyph-name="twothirds" unicode="&#x2154;" horiz-adv-x="1986" 
d="M1434 342l22 119q3 20 25 20h57q46 0 77.5 21.5t31.5 60.5q0 60 -72 60q-31 0 -60 -19t-47 -55q-5 -11 -8.5 -14t-13.5 -3h-125q-18 0 -18 19q25 106 102.5 166.5t187.5 60.5q109 0 168.5 -51t59.5 -133q0 -62 -28.5 -104t-80.5 -76q76 -57 76 -164q0 -121 -83 -191.5
t-210 -70.5q-119 0 -189.5 64.5t-70.5 160.5v23q3 20 22 20h134q15 0 18 -20q9 -84 96 -84q46 0 74.5 24.5t28.5 73.5q0 32 -22.5 52t-65.5 20h-70q-16 0 -16 20zM291 127l1374 1300q7 7 14 7q8 0 15 -7l84 -92q6 -6 6 -14q0 -6 -8 -14l-1375 -1301q-6 -6 -14 -6t-14 6
l-84 92q-6 6 -6 15q0 6 8 14zM109 688l16 94q3 20 18 29l361 254q86 62 86 133q0 84 -88 84q-44 0 -78 -25t-51 -71q-9 -21 -25 -21h-127q-16 0 -16 21q19 117 103.5 188.5t203.5 71.5t185.5 -60.5t66.5 -154.5q0 -150 -156 -264l-184 -136h260q16 0 16 -20l-22 -123
q-3 -20 -25 -20h-528q-16 0 -16 20z" />
    <glyph glyph-name="oneeighth" unicode="&#x215b;" horiz-adv-x="1820" 
d="M1126 545q0 96 81.5 164.5t199.5 68.5q106 0 168.5 -49.5t62.5 -138.5q0 -118 -118 -184q79 -50 79 -156q0 -117 -87.5 -189.5t-223.5 -72.5q-115 0 -182.5 53.5t-67.5 151.5q0 68 39.5 124.5t110.5 88.5q-62 54 -62 139zM1335 319q-46 0 -75 -29t-29 -73q0 -31 21 -50.5
t51 -19.5q47 0 75.5 27.5t28.5 69.5q0 75 -72 75zM1397 631q-39 0 -69 -27t-30 -65q0 -32 18.5 -50t49.5 -18q41 0 68.5 27.5t27.5 68.5q0 64 -65 64zM96 127l1374 1300q7 7 15 7q7 0 14 -7l84 -92q6 -6 6 -14q0 -6 -8 -14l-1374 -1301q-6 -6 -14 -6q-9 0 -15 6l-84 92
q-6 6 -6 15q0 6 8 14zM223 688l101 520l-129 -67q-12 -6 -21 -6q-12 0 -12 16l28 149q4 12 19 21l197 104q15 9 32 9h82q17 0 17 -21l-142 -725q-3 -20 -24 -20h-131q-17 0 -17 20z" />
    <glyph glyph-name="threeeighths" unicode="&#x215c;" horiz-adv-x="1865" 
d="M317 1010l23 118q3 21 25 21h57q46 0 77 21.5t31 60.5q0 59 -71 59t-107 -73q-5 -11 -8.5 -14t-13.5 -3h-125q-19 0 -19 19q25 106 103 166.5t188 60.5q109 0 168.5 -51t59.5 -133q0 -110 -109 -181q76 -57 76 -163q0 -121 -83 -192t-210 -71q-119 0 -189.5 65t-70.5 161
v22q3 21 22 21h133q16 0 19 -21q9 -84 96 -84q45 0 74 25t29 74q0 32 -23 51.5t-66 19.5h-69q-17 0 -17 21zM141 127l1375 1300q7 7 14 7t14 -7l84 -92q6 -6 6 -14q0 -6 -8 -14l-1374 -1301q-6 -6 -14 -6q-9 0 -15 6l-84 92q-6 6 -6 15q0 6 8 14zM1171 545q0 96 81.5 164.5
t199.5 68.5q106 0 168.5 -49.5t62.5 -138.5q0 -118 -118 -184q80 -50 80 -156q0 -117 -88 -189.5t-224 -72.5q-115 0 -182.5 53.5t-67.5 151.5q0 68 39.5 124.5t110.5 88.5q-62 54 -62 139zM1380 319q-46 0 -75 -29t-29 -73q0 -31 21 -50.5t51 -19.5q47 0 75.5 27.5
t28.5 69.5q0 75 -72 75zM1442 631q-39 0 -69 -27t-30 -65q0 -32 18.5 -50t49.5 -18q41 0 68.5 27.5t27.5 68.5q0 64 -65 64z" />
    <glyph glyph-name="fiveeighths" unicode="&#x215d;" horiz-adv-x="1882" 
d="M135 1028l123 389q7 17 23 17h426q16 0 16 -21l-23 -123q-6 -20 -24 -20h-301l-45 -123q59 29 145 29q95 0 148 -52.5t53 -158.5q0 -137 -90 -223.5t-232 -86.5q-113 0 -179 62t-66 157l2 23q3 21 22 21h127q16 0 19 -21q9 -78 96 -78q54 0 86.5 33.5t32.5 87.5
q0 84 -84 84q-87 0 -140 -35q-12 -9 -24 -6l-105 27q-8 3 -8 8v6q0 2 2 4zM158 127l1374 1300q7 7 14 7q8 0 15 -7l84 -92q6 -6 6 -14q0 -5 -9 -14l-1374 -1301q-6 -6 -14 -6t-14 6l-84 92q-6 6 -6 15q0 6 8 14zM1188 545q0 96 81 164.5t199 68.5q106 0 169 -49.5t63 -138.5
q0 -117 -119 -184q80 -50 80 -156q0 -117 -87.5 -189.5t-223.5 -72.5q-115 0 -182.5 53.5t-67.5 151.5q0 68 39 124.5t110 88.5q-61 53 -61 139zM1397 319q-47 0 -76 -29.5t-29 -72.5q0 -31 21 -50.5t51 -19.5q47 0 75.5 27.5t28.5 69.5q0 75 -71 75zM1458 631
q-39 0 -68.5 -27t-29.5 -65q0 -32 18 -50t49 -18q41 0 69 27.5t28 68.5q0 64 -66 64z" />
    <glyph glyph-name="seveneighths" unicode="&#x215e;" horiz-adv-x="1837" 
d="M233 1290l25 123q3 21 25 21h495q17 0 17 -21l-13 -67q-4 -18 -18 -46l-322 -614q-9 -18 -28 -18h-158q-12 0 -12 10q0 4 6 16l301 576h-301q-17 0 -17 20zM113 127l1374 1300q7 7 14 7q8 0 15 -7l83 -92q7 -7 7 -14q0 -5 -9 -14l-1374 -1301q-6 -6 -14 -6t-14 6l-84 92
q-7 7 -7 15q0 5 9 14zM1143 545q0 96 81 164.5t199 68.5q106 0 169 -49.5t63 -138.5q0 -117 -119 -184q80 -50 80 -156q0 -117 -87.5 -189.5t-223.5 -72.5q-115 0 -182.5 53.5t-67.5 151.5q0 68 39 124.5t110 88.5q-61 53 -61 139zM1352 319q-46 0 -75.5 -29.5t-29.5 -72.5
q0 -31 21 -50.5t51 -19.5q47 0 75.5 27.5t28.5 69.5q0 75 -71 75zM1413 631q-39 0 -68.5 -27t-29.5 -65q0 -32 18 -50t49 -18q41 0 69 27.5t28 68.5q0 64 -66 64z" />
    <glyph glyph-name="partialdiff" unicode="&#x2202;" horiz-adv-x="1220" 
d="M874 979q-57 125 -177 179t-298 54q-20 0 -20 29l31 178q6 15 32 15q347 0 509.5 -156.5t162.5 -480.5q0 -120 -21.5 -233.5t-70.5 -220.5t-120.5 -186.5t-180.5 -128t-242 -48.5q-203 0 -325.5 118t-122.5 314q0 170 70 314.5t202 233.5t299 89q102 0 155.5 -15.5
t116.5 -54.5zM610 827q-72 0 -133 -35.5t-100.5 -92.5t-61.5 -126t-22 -139q0 -107 54.5 -170t156.5 -63q138 0 226.5 114.5t88.5 272.5q0 109 -54.5 174t-154.5 65z" />
    <glyph glyph-name="Delta" unicode="&#x2206;" horiz-adv-x="1337" 
d="M938 1413l254 -1167q2 -6 2 -23q0 -2 -4 -30l-35 -173q-3 -20 -25 -20h-1210q-16 0 -16 20l35 173q2 6 5 17t6 20t7 16l682 1167q12 21 31 21h245q17 0 23 -21zM940 238l-182 944l-531 -944h713z" />
    <glyph glyph-name="product" unicode="&#x220f;" horiz-adv-x="1386" 
d="M582 1196l-308 -1581q-3 -21 -24 -21h-223q-17 0 -17 21l348 1798q3 21 25 21h954q17 0 17 -21l-350 -1798q-3 -21 -25 -21h-225q-17 0 -17 21l307 1581h-462z" />
    <glyph glyph-name="summation" unicode="&#x2211;" horiz-adv-x="1191" 
d="M-184 -385l41 205q9 29 22 41l572 622q28 32 28 54q0 13 -10 36l-336 594q-10 17 -10 31q0 13 2 19l39 196q3 21 24 21h1059q17 0 17 -21l-39 -196q-3 -21 -25 -21h-762l334 -614q14 -25 14 -54q0 -46 -38 -90l-564 -606h785q16 0 16 -20l-39 -197q-3 -21 -24 -21h-1090
q-16 0 -16 21z" />
    <glyph glyph-name="minus" unicode="&#x2212;" horiz-adv-x="1193" 
d="M158 815h917q17 0 17 -20l-35 -189q-3 -20 -25 -20h-917q-17 0 -17 20l35 189q3 20 25 20z" />
    <glyph glyph-name="radical" unicode="&#x221a;" horiz-adv-x="1255" 
d="M211 590h-156q-16 0 -16 20l35 181q3 20 24 20h314q21 0 24 -20l70 -480l561 1102q12 21 33 21h221q14 0 14 -11q0 -8 -2 -10l-729 -1393q-11 -20 -31 -20h-231q-20 0 -23 20z" />
    <glyph glyph-name="infinity" unicode="&#x221e;" horiz-adv-x="1800" 
d="M86 600q0 189 117 303.5t309 114.5q135 0 237 -69t146 -173q189 242 440 242q156 0 242 -86.5t86 -224.5q0 -189 -117 -303.5t-309 -114.5q-135 0 -237 68.5t-146 172.5q-85 -109 -196 -175t-244 -66q-156 0 -242 86.5t-86 224.5zM494 872q-104 0 -169 -72t-65 -182
q0 -79 48 -131.5t132 -52.5q181 0 338 219q-80 219 -284 219zM1255 434q104 0 169 72t65 182q0 79 -48 131.5t-132 52.5q-181 0 -338 -219q80 -219 284 -219z" />
    <glyph glyph-name="integral" unicode="&#x222b;" horiz-adv-x="1034" 
d="M696 1073l-393 -1175q-62 -187 -152.5 -255.5t-246.5 -68.5q-160 0 -240 39q-12 6 -12 18q0 11 2 17l35 180q3 20 20 20q3 0 15 -4q85 -49 172 -49q63 0 102.5 35t69.5 125l387 1161q63 186 167.5 262t256.5 76q138 0 231 -39q12 -6 12 -18q0 -11 -2 -17l-35 -180
q-3 -20 -20 -20q-6 0 -14 4q-85 49 -172 49q-64 0 -109.5 -36.5t-73.5 -123.5z" />
    <glyph glyph-name="approxequal" unicode="&#x2248;" horiz-adv-x="1146" 
d="M111 891q51 34 141 61t147 27q73 0 131 -13t89 -29t72.5 -29t84.5 -13q86 0 166 51q12 4 14 4q13 0 19 -16l74 -164q1 -2 2 -5l1.5 -4.5t0.5 -2.5q0 -10 -13 -17q-51 -34 -141.5 -61t-146.5 -27q-73 0 -131 13t-89 29t-72.5 29t-84.5 13q-86 0 -166 -51q-12 -4 -14 -4
q-13 0 -19 16l-74 164l-4 12q0 10 13 17zM35 485q51 34 141.5 61t147.5 27q73 0 131 -13t89 -29t72 -29t84 -13q84 0 166 52q12 4 15 4q11 0 18 -17l74 -163q4 -12 4 -13q0 -10 -12 -16q-51 -34 -142 -61t-147 -27q-73 0 -131 13t-89 29t-72.5 29t-84.5 13q-86 0 -166 -51
q-2 -1 -5 -2t-5 -2t-4 -1q-12 0 -19 17l-73 164l-4 12q0 10 12 16z" />
    <glyph glyph-name="notequal" unicode="&#x2260;" horiz-adv-x="1267" 
d="M147 522h269l141 187h-375q-16 0 -16 20l37 189q6 20 24 20h504l246 324q10 10 16 10q5 0 13 -4l141 -109q8 -5 8 -12q0 -9 -8 -17l-146 -192h140q16 0 16 -20l-37 -189q-3 -20 -24 -20h-269l-141 -187h375q16 0 16 -20l-37 -189q-6 -20 -24 -20h-504l-246 -324
q-10 -10 -16 -10q-4 0 -12 4l-142 109q-8 5 -8 12q0 8 8 16l146 193h-140q-16 0 -16 20l37 189q3 20 24 20z" />
    <glyph glyph-name="lessequal" unicode="&#x2264;" horiz-adv-x="1052" 
d="M-55 209h917q17 0 17 -21l-35 -188q-3 -20 -25 -20h-917q-17 0 -17 20l35 188q3 21 25 21zM1038 1339l-49 -252q-3 -18 -26 -28l-572 -260l471 -260q15 -9 15 -29l-46 -223q-3 -15 -14 -15q-5 0 -16 7l-697 413q-19 10 -16 27l39 192q4 18 25 27l864 412q22 9 22 -11z
" />
    <glyph glyph-name="greaterequal" unicode="&#x2265;" horiz-adv-x="1052" 
d="M-35 209h918q16 0 16 -21l-35 -188q-3 -20 -24 -20h-918q-16 0 -16 20l35 188q3 21 24 21zM23 283l49 252q3 18 26 28l572 260l-471 260q-15 6 -15 29l45 223q3 15 15 15q5 0 16 -7l696 -413q20 -10 17 -27l-39 -192q-4 -18 -25 -27l-864 -412q-22 -13 -22 11z" />
    <glyph glyph-name="lozenge" unicode="&#x25ca;" horiz-adv-x="1101" 
d="M817 1413l275 -676q4 -12 4 -20q0 -3 -11 -21l-524 -676q-14 -20 -41 -20h-198q-22 0 -31 20l-275 676q-4 12 -4 21q0 5 11 20l522 676q15 21 33 21h215q15 0 24 -21zM653 1192l-383 -487l185 -463l383 489z" />
    <glyph glyph-name="apple" unicode="&#xf8ff;" horiz-adv-x="1556" 
d="M1384 1264v-1219q0 -18 -12.5 -31.5t-32.5 -13.5q-8 0 -14 2l-547 158l-547 -158q-6 -2 -14 -2q-20 0 -32.5 13.5t-12.5 31.5v1219q0 36 33 45l553 159l20 5q1 0 21 -5l553 -159q32 -8 32 -45zM733 750v620l-471 -137q12 -190 146 -328t325 -155zM823 1370v-620
q191 17 325 155t146 328zM260 948v-844l473 138v417q-151 12 -275 88.5t-198 200.5zM1296 104v844q-76 -125 -199 -201t-274 -88v-417z" />
    <glyph glyph-name="fi" unicode="&#xfb01;" horiz-adv-x="1323" 
d="M741 807h-278l-154 -787q-3 -20 -24 -20h-213q-17 0 -17 20l154 787h-160q-16 0 -16 20l35 181q3 20 24 20h160l16 88q31 171 135.5 254.5t258.5 83.5q124 0 215 -43q12 -3 12 -16t-2 -19l-33 -172q-3 -20 -18 -20q-3 0 -15 4q-91 45 -159 45q-117 0 -144 -137l-12 -68
h278q17 0 17 -20l-35 -181q-3 -20 -25 -20zM770 20l191 988q3 20 24 20h213q16 0 16 -20l-192 -988q-3 -20 -29 -20h-207q-16 0 -16 20zM979 1180l47 233q3 21 25 21h241q17 0 17 -21l-47 -233q-3 -21 -25 -21h-242q-16 0 -16 21z" />
    <glyph glyph-name="fl" unicode="&#xfb02;" horiz-adv-x="1300" 
d="M741 807h-278l-154 -787q-3 -20 -24 -20h-213q-17 0 -17 20l154 787h-160q-16 0 -16 20l35 181q3 20 24 20h160l16 88q31 171 135.5 254.5t258.5 83.5q124 0 215 -43q12 -3 12 -16t-2 -19l-33 -172q-3 -20 -18 -20q-3 0 -15 4q-91 45 -159 45q-117 0 -144 -137l-12 -68
h278q17 0 17 -20l-35 -181q-3 -20 -25 -20zM772 20l270 1393q3 21 25 21h213q16 0 16 -21l-272 -1393q-3 -20 -25 -20h-213q-14 0 -14 20z" />
    <glyph glyph-name="sterling.tosn" 
d="M188 221q37 28 58.5 47t49.5 54.5t44 76.5h-139q-17 0 -17 21l27 143q3 21 25 21h92q-9 37 -9 88q0 166 119.5 271.5t309.5 105.5q182 0 275 -82.5t93 -231.5v-28q0 -21 -24 -21h-181q-21 0 -24 21q-17 67 -55.5 93.5t-108.5 26.5q-76 0 -125 -48t-49 -128q0 -37 6 -67
h354q17 0 17 -21l-27 -143q-3 -21 -25 -21h-294q-19 -102 -111 -178h551q16 0 16 -20l-35 -181q-3 -20 -24 -20h-827q-17 0 -17 20l31 160q3 26 24 41z" />
    <glyph glyph-name="dollar.tosn" 
d="M1042 346q0 -72 -23 -131.5t-61.5 -99.5t-92.5 -69t-113 -44t-125 -20l-33 -166q-3 -21 -25 -21h-155q-17 0 -17 21l35 178q-278 60 -278 348q0 20 24 20h203q20 0 20 -20q0 -85 74 -121l43 217q-141 31 -205.5 93.5t-64.5 166.5q0 77 31.5 140.5t86 106t124 68
t147.5 31.5l33 164q3 21 24 21h156q16 0 16 -21l-35 -172q131 -29 196 -107t65 -196q0 -20 -25 -20h-207q-18 0 -24 20q-13 50 -50 72l-38 -203q153 -32 223.5 -86.5t70.5 -169.5zM772 313q0 47 -65 78l-37 -182q102 21 102 104zM502 731q0 -26 12.5 -44t46.5 -34l33 174
q-92 -25 -92 -96z" />
    <glyph glyph-name="yen.tosn" 
d="M270 631h148l-150 377q0 20 17 20h229q19 0 25 -16l108 -307l232 307q13 16 28 16h230q12 0 12 -10q0 -2 -4 -10l-293 -377h152q16 0 16 -21l-29 -143q-3 -21 -24 -21h-240l-20 -104h198q17 0 17 -20l-27 -144q-3 -20 -25 -20h-198l-27 -138q-3 -20 -24 -20h-213
q-17 0 -17 20l27 138h-199q-16 0 -16 20l26 144q3 20 25 20h199l20 104h-240q-16 0 -16 21l29 143q3 21 24 21z" />
    <glyph glyph-name="cent.tosn" 
d="M383 -182l35 180q-147 38 -232.5 151.5t-85.5 288.5q0 234 145 402t378 200l32 170q3 21 25 21h197q16 0 16 -21l-35 -176q145 -33 224 -130.5t79 -225.5q0 -29 -31 -29h-188q-11 0 -15.5 3.5t-8.5 15.5q-24 102 -105 137l-115 -586q102 41 160 141q10 19 33 19h194
q21 0 21 -17l-4 -16q-59 -157 -175 -248t-274 -112l-32 -168q-3 -21 -25 -21h-197q-16 0 -16 21zM371 455q0 -87 21.5 -140t70.5 -82l112 572q-97 -41 -150.5 -133.5t-53.5 -216.5z" />
    <glyph glyph-name="multiply.tosn" 
d="M1079 758l-288 -248l188 -238q4 -8 4 -10q0 -8 -10 -18l-154 -129q-9 -9 -14 -9q-8 0 -14 9l-193 245l-299 -256q-8 -8 -14 -8q-7 0 -15 8l-125 148q-4 8 -4 12q0 6 11 17l305 254l-181 229q-6 9 -6 16q0 8 9 17l153 129q9 6 14 6q9 0 15 -6l186 -236l291 244q8 8 14 8
q7 0 15 -8l118 -148l5 -10q0 -7 -11 -18z" />
    <glyph glyph-name="plus.tosn" 
d="M805 979l-68 -346h344q17 0 17 -21l-35 -188q-3 -21 -25 -21h-344l-67 -346q-3 -20 -25 -20h-192q-17 0 -17 20l68 346h-344q-17 0 -17 21l35 188q3 21 25 21h344l67 346q3 20 25 20h192q17 0 17 -20z" />
    <glyph glyph-name="minus.tosn" 
d="M156 631h917q17 0 17 -21l-35 -188q-3 -21 -25 -21h-917q-17 0 -17 21l35 188q3 21 25 21z" />
    <glyph glyph-name="divide.tosn" 
d="M451 262h221q18 0 18 -20l-43 -222q-3 -20 -24 -20h-222q-16 0 -16 20l43 222q3 20 23 20zM584 946h221q16 0 16 -20l-43 -221q-3 -21 -22 -21h-221q-19 0 -19 21l43 221q3 20 25 20zM164 588h921q17 0 17 -21l-35 -188q-3 -21 -25 -21h-921q-17 0 -17 21l35 188
q3 21 25 21z" />
    <glyph glyph-name="Euro.tosn" 
d="M86 465h98q0 26 13 98h-93q-16 0 -16 21l29 143q3 21 24 21h121q74 139 208.5 220t309.5 81q195 0 303.5 -105.5t108.5 -269.5q-6 -21 -25 -21h-196q-17 0 -17 21q-8 70 -57.5 111.5t-134.5 41.5q-127 0 -209 -79h197q16 0 16 -21l-29 -143q-3 -21 -24 -21h-262
q-13 -54 -13 -98h256q17 0 17 -21l-29 -143q-3 -20 -25 -20h-184q53 -80 168 -80q85 0 151 41.5t99 111.5q1 1 3 5t3 5t2.5 4t2.5 3.5l3 1.5t4.5 1.5t5.5 0.5h193q20 0 20 -21q-134 -374 -520 -374q-166 0 -270 76t-139 225h-150q-16 0 -16 20l28 143q3 21 25 21z" />
    <glyph glyph-name="equal.tosn" 
d="M221 819h914q16 0 16 -20l-37 -189q-3 -20 -24 -20h-914q-16 0 -16 20l37 189q6 20 24 20zM141 403h914q16 0 16 -20l-37 -188q-6 -21 -24 -21h-914q-16 0 -16 21l37 188q3 20 24 20z" />
    <glyph glyph-name="zero.tosn" 
d="M59 418q0 194 84.5 338.5t229.5 218.5t329 74q216 0 354 -124t138 -315q0 -194 -84.5 -338.5t-229.5 -218t-329 -73.5q-216 0 -354 123.5t-138 314.5zM672 827q-152 0 -255.5 -110.5t-103.5 -270.5q0 -106 75.5 -175.5t193.5 -69.5q152 0 255 110.5t103 270.5
q0 106 -75 175.5t-193 69.5z" />
    <glyph glyph-name="one.tosn" 
d="M162 221h297l98 500l-264 -139q-14 -7 -23 -7q-10 0 -10 19l41 219q3 22 29 31l338 174q23 10 32 10h146q16 0 16 -20l-149 -787h317q17 0 17 -20l-35 -181q-3 -20 -25 -20h-868q-17 0 -17 20l35 181q3 20 25 20z" />
    <glyph glyph-name="two.tosn" 
d="M117 20l26 144q6 26 33 47l473 324q62 42 95.5 85t33.5 95q0 48 -33 80t-86 32q-120 0 -167 -145q-6 -18 -13.5 -24.5t-21.5 -6.5h-181q-24 0 -24 31q33 173 152.5 270t277.5 97q172 0 258 -81t86 -204q0 -110 -52.5 -194.5t-166.5 -168.5l-246 -180h373q16 0 16 -20
l-35 -181q-3 -20 -24 -20h-758q-16 0 -16 20z" />
    <glyph glyph-name="three.tosn" 
d="M477 336l37 180q3 21 25 21h120q72 0 129.5 45.5t57.5 115.5q0 58 -38 93.5t-106 35.5q-66 0 -124.5 -39t-85.5 -120q-5 -16 -11.5 -19.5t-19.5 -3.5h-178q-23 0 -23 31q32 168 158.5 270.5t294.5 102.5q183 0 278.5 -81t95.5 -210q0 -114 -49 -191t-149 -129
q137 -85 137 -264q0 -147 -69 -252.5t-180 -155t-249 -49.5q-180 0 -297.5 105t-117.5 274v31q3 31 30 31h187q12 0 17 -4.5t5 -20.5q0 -96 55 -145t150 -49q99 0 157 54t58 165q0 74 -44 115.5t-128 41.5h-106q-17 0 -17 21z" />
    <glyph glyph-name="four.tosn" 
d="M526 -262l52 262h-510q-17 0 -17 20l29 146q7 28 26 47l687 799q13 16 30 16h189q16 0 16 -20l-156 -787h168q17 0 17 -20l-33 -181q-3 -20 -25 -20h-168l-51 -262q-3 -21 -26 -21h-211q-17 0 -17 21zM684 549l-272 -328h206z" />
    <glyph glyph-name="five.tosn" 
d="M143 299l213 709q6 20 25 20h717q16 0 16 -20l-37 -181q-3 -20 -22 -20h-523l-92 -266q62 33 117.5 44t130.5 11q155 0 247.5 -96.5t92.5 -261.5q0 -240 -140.5 -380.5t-375.5 -140.5q-190 0 -303 107t-113 293q0 30 31 30h178q14 0 21 -6t8 -24q8 -93 56 -135.5
t151 -42.5q111 0 176 68t65 188q0 87 -47.5 133.5t-140.5 46.5q-57 0 -108.5 -18.5t-116.5 -59.5q-23 -18 -37 -18h-172q-17 0 -17 20z" />
    <glyph glyph-name="six.tosn" 
d="M129 449q0 113 23.5 230.5t73.5 231.5t121 202.5t174 143t224 54.5q164 0 265.5 -88.5t101.5 -241.5q0 -27 -2 -41q-2 -20 -25 -20h-186q-17 0 -20 20q-8 78 -43.5 114t-114.5 36q-100 0 -165.5 -69t-102.5 -228q115 67 258 67q157 0 251.5 -95t94.5 -273
q0 -148 -67 -265.5t-183.5 -182t-259.5 -64.5q-86 0 -159.5 27t-132.5 81.5t-92.5 147t-33.5 213.5zM616 633q-101 0 -171 -74t-70 -174q0 -86 52.5 -132t129.5 -46q101 0 169.5 74t68.5 182q0 80 -46 125t-133 45z" />
    <glyph glyph-name="seven.tosn" 
d="M221 827l35 181q3 20 25 20h780q16 0 16 -20l-28 -140q-10 -27 -19 -43l-606 -1093q-9 -15 -27 -15h-211q-16 0 -16 15l4 12l588 1063h-522q-19 0 -19 20z" />
    <glyph glyph-name="eight.tosn" 
d="M293 909q0 117 62 210.5t162 142.5t216 49q166 0 261.5 -82t95.5 -232q0 -195 -191 -311q117 -96 117 -268q0 -132 -63 -232.5t-171 -153t-243 -52.5q-178 0 -287 92.5t-109 240.5q0 128 62.5 223.5t179.5 151.5q-92 88 -92 221zM602 563q-86 0 -145.5 -63.5
t-59.5 -151.5q0 -66 43.5 -110.5t120.5 -44.5q89 0 145 60t56 157q0 68 -40 110.5t-120 42.5zM713 1090q-71 0 -127 -48t-56 -118q0 -66 38 -103t100 -37q76 0 128 53t52 124q0 62 -37 95.5t-98 33.5z" />
    <glyph glyph-name="nine.tosn" 
d="M1094 580q0 -93 -17 -191.5t-49.5 -195.5t-85.5 -182.5t-119 -151t-155.5 -104t-190.5 -38.5q-164 0 -265 88.5t-101 241.5q0 27 2 41q2 21 24 21h187q17 0 20 -21q8 -78 43.5 -113.5t114.5 -35.5q100 0 165.5 69t102.5 228q-117 -68 -258 -68q-158 0 -252 94.5
t-94 274.5q0 148 67 265.5t183.5 182t259.5 64.5q86 0 159.5 -27.5t132.5 -82t92.5 -147t33.5 -212.5zM606 395q101 0 171.5 74t70.5 174q0 86 -52.5 132t-129.5 46q-101 0 -169.5 -74t-68.5 -182q0 -81 45.5 -125.5t132.5 -44.5z" />
    <glyph glyph-name="sterling.posn" horiz-adv-x="1042" 
d="M29 221q36 27 58 46.5t49.5 55t43.5 76.5h-139q-16 0 -16 21l26 143q3 21 25 21h92q-8 33 -8 88q0 166 119 271.5t309 105.5q182 0 275 -82.5t93 -231.5v-28q0 -21 -24 -21h-180q-22 0 -25 21q-17 67 -55.5 93.5t-108.5 26.5q-76 0 -125 -48t-49 -128q0 -37 6 -67h355
q16 0 16 -21l-27 -143q-3 -21 -24 -21h-295q-19 -102 -111 -178h551q17 0 17 -20l-35 -181q-3 -20 -25 -20h-827q-17 0 -17 20l31 160q3 25 25 41z" />
    <glyph glyph-name="dollar.posn" horiz-adv-x="1036" 
d="M903 346q0 -89 -34.5 -158.5t-94.5 -111.5t-131.5 -65t-155.5 -29l-32 -166q-3 -21 -25 -21h-156q-16 0 -16 21l35 178q-279 60 -279 348q0 20 25 20h203q20 0 20 -20q0 -85 74 -121l43 217q-141 31 -205.5 93.5t-64.5 166.5q0 77 31.5 140.5t86 106t124 68t147.5 31.5
l32 164q3 21 25 21h156q16 0 16 -21l-35 -172q131 -29 195.5 -107t64.5 -196q0 -20 -24 -20h-207q-19 0 -25 20q-13 51 -49 72l-39 -203q153 -32 224 -86.5t71 -169.5zM633 313q0 47 -66 78l-37 -182q103 21 103 104zM362 731q0 -25 12.5 -43.5t47.5 -34.5l33 174
q-93 -26 -93 -96z" />
    <glyph glyph-name="yen.posn" horiz-adv-x="983" 
d="M111 631h147l-149 377q0 20 16 20h229q19 0 25 -16l108 -307l232 307q13 16 29 16h229q12 0 12 -10q0 -2 -4 -10l-293 -377h152q16 0 16 -21l-29 -143q-3 -21 -24 -21h-240l-20 -104h198q17 0 17 -20l-27 -144q-3 -20 -24 -20h-199l-27 -138q-3 -20 -24 -20h-213
q-17 0 -17 20l27 138h-199q-16 0 -16 20l27 144q3 20 24 20h199l20 104h-239q-17 0 -17 21l29 143q3 21 25 21z" />
    <glyph glyph-name="cent.posn" horiz-adv-x="1148" 
d="M299 -180l35 180q-147 38 -232.5 151.5t-85.5 288.5q0 234 145 402t378 200l32 170q3 21 25 21h197q16 0 16 -21l-35 -176q145 -33 224 -130.5t79 -225.5q0 -29 -30 -29h-189q-11 0 -15.5 3.5t-8.5 15.5q-24 102 -105 137l-115 -586q102 41 160 141q10 19 33 19h194
q21 0 21 -16q0 -1 -4 -17q-59 -157 -175 -248t-274 -112l-32 -168q-3 -21 -25 -21h-197q-16 0 -16 21zM287 457q0 -87 21.5 -139.5t70.5 -81.5l113 571q-98 -41 -151.5 -133.5t-53.5 -216.5z" />
    <glyph glyph-name="multiply.posn" horiz-adv-x="999" 
d="M915 758l-288 -248l188 -238q4 -8 4 -10q0 -8 -10 -18l-154 -129q-9 -9 -14 -9q-8 0 -14 9l-193 245l-299 -256q-8 -8 -14 -8q-7 0 -15 8l-124 148q-5 10 -5 12q0 6 11 17l305 254l-180 229q-7 10 -7 16q0 8 9 17l153 129q9 6 15 6q8 0 14 -6l186 -236l291 244q8 8 14 8
q7 0 15 -8l119 -148q4 -8 4 -10q0 -7 -11 -18z" />
    <glyph glyph-name="plus.posn" horiz-adv-x="1138" 
d="M760 979l-68 -346h344q17 0 17 -21l-35 -188q-3 -21 -25 -21h-344l-67 -346q-3 -20 -25 -20h-192q-17 0 -17 20l68 346h-344q-17 0 -17 21l35 188q3 21 25 21h344l67 346q3 20 25 20h192q17 0 17 -20z" />
    <glyph glyph-name="minus.posn" horiz-adv-x="1130" 
d="M111 631h917q16 0 16 -21l-34 -188q-3 -21 -25 -21h-917q-17 0 -17 21l35 188q3 21 25 21z" />
    <glyph glyph-name="divide.posn" horiz-adv-x="1130" 
d="M381 262h221q19 0 19 -20l-43 -222q-3 -20 -25 -20h-221q-17 0 -17 20l43 222q3 20 23 20zM514 946h221q17 0 17 -20l-43 -221q-3 -21 -23 -21h-221q-19 0 -19 21l43 221q3 20 25 20zM94 588h922q16 0 16 -21l-35 -188q-3 -21 -24 -21h-922q-16 0 -16 21l35 188
q3 21 24 21z" />
    <glyph glyph-name="Euro.posn" horiz-adv-x="1236" 
d="M53 465h99q0 32 12 98h-92q-17 0 -17 21l29 143q3 21 25 21h120q74 139 209 220t310 81q195 0 303 -105.5t108 -269.5q-6 -21 -24 -21h-197q-16 0 -16 21q-8 70 -58 111.5t-135 41.5q-127 0 -209 -79h197q16 0 16 -21l-28 -143q-3 -21 -25 -21h-262q-12 -49 -12 -98h256
q16 0 16 -21l-29 -143q-3 -20 -24 -20h-185q53 -80 168 -80q85 0 151 41.5t99 111.5q5 9 7 12t6.5 6t11.5 3h192q21 0 21 -21q-134 -374 -521 -374q-166 0 -270 76t-139 225h-150q-16 0 -16 20l29 143q3 21 24 21z" />
    <glyph glyph-name="equal.posn" horiz-adv-x="1267" 
d="M215 819h913q17 0 17 -20l-37 -189q-3 -20 -25 -20h-913q-16 0 -16 20l36 189q6 20 25 20zM135 403h914q16 0 16 -20l-37 -188q-3 -21 -24 -21h-914q-19 0 -16 21l37 188q3 20 24 20z" />
    <glyph glyph-name="zero.posn" horiz-adv-x="1271" 
d="M37 418q0 194 84.5 338.5t229.5 218.5t329 74q216 0 353.5 -124t137.5 -315q0 -194 -84.5 -338.5t-229.5 -218t-329 -73.5q-216 0 -353.5 123.5t-137.5 314.5zM649 827q-152 0 -255 -110.5t-103 -270.5q0 -106 75 -175.5t193 -69.5q152 0 255.5 110.5t103.5 270.5
q0 106 -75.5 175.5t-193.5 69.5z" />
    <glyph glyph-name="one.posn" horiz-adv-x="675" 
d="M158 20l135 701l-219 -111q-12 -6 -25 -6q-10 0 -10 19l45 219q3 21 29 32l276 144q23 10 33 10h160q16 0 16 -20l-190 -988q-3 -20 -25 -20h-209q-16 0 -16 20z" />
    <glyph glyph-name="two.posn" horiz-adv-x="1011" 
d="M-8 20l26 144q6 26 33 47l473 324q62 42 95.5 85t33.5 95q0 48 -32.5 80t-85.5 32q-121 0 -168 -145q-6 -18 -13.5 -24.5t-21.5 -6.5h-180q-25 0 -25 31q33 173 152.5 270t277.5 97q172 0 258 -81t86 -204q0 -110 -52.5 -194.5t-166.5 -168.5l-246 -180h373q16 0 16 -20
l-34 -181q-3 -20 -25 -20h-758q-16 0 -16 20z" />
    <glyph glyph-name="three.posn" horiz-adv-x="1101" 
d="M367 336l36 180q3 21 25 21h121q72 0 129 45.5t57 115.5q0 58 -37.5 93.5t-105.5 35.5q-67 0 -125.5 -39t-85.5 -120q-5 -16 -11.5 -19.5t-19.5 -3.5h-178q-22 0 -22 31q32 168 158 270.5t294 102.5q183 0 279 -81t96 -210q0 -114 -49.5 -190.5t-149.5 -129.5
q137 -85 137 -264q0 -111 -39.5 -199.5t-108 -144t-157.5 -84.5t-192 -29q-180 0 -298 105.5t-118 273.5v31q3 31 31 31h186q12 0 17.5 -4.5t5.5 -20.5q0 -96 54.5 -145t149.5 -49q99 0 157.5 54t58.5 165q0 74 -44.5 115.5t-128.5 41.5h-106q-16 0 -16 21z" />
    <glyph glyph-name="four.posn" horiz-adv-x="1089" 
d="M412 -262l51 262h-510q-16 0 -16 20l28 146q7 27 27 47l686 799q13 16 31 16h188q16 0 16 -20l-155 -787h168q16 0 16 -20l-33 -181q-3 -20 -24 -20h-168l-51 -262q-3 -21 -27 -21h-211q-16 0 -16 21zM569 549l-272 -328h207z" />
    <glyph glyph-name="five.posn" horiz-adv-x="1095" 
d="M41 299l213 709q6 20 25 20h716q17 0 17 -20l-37 -181q-3 -20 -23 -20h-522l-92 -266q62 33 117.5 44t130.5 11q155 0 247.5 -96.5t92.5 -261.5q0 -240 -140.5 -380.5t-375.5 -140.5q-190 0 -303 107t-113 293q0 30 31 30h178q14 0 20.5 -6t7.5 -24q8 -93 56 -135.5
t151 -42.5q111 0 176.5 68t65.5 188q0 87 -47.5 133.5t-140.5 46.5q-101 0 -226 -78q-22 -18 -37 -18h-172q-16 0 -16 20z" />
    <glyph glyph-name="six.posn" horiz-adv-x="1138" 
d="M53 449q0 93 17 191t49.5 195t85.5 182.5t119 151.5t155.5 104t190.5 38q164 0 265 -88.5t101 -241.5q0 -27 -2 -41q-2 -20 -24 -20h-187q-17 0 -20 20q-8 78 -43.5 114t-114.5 36q-100 0 -165.5 -69t-102.5 -228q115 67 258 67q157 0 251.5 -95t94.5 -273
q0 -148 -67 -265.5t-183.5 -182t-259.5 -64.5q-86 0 -159.5 27t-132.5 81.5t-92.5 147t-33.5 213.5zM541 633q-101 0 -171.5 -74t-70.5 -174q0 -86 52.5 -132t129.5 -46q101 0 169.5 74t68.5 182q0 81 -45.5 125.5t-132.5 44.5z" />
    <glyph glyph-name="seven.posn" horiz-adv-x="921" 
d="M72 827l34 181q3 20 25 20h780q17 0 17 -20l-29 -140q-12 -33 -18 -43l-607 -1093q-9 -15 -26 -15h-211q-17 0 -17 15q0 1 1 2.5t2 4.5t2 5l587 1063h-522q-18 0 -18 20z" />
    <glyph glyph-name="eight.posn" horiz-adv-x="1071" 
d="M193 909q0 117 62 210.5t162 142.5t216 49q166 0 261 -82t95 -232q0 -196 -190 -311q116 -96 116 -268q0 -132 -63 -232.5t-171 -153t-243 -52.5q-178 0 -286.5 92.5t-108.5 240.5q0 128 62.5 223.5t179.5 151.5q-92 88 -92 221zM502 563q-86 0 -145.5 -63.5
t-59.5 -151.5q0 -66 43.5 -110.5t120.5 -44.5q89 0 145 60t56 157q0 68 -40 110.5t-120 42.5zM612 1090q-71 0 -126.5 -48t-55.5 -118q0 -66 38 -103t99 -37q76 0 128.5 53t52.5 124q0 62 -37 95.5t-99 33.5z" />
    <glyph glyph-name="nine.posn" horiz-adv-x="1144" 
d="M1001 580q0 -113 -23.5 -230.5t-73.5 -231.5t-121 -203t-174 -143.5t-224 -54.5q-164 0 -265.5 88.5t-101.5 241.5q0 27 2 41q2 21 25 21h186q18 0 21 -21q8 -78 43.5 -113.5t114.5 -35.5q100 0 165.5 69t102.5 228q-117 -68 -258 -68q-158 0 -252 94.5t-94 274.5
q0 148 67 265.5t183.5 182t259.5 64.5q86 0 159.5 -27.5t132 -82t92 -146.5t33.5 -213zM514 395q101 0 171.5 74t70.5 174q0 86 -53 132t-130 46q-101 0 -169 -74t-68 -182q0 -81 45.5 -125.5t132.5 -44.5z" />
    <glyph glyph-name="ampersand.alt" horiz-adv-x="1318" 
d="M1257 657h-170l-18 -98q-24 -133 -67.5 -234t-99 -166t-127.5 -105.5t-148 -57t-166 -16.5q-196 0 -311 100.5t-115 292.5q0 140 79.5 252.5t215.5 173.5q-31 34 -44 51t-32 49t-26 69.5t-7 86.5q0 184 135 291.5t353 107.5h217q18 0 18 -20l-37 -189q-6 -20 -24 -20
h-197q-92 0 -154.5 -47t-62.5 -123q0 -160 186 -160h224l34 176q3 21 25 21h213q16 0 16 -21l-34 -176h170q18 0 18 -23l-37 -192q-3 -23 -27 -23zM811 541l23 116h-228q-123 0 -216 -74.5t-93 -193.5q0 -85 52.5 -128.5t146.5 -43.5q113 0 198.5 80.5t116.5 243.5z" />
    <glyph glyph-name="braceleft.ss03" horiz-adv-x="808" 
d="M465 545l-27 -135q-8 -33 -8 -74q0 -53 26 -75.5t83 -22.5h59q16 0 16 -21l-39 -197q-3 -20 -24 -20h-107q-138 0 -211 66t-73 198q0 64 10 115l16 82q7 35 7 49q0 88 -99 88h-59q-17 0 -17 20l39 197q3 21 25 21h59q68 0 100 31.5t46 105.5l14 84q18 107 53.5 180.5
t90 116.5t122 61.5t158.5 18.5h106q17 0 17 -21l-39 -196q-3 -21 -25 -21h-59q-73 0 -110.5 -41.5t-55.5 -130.5l-27 -135q-17 -76 -54 -113.5t-111 -58.5q54 -18 77 -45t23 -82q0 -27 -2 -45z" />
    <glyph glyph-name="braceright.ss03" horiz-adv-x="808" 
d="M344 889l27 135q8 33 8 74q0 53 -26 75.5t-83 22.5h-59q-16 0 -16 21l38 196q3 21 25 21h107q138 0 211 -66.5t73 -198.5q0 -63 -10 -114l-16 -82q-7 -35 -7 -49q0 -88 99 -88h59q17 0 17 -21l-39 -197q-3 -20 -25 -20h-59q-68 0 -100 -31.5t-46 -105.5l-14 -84
q-18 -107 -53.5 -180.5t-90 -116.5t-122 -61.5t-158.5 -18.5h-107q-16 0 -16 20l39 197q3 21 25 21h59q73 0 110.5 41.5t55.5 130.5l26 135q17 76 54.5 113.5t111.5 58.5q-54 18 -77 45t-23 82q0 27 2 45z" />
    <glyph glyph-name="bracketleft.ss03" horiz-adv-x="856" 
d="M31 20l272 1393q3 21 25 21h575q17 0 17 -21l-39 -196q-3 -21 -25 -21h-330l-186 -958h330q16 0 16 -21l-39 -197q-3 -20 -24 -20h-576q-16 0 -16 20z" />
    <glyph glyph-name="bracketright.ss03" horiz-adv-x="856" 
d="M825 1413l-272 -1393q-3 -20 -25 -20h-575q-16 0 -16 20l38 197q3 21 25 21h330l186 958h-330q-16 0 -16 21l39 196q3 21 24 21h576q16 0 16 -21z" />
    <glyph glyph-name="parenleft.ss03" horiz-adv-x="698" 
d="M381 737l-4 -24q-23 -135 -23 -205q0 -89 41 -169.5t137 -176.5q7 -7 7 -12q0 -10 -9 -19l-147 -151q-9 -9 -16 -9q-9 0 -15 6q-123 99 -189.5 247.5t-66.5 297.5q0 55 10 113l44 217q30 151 93.5 265.5t155 197.5t230.5 162q12 4 14 4q9 0 14 -8l107 -164q4 -8 4 -15
q0 -8 -10 -18q-76 -53 -122 -89.5t-92 -84t-73.5 -96.5t-50.5 -115.5t-39 -153.5z" />
    <glyph glyph-name="parenright.ss03" horiz-adv-x="698" 
d="M336 715l4 24q22 129 22 205q0 89 -41 169.5t-137 176.5q-6 6 -6 13q0 10 8 18l148 152q8 8 16 8q9 0 15 -6q123 -103 189.5 -249.5t66.5 -295.5q0 -49 -11 -113l-43 -217q-30 -151 -93.5 -265.5t-155 -197.5t-230.5 -162q-12 -4 -14 -4q-9 0 -15 9l-106 163q-4 8 -4 15
q0 8 10 18q95 66 149.5 111.5t102 107.5t75.5 136t50 184z" />
    <glyph glyph-name="braceleft.case" horiz-adv-x="815" 
d="M492 526l-62 -317q-6 -35 -6 -62q0 -110 111 -110h55q16 0 16 -21l-39 -196q-3 -21 -24 -21h-97q-139 0 -215.5 72.5t-76.5 212.5q0 54 12 121l51 258q6 30 6 49q0 88 -98 88h-59q-17 0 -17 21l39 196q3 21 25 21h59q61 0 96.5 33t48.5 104l56 285q27 146 81 229.5
t133.5 116t203.5 32.5h110q17 0 17 -20l-39 -197q-3 -20 -25 -20h-55q-73 0 -112.5 -41.5t-57.5 -130.5l-66 -338q-17 -78 -53.5 -116.5t-108.5 -55.5q97 -31 97 -131q0 -28 -6 -62z" />
    <glyph glyph-name="braceright.case" horiz-adv-x="815" 
d="M315 911l62 318q6 35 6 61q0 111 -111 111h-55q-16 0 -16 20l39 197q3 20 24 20h96q139 0 216 -72t77 -212q0 -54 -12 -121l-51 -258q-6 -30 -6 -49q0 -88 98 -88h59q17 0 17 -21l-39 -196q-3 -21 -25 -21h-59q-61 0 -97 -33t-49 -104l-55 -285q-29 -147 -82 -230
t-132 -116t-204 -33h-110q-17 0 -17 21l39 196q3 21 25 21h55q73 0 112.5 41.5t57.5 130.5l66 338q17 78 53.5 116.5t108.5 55.5q-97 31 -97 131q0 26 6 61z" />
    <glyph glyph-name="bracketleft.case" horiz-adv-x="915" 
d="M-37 -180l348 1798q3 20 25 20h575q17 0 17 -20l-39 -197q-3 -20 -25 -20h-329l-265 -1364h330q16 0 16 -21l-38 -196q-3 -21 -25 -21h-573q-17 0 -17 21z" />
    <glyph glyph-name="bracketright.case" horiz-adv-x="915" 
d="M897 1618l-348 -1798q-3 -21 -25 -21h-575q-17 0 -17 21l39 196q3 21 25 21h330l264 1364h-330q-16 0 -16 20l39 197q3 20 24 20h574q16 0 16 -20z" />
    <glyph glyph-name="parenleft.case" horiz-adv-x="792" 
d="M457 799l-31 -158q-39 -201 -39 -291q0 -109 43 -188t148 -199q13 -13 -3 -29l-157 -141q-15 -15 -31 -2q-136 128 -197 247.5t-61 278.5q0 95 29 250l59 305q33 163 75.5 277.5t109 204t144 154.5t199.5 141q21 12 27 -2l121 -170q13 -16 -6 -29q-61 -46 -97.5 -74.5
t-79 -65t-66.5 -63t-51.5 -64t-43.5 -72.5t-34 -83.5t-31 -102t-27 -124.5z" />
    <glyph glyph-name="parenright.case" horiz-adv-x="792" 
d="M346 641l31 158q39 201 39 291q0 58 -11 105t-41 97t-56 84t-83 101q-13 13 2 28l158 142q15 15 31 2q136 -128 197 -248t61 -279q0 -95 -29 -250l-59 -305q-26 -130 -60 -230t-75.5 -176.5t-102 -141.5t-127.5 -117t-164 -111q-20 -12 -26 2l-121 170q-13 16 6 29
q83 62 127 97t94.5 83.5t75.5 86.5t53 96.5t45 125t35 160.5z" />
    <glyph glyph-name="bullet.case" horiz-adv-x="780" 
d="M127 717q0 115 79.5 194.5t194.5 79.5q116 0 195.5 -79.5t79.5 -194.5t-80 -195t-195 -80t-194.5 79.5t-79.5 195.5z" />
    <glyph glyph-name="exclamdown.case" horiz-adv-x="718" 
d="M342 0h-221q-17 0 -17 20l195 998q3 20 25 20h221q16 0 16 -20l-194 -998q-3 -20 -25 -20zM580 1155h-246q-17 0 -17 21l48 237q3 21 24 21h246q16 0 16 -21l-47 -237q-3 -21 -24 -21z" />
    <glyph glyph-name="questiondown.case" horiz-adv-x="1120" 
d="M999 414q-31 -185 -174 -309.5t-358 -124.5q-199 0 -306.5 90.5t-107.5 238.5q0 76 22 138.5t58.5 106t80.5 81.5t91 73t87.5 71t72.5 84t43 104l10 51q3 20 25 20h221q16 0 16 -20l-10 -51q-17 -80 -51 -145.5t-75 -108.5t-87 -79t-88.5 -66t-77.5 -60t-55.5 -68.5
t-20.5 -85.5q0 -58 42.5 -95.5t123.5 -37.5q89 0 159 48.5t110 144.5q9 20 24 20h209q16 0 16 -20zM799 1155h-246q-16 0 -16 21l47 237q3 21 24 21h246q16 0 16 -21l-47 -237q-3 -21 -24 -21z" />
    <glyph glyph-name="at.case" horiz-adv-x="1654" 
d="M1411 821q0 210 -125 331.5t-373 121.5q-137 0 -256 -48.5t-206 -135.5t-137 -214t-50 -276q0 -234 134 -364t374 -130q54 0 102.5 7t77 12.5t75.5 26t60.5 27.5t69.5 36q2 2 10 2t15 -10l57 -133q2 -4 2 -13t-12 -18q-228 -117 -475 -117q-151 0 -279 45.5t-221 130
t-145 212.5t-52 286q0 248 116 444t315 303t444 107q205 0 361 -79t237.5 -213.5t81.5 -301.5q0 -166 -46 -292t-139.5 -199.5t-224.5 -73.5q-143 0 -207 100q-121 -100 -276 -100q-64 0 -119.5 18.5t-100.5 55.5t-71.5 100.5t-26.5 146.5q0 209 138 349.5t338 140.5
q141 0 223 -68l10 37q3 17 20 17h134q16 0 16 -17l-125 -411l-18 -72q-4 -28 -4 -41q0 -40 23.5 -61t60.5 -21q61 0 107 56t66.5 134.5t20.5 161.5zM1008 768q0 85 -36.5 124.5t-115.5 39.5q-103 0 -180.5 -94t-77.5 -207q0 -162 145 -162q60 0 112.5 30.5t84.5 77t50 97
t18 94.5z" />
    <glyph glyph-name="guilsinglleft.case" horiz-adv-x="733" 
d="M713 1249l-49 -258q-3 -21 -21 -33l-324 -243l228 -252q10 -10 10 -19q0 -8 -2 -14l-43 -229q-3 -15 -14 -15q-6 0 -13 7l-395 432q-15 18 -12 37l24 137q3 23 29 37l559 421l10 5q13 0 13 -13z" />
    <glyph glyph-name="guilsinglright.case" horiz-adv-x="733" 
d="M59 182l50 258q3 22 20 33l324 244l-228 252q-10 10 -10 18t2 14l43 230q3 14 14 14q7 0 13 -6l395 -432q15 -18 12 -37l-24 -137q-3 -23 -29 -37l-559 -422q-8 -4 -10 -4q-13 0 -13 12z" />
    <glyph glyph-name="guillemotleft.case" horiz-adv-x="1169" 
d="M711 1249l-49 -258q-3 -21 -21 -33l-324 -243l228 -252q10 -10 10 -19q0 -8 -2 -14l-43 -229q-3 -15 -14 -15q-6 0 -13 7l-395 432q-15 18 -12 37l24 137q3 23 29 37l559 421l10 5q13 0 13 -13zM1145 1249l-49 -258q-3 -21 -21 -33l-323 -243l227 -252q10 -10 10 -19
q0 -8 -2 -14l-43 -229q-3 -15 -14 -15q-5 0 -12 7l-396 432q-15 18 -12 37l25 137q3 23 28 37l559 421q10 5 11 5q12 0 12 -13z" />
    <glyph glyph-name="guillemotright.case" horiz-adv-x="1169" 
d="M494 182l49 258q3 22 20 33l324 244l-228 252q-10 10 -10 18t2 14l43 230q3 14 15 14q6 0 12 -6l395 -432q15 -18 12 -37l-24 -137q-3 -23 -29 -37l-559 -422q-8 -4 -10 -4q-12 0 -12 12zM59 182l50 258q3 22 20 33l324 244l-228 252q-10 10 -10 18t2 14l43 230
q3 14 14 14q7 0 13 -6l395 -432q15 -18 12 -37l-24 -137q-3 -23 -29 -37l-559 -422q-8 -4 -10 -4q-13 0 -13 12z" />
    <glyph glyph-name="zero.tn" 
d="M47 543q0 91 14 182.5t43.5 181.5t71.5 171t102 150t131 119t161.5 78.5t191.5 28.5q222 0 344.5 -139t122.5 -424q0 -91 -14 -182.5t-43.5 -181.5t-71.5 -171t-102 -150t-131 -119t-161.5 -78.5t-191.5 -28.5q-222 0 -344.5 139t-122.5 424zM733 1212q-103 0 -186.5 -63
t-134 -162.5t-77 -213t-26.5 -224.5q0 -328 234 -328q103 0 186.5 63t134 163t77 213.5t26.5 224.5q0 327 -234 327z" />
    <glyph glyph-name="one.tn" 
d="M973 0h-897q-17 0 -17 20l39 201q3 21 25 21h319l164 837l-317 -157q-14 -7 -25 -7q-10 0 -10 19l47 250q3 21 29 30l415 209q26 11 37 11h131q17 0 17 -21l-230 -1171h320q16 0 16 -21l-39 -201q-3 -20 -24 -20z" />
    <glyph glyph-name="two.tn" 
d="M20 20l31 162q6 28 31 47l635 502q83 63 140.5 143t57.5 162q0 81 -51 128.5t-147 47.5q-93 0 -162 -57t-98 -162q-6 -18 -12.5 -24t-20.5 -6h-188q-25 0 -25 30q33 205 179.5 333t357.5 128q207 0 316.5 -100.5t109.5 -266.5q0 -158 -71 -273.5t-218 -235.5l-414 -336
h563q17 0 17 -21l-39 -201q-3 -20 -25 -20h-950q-17 0 -17 20z" />
    <glyph glyph-name="three.tn" 
d="M494 666l36 196q3 23 27 23h113q106 0 175.5 51t69.5 141q0 63 -45 99t-133 36q-82 0 -149.5 -45.5t-102.5 -134.5q-6 -16 -11.5 -20t-18.5 -4h-191q-24 0 -24 34q41 189 182.5 300.5t335.5 111.5q191 0 301 -90t110 -246q0 -105 -51.5 -194t-152.5 -148
q147 -80 147 -289q0 -232 -154.5 -369.5t-408.5 -137.5q-215 0 -338 109.5t-123 301.5q0 32 2 55q1 17 11 26t22 9h190q13 0 19 -5t6 -21q-2 -18 -2 -33q0 -105 65 -153t170 -48q121 0 200 67t79 181q0 89 -52 131.5t-173 42.5h-113q-18 0 -18 23z" />
    <glyph glyph-name="four.tn" 
d="M598 20l43 218h-590q-16 0 -16 20l28 158q8 30 25 47l817 954q14 17 31 17h176q16 0 16 -21l-182 -934h193q16 0 16 -20l-39 -201q-3 -20 -24 -20h-193l-43 -218q-3 -20 -27 -20h-215q-16 0 -16 20zM774 918l-379 -439h293z" />
    <glyph glyph-name="five.tn" 
d="M135 616l244 797q6 21 24 21h803q17 0 17 -21l-39 -201q-3 -20 -25 -20h-588l-110 -307q133 65 270 65q186 0 291.5 -103.5t105.5 -287.5q0 -269 -155.5 -424t-425.5 -155q-216 0 -336.5 115.5t-120.5 291.5q0 14 2 37q3 31 31 31h188q25 0 27 -31q5 -105 64 -154
t182 -49q120 0 201 83.5t81 215.5q0 88 -56 138.5t-159 50.5q-152 0 -286 -95q-25 -18 -39 -18h-174q-19 0 -19 12v4q0 2 2 4z" />
    <glyph glyph-name="six.tn" 
d="M100 506q0 138 27.5 273t85 257t138 215t193.5 148t244 55q210 0 316 -106t106 -279q-4 -13 -9.5 -16.5t-16.5 -3.5h-205q-10 0 -13 4t-5 16q-20 143 -189 143q-119 0 -207.5 -86.5t-142.5 -291.5q152 92 317 92q171 0 284.5 -110.5t113.5 -297.5q0 -234 -160 -386
t-416 -152q-99 0 -180.5 29.5t-145.5 90.5t-99.5 164.5t-35.5 241.5zM662 684q-113 0 -195 -76.5t-82 -189.5q0 -94 53 -145.5t156 -51.5q120 0 200 72.5t80 185.5q0 99 -52.5 152t-159.5 53z" />
    <glyph glyph-name="seven.tn" 
d="M240 1212l39 201q3 21 24 21h926q16 0 16 -21l-33 -160q-2 -6 -4 -15t-5 -17.5t-9 -18.5l-694 -1188q-8 -14 -27 -14h-229q-17 0 -17 14q0 3 1 5.5t2.5 6t2.5 5.5l672 1161h-649q-16 0 -16 20z" />
    <glyph glyph-name="eight.tn" 
d="M264 1014q0 124 69 225t187.5 158t261.5 57q186 0 294 -93.5t108 -264.5q0 -98 -55 -186.5t-166 -147.5q143 -97 143 -283q0 -156 -74.5 -270t-202.5 -171.5t-294 -57.5q-202 0 -321.5 106t-119.5 283q0 131 75.5 234.5t203.5 162.5q-109 101 -109 248zM627 635
q-111 0 -191 -66t-80 -174q0 -84 57.5 -129t153.5 -45q124 0 200.5 65.5t76.5 174.5q0 86 -56 130t-161 44zM748 1217q-98 0 -170 -51t-72 -138q0 -75 47 -115.5t137 -40.5q101 0 173.5 54.5t72.5 144.5q0 71 -50 108.5t-138 37.5z" />
    <glyph glyph-name="nine.tn" 
d="M1196 928q0 -138 -27.5 -273t-85 -257t-138 -215t-193.5 -148t-244 -55q-210 0 -316 106t-106 279q4 13 10 16.5t17 3.5h204q10 0 13.5 -4.5t5.5 -15.5q20 -144 188 -144q119 0 207.5 87t142.5 292q-152 -92 -317 -92q-171 0 -284 110t-113 297q0 234 160 386.5
t415 152.5q99 0 180.5 -29.5t145.5 -90.5t99.5 -164.5t35.5 -241.5zM635 750q113 0 194.5 76.5t81.5 189.5q0 94 -53 145t-156 51q-120 0 -200 -72.5t-80 -185.5q0 -99 53 -151.5t160 -52.5z" />
    <glyph glyph-name="zero.slashtn" 
d="M51 543q0 128 27.5 256t86 246.5t140.5 209t200.5 145t256.5 54.5q226 0 348.5 -138.5t122.5 -424.5q0 -107 -19.5 -213.5t-57.5 -209t-98.5 -190.5t-138 -155t-182 -105t-223.5 -38q-219 0 -341 139.5t-122 423.5zM743 1212h-10q-100 0 -182.5 -63t-133 -162.5
t-77.5 -213.5t-27 -224q0 -136 37 -209zM971 885q0 136 -37 209l-393 -873h10q81 0 150.5 41.5t118 110t83.5 155.5t51.5 178.5t16.5 178.5z" />
    <glyph glyph-name="zero.slash" horiz-adv-x="1288" 
d="M1235 891q0 -128 -27.5 -256t-86 -246.5t-140.5 -209t-200.5 -145t-256.5 -54.5q-226 0 -348.5 138.5t-122.5 424.5q0 107 19.5 213.5t57.5 209t98.5 190.5t138 155t182 105t223.5 38q219 0 341 -139.5t122 -423.5zM543 221h10q81 0 150.5 41.5t118 110t83.5 155.5
t51.5 178.5t16.5 178.5q0 136 -37 209zM315 549q0 -136 37 -209l393 872h-10q-100 0 -182.5 -63t-133 -162.5t-77.5 -213.5t-27 -224z" />
    <glyph glyph-name="zero.slashposn" horiz-adv-x="1271" 
d="M37 414q0 195 84.5 340.5t229.5 220t329 74.5q213 0 352 -123.5t139 -311.5q0 -147 -49 -267t-135 -200t-203.5 -123.5t-255.5 -43.5q-213 0 -352 123t-139 311zM918 582q0 77 -44 139l-374 -514q24 -6 55 -6q151 0 257 111t106 270zM653 827q-151 0 -256.5 -111
t-105.5 -270q0 -79 43 -139l375 514q-24 6 -56 6z" />
    <glyph glyph-name="zero.slashtosn" 
d="M59 414q0 195 84.5 340.5t229.5 220t329 74.5q213 0 352.5 -123.5t139.5 -311.5q0 -147 -49 -267t-135 -200t-203.5 -123.5t-255.5 -43.5q-213 0 -352.5 123t-139.5 311zM940 582q0 79 -43 139l-375 -514q24 -6 56 -6q151 0 256.5 111t105.5 270zM676 827
q-151 0 -257 -111t-106 -270q0 -79 43 -139l375 514q-24 6 -55 6z" />
    <glyph glyph-name="zero.slashsuperior" horiz-adv-x="763" 
d="M92 969q0 92 24 176t70.5 152t123 108.5t173.5 40.5q123 0 202 -79.5t79 -233.5q0 -92 -24 -176t-70.5 -152.5t-123 -109t-173.5 -40.5q-123 0 -202 80t-79 234zM276 983q0 -53 9 -80l174 379q-60 -3 -103 -51.5t-61.5 -113t-18.5 -134.5zM580 1118q0 53 -9 80l-174 -379
q60 3 103 51.5t61.5 113t18.5 134.5z" />
    <glyph glyph-name="zero.slashinferior" horiz-adv-x="763" 
d="M-72 -104q0 92 24 176t70.5 152t123 108.5t173.5 40.5q123 0 202 -80t79 -234q0 -92 -24 -176t-70.5 -152t-123 -108.5t-173.5 -40.5q-123 0 -202 80t-79 234zM113 -90q0 -56 8 -80l174 379q-60 -3 -103 -51.5t-61 -113t-18 -134.5zM416 45q0 56 -8 80l-175 -379
q60 3 103 51.5t61.5 113t18.5 134.5z" />
    <glyph glyph-name="g.alt" horiz-adv-x="1261" 
d="M629 350q-168 0 -254 64q-49 -19 -84 -52.5t-35 -72.5q0 -40 24 -61t66 -21q37 0 131 19.5t174 19.5q109 0 195.5 -32t140 -98t53.5 -157q0 -103 -43.5 -179t-121 -120t-172 -65t-207.5 -21q-224 0 -350 79t-126 216q0 120 95 209q-99 68 -99 182q0 102 68 181.5
t188 121.5q-16 50 -16 96q0 161 127 275.5t307 114.5q131 0 215 -41l172 137q8 8 17 8q7 0 14 -10l102 -131q7 -11 7 -15q0 -8 -15 -20l-160 -125q15 -47 15 -76q0 -103 -35.5 -186t-96 -134.5t-136.5 -78.5t-160 -27zM344 6q-42 -17 -60 -40.5t-18 -61.5q0 -56 68.5 -82.5
t169.5 -26.5q51 0 95 6.5t84 21t63.5 42t23.5 65.5q0 50 -43.5 75.5t-148.5 25.5q-70 0 -145 -12t-89 -13zM672 836q-63 0 -112.5 -44t-49.5 -114q0 -58 34 -86.5t91 -28.5q68 0 116 45t48 115q0 54 -33.5 83.5t-93.5 29.5z" />
    </font>
</defs>
</svg>
