<?xml version="1.0" standalone="no"?>
<!DOCTYPE svg PUBLIC "-//W3C//DTD SVG 1.1//EN" "http://www.w3.org/Graphics/SVG/1.1/DTD/svg11.dtd" >
<svg xmlns="http://www.w3.org/2000/svg" xmlns:xlink="http://www.w3.org/1999/xlink" version="1.1">
<metadata>
Created by FontForge 20201107 at Wed Sep 11 12:56:53 2024
 By 
Copyright (c) 2011 by Colophon Foundry. All rights reserved. |DCNT
</metadata>
<defs>
<font id="Relative-Mono10Pitch" horiz-adv-x="1232" >
  <font-face 
    font-family="Relative Mono 10 Pitch"
    font-weight="750"
    font-stretch="normal"
    units-per-em="2048"
    panose-1="2 0 5 9 4 0 0 2 0 4"
    ascent="1638"
    descent="-410"
    x-height="1028"
    cap-height="1434"
    bbox="-25 -561 1274 2044"
    underline-thickness="102"
    underline-position="-204"
    unicode-range="U+000D-FB02"
  />
<missing-glyph 
d="M1069 1413v-1393q0 -20 -20 -20h-865q-20 0 -20 20v1393q0 21 20 21h865q20 0 20 -21zM897 1270h-561v-1106h561v1106z" />
    <glyph glyph-name=".notdef" 
d="M1069 1413v-1393q0 -20 -20 -20h-865q-20 0 -20 20v1393q0 21 20 21h865q20 0 20 -21zM897 1270h-561v-1106h561v1106z" />
    <glyph glyph-name=".null" 
 />
    <glyph glyph-name=".null" 
 />
    <glyph glyph-name="nonmarkingreturn" 
 />
    <glyph glyph-name="CR" unicode="&#xd;" 
 />
    <glyph glyph-name="space" unicode=" " 
 />
    <glyph glyph-name="exclam" unicode="!" 
d="M551 1434h131q20 0 20 -21v-1014q0 -20 -20 -20h-131q-21 0 -21 20v1014q0 21 21 21zM516 242h201q20 0 20 -21v-201q0 -20 -20 -20h-201q-20 0 -20 20v201q0 21 20 21z" />
    <glyph glyph-name="quotedbl" unicode="&#x22;" 
d="M369 983v430q0 21 20 21h119q20 0 20 -21v-430q0 -20 -20 -20h-119q-20 0 -20 20zM705 983v430q0 21 20 21h119q20 0 20 -21v-430q0 -20 -20 -20h-119q-20 0 -20 20z" />
    <glyph glyph-name="numbersign" unicode="#" 
d="M643 20l59 386h-253l-60 -386q-3 -20 -22 -20h-131q-19 0 -19 20l59 386h-155q-21 0 -21 20v123q0 20 21 20h182l47 295h-147q-21 0 -21 21v123q0 20 21 20h174l59 385q3 21 23 21h131q18 0 18 -21l-59 -385h254l59 385q3 21 23 21h131q18 0 18 -21l-59 -385h155
q21 0 21 -20v-123q0 -21 -21 -21h-182l-47 -295h148q20 0 20 -20v-123q0 -20 -20 -20h-175l-59 -386q-3 -20 -22 -20h-131q-19 0 -19 20zM522 864l-47 -295h254l47 295h-254z" />
    <glyph glyph-name="dollar" unicode="$" 
d="M510 -184v170q-189 25 -304.5 142t-115.5 296q0 20 21 20h131q20 0 20 -20q0 -101 66.5 -176t181.5 -98v534q-93 27 -160 57t-122 74.5t-83 106t-28 141.5q0 161 110.5 262.5t282.5 122.5v170q0 20 20 20h132q20 0 20 -20v-170q180 -24 286.5 -134t106.5 -259
q0 -21 -20 -21h-131q-21 0 -21 21q0 78 -62 142t-159 87v-477q82 -24 140.5 -45t119 -53.5t97 -69.5t60 -90.5t23.5 -118.5q0 -104 -33.5 -186t-94 -135.5t-139 -84.5t-173.5 -40v-168q0 -21 -20 -21h-132q-20 0 -20 21zM950 416q0 44 -20.5 79t-59.5 61t-83 44.5t-105 36.5
v-490q125 18 196.5 84.5t71.5 184.5zM289 1075q0 -153 221 -219v428q-101 -18 -161 -72t-60 -137z" />
    <glyph glyph-name="percent" unicode="%" 
d="M164 340l803 834q8 8 14 8t14 -8l52 -52q8 -8 8 -14q0 -8 -6 -14l-803 -834q-8 -8 -15 -8q-6 0 -14 8l-51 51q-8 8 -8 15q0 8 6 14zM637 1128q0 -149 -91 -237t-216 -88t-216 88t-91 237t91 237.5t216 88.5t216 -88.5t91 -237.5zM518 1128q0 109 -52 162t-136 53
t-136.5 -53t-52.5 -162t52.5 -162t136.5 -53t136 53t52 162zM1190 305q0 -149 -91 -237t-216 -88q-126 0 -217 88.5t-91 236.5q0 149 91.5 237.5t216.5 88.5t216 -88.5t91 -237.5zM1071 305q0 109 -52 162t-136 53t-136.5 -53t-52.5 -162t52.5 -162t136.5 -53t136 53t52 162
z" />
    <glyph glyph-name="ampersand" unicode="&#x26;" 
d="M1163 571h-112q-12 -169 -72 -299l172 -239q6 -18 6 -19q0 -14 -16 -14h-156q-15 0 -27 18l-77 109q-141 -147 -369 -147q-84 0 -159.5 28t-136 81.5t-96.5 140.5t-36 196q0 256 287 422l-6 10q-55 76 -78 141.5t-23 149.5q0 132 90.5 218.5t245.5 86.5q152 0 240 -85.5
t88 -205.5q0 -116 -52 -188t-157 -125l-111 -55l256 -363q31 113 31 285q0 18 20 18h248q21 0 21 -20v-123q0 -21 -21 -21zM512 139q180 0 274 121l-323 459q-107 -66 -157 -142t-50 -174q0 -118 76 -191t180 -73zM428 1133q0 -50 18.5 -94.5t71.5 -118.5l125 57
q121 54 121 176q0 63 -44.5 106.5t-119.5 43.5q-80 0 -126 -45.5t-46 -124.5z" />
    <glyph glyph-name="quotesingle" unicode="'" 
d="M537 983v430q0 21 20 21h119q20 0 20 -21v-430q0 -20 -20 -20h-119q-20 0 -20 20z" />
    <glyph glyph-name="parenleft" unicode="(" 
d="M582 655v-280q0 -92 5.5 -158.5t23 -125.5t38 -100t62.5 -90t83 -88t113 -100q8 -8 8 -14q0 -5 -6 -14l-80 -97q-8 -8 -14 -8q-5 0 -14 6q-154 129 -234.5 227.5t-118.5 215.5t-38 282v408q0 165 38 282t118.5 215.5t234.5 227.5q9 6 14 6q6 0 14 -8l80 -96q6 -9 6 -15
t-8 -14q-72 -61 -113 -100t-83 -88t-62.5 -90t-38 -100t-23 -125.5t-5.5 -158.5z" />
    <glyph glyph-name="parenright" unicode=")" 
d="M662 375v280q0 92 -5.5 158.5t-23 125.5t-38 100t-63 90.5t-83.5 88t-113 99.5q-8 8 -8 14t6 15l80 96q8 8 14 8q5 0 14 -6q116 -97 186.5 -171.5t119 -159.5t67.5 -177t19 -217v-408q0 -125 -19 -217t-67.5 -177t-119 -159.5t-186.5 -171.5q-9 -6 -14 -6q-6 0 -14 8
l-80 97q-6 9 -6 14q0 6 8 14q72 61 113 99.5t83.5 88t63 90.5t38 100t23 125.5t5.5 158.5z" />
    <glyph glyph-name="asterisk" unicode="*" 
d="M240 1122l30 99q3 14 17 14h2q1 0 1.5 -0.5t2 -1t4.5 -0.5l248 -80v260q0 21 20 21h103q20 0 20 -21v-260l248 80q4 0 6 1q1 1 2 1h2q14 0 17 -14l30 -99v-4q0 -2 2 -4q0 -12 -14 -18l-248 -80l154 -211q6 -9 6 -14q0 -10 -8 -15l-84 -61q-9 -6 -17 -6q-7 0 -14 10
l-154 211l-153 -211q-7 -10 -14 -10q-8 0 -17 6l-84 61q-8 5 -8 15q0 5 6 14l154 211l-248 80q-14 6 -14 18v4q0 2 2 4z" />
    <glyph glyph-name="plus" unicode="+" 
d="M696 1120v-340h340q21 0 21 -20v-119q0 -20 -21 -20h-340v-340q0 -21 -20 -21h-119q-20 0 -20 21v340h-340q-21 0 -21 20v119q0 20 21 20h340v340q0 21 20 21h119q20 0 20 -21z" />
    <glyph glyph-name="comma" unicode="," 
d="M512 -111q58 0 76 20t18 77v14h-94q-20 0 -20 20v209q0 21 20 21h209q20 0 20 -21v-288q0 -83 -41 -124.5t-116 -41.5h-72q-20 0 -20 20v74q0 20 20 20z" />
    <glyph glyph-name="hyphen" unicode="-" 
d="M252 780h729q20 0 20 -20v-119q0 -20 -20 -20h-729q-21 0 -21 20v119q0 20 21 20z" />
    <glyph glyph-name="period" unicode="." 
d="M512 250h209q20 0 20 -21v-209q0 -20 -20 -20h-209q-20 0 -20 20v209q0 21 20 21z" />
    <glyph glyph-name="slash" unicode="/" 
d="M119 20l784 1393q12 21 29 21h145q17 0 17 -11q0 -1 -0.5 -2t-1.5 -3.5t-2 -4.5l-785 -1393q-11 -20 -29 -20h-145q-16 0 -16 10q0 1 0.5 2t1.5 3.5t2 4.5z" />
    <glyph glyph-name="zero" unicode="0" 
d="M113 717q0 354 138 545.5t365 191.5t365.5 -191.5t138.5 -545.5t-138.5 -545.5t-365.5 -191.5t-365 191.5t-138 545.5zM285 717q0 -359 121 -492l290 1061q-31 8 -80 8q-164 0 -247.5 -136.5t-83.5 -440.5zM948 717q0 358 -121 491l-290 -1061q31 -8 79 -8q164 0 248 137
t84 441z" />
    <glyph glyph-name="one" unicode="1" 
d="M242 20v119q0 21 20 21h328v1046l-299 -162q-12 -6 -23 -6q-14 0 -14 19v141q0 18 22 31l357 194q18 11 31 11h73q21 0 21 -21v-1253h327q21 0 21 -21v-119q0 -20 -21 -20h-823q-20 0 -20 20z" />
    <glyph glyph-name="two" unicode="2" 
d="M154 20v86q0 29 22 48l565 544q83 79 114.5 154t31.5 176q0 124 -73.5 195t-203.5 71q-135 0 -210.5 -79.5t-75.5 -196.5q0 -18 -6.5 -24.5t-20.5 -6.5h-117q-24 0 -24 31q5 189 125.5 312.5t328.5 123.5q198 0 321.5 -118t123.5 -298q0 -139 -45.5 -241t-143.5 -197
l-460 -440h673q21 0 21 -21v-119q0 -20 -21 -20h-905q-20 0 -20 20z" />
    <glyph glyph-name="three" unicode="3" 
d="M471 707v114q0 23 23 23h104q129 0 193.5 55t64.5 180q0 103 -69.5 159t-182.5 56q-112 0 -186 -62t-84 -171q-1 -16 -7 -20.5t-20 -4.5h-112q-27 0 -27 35q12 170 135.5 276.5t300.5 106.5q186 0 299 -95.5t113 -258.5q0 -121 -41 -196t-135 -130q241 -96 241 -356
q0 -196 -130.5 -317t-340.5 -121q-198 0 -331 121.5t-150 316.5q0 35 27 35h110q27 0 29 -27q14 -134 97 -210.5t218 -76.5q141 0 222 71t81 214q0 125 -76 192.5t-223 67.5h-120q-23 7 -23 23z" />
    <glyph glyph-name="four" unicode="4" 
d="M741 20v275h-620q-21 0 -21 20v76q0 23 17 47l647 979q10 17 27 17h98q20 0 20 -21v-958h197q20 0 20 -21v-119q0 -20 -20 -20h-197v-275q0 -20 -22 -20h-125q-21 0 -21 20zM741 1094l-430 -639h430v639z" />
    <glyph glyph-name="five" unicode="5" 
d="M160 668l88 745q3 21 20 21h729q21 0 21 -21v-119q0 -20 -21 -20h-604l-57 -428q162 104 323 104q211 0 329 -127.5t118 -353.5q0 -227 -134 -358t-343 -131q-129 0 -237.5 54t-173.5 150.5t-68 214.5q0 31 24 31h117q12 0 16.5 -6t9.5 -25q18 -113 103.5 -186.5
t208.5 -73.5q152 0 230.5 85t78.5 241q0 151 -81 238.5t-228 87.5q-88 0 -156.5 -30.5t-138.5 -94.5q-19 -19 -35 -19h-119q-20 0 -20 21z" />
    <glyph glyph-name="six" unicode="6" 
d="M150 653q0 399 137.5 600t374.5 201q177 0 286.5 -94t136.5 -262q0 -21 -22 -21h-123q-16 0 -22 21q-28 105 -96 155t-160 50q-146 0 -237 -132.5t-95 -398.5q63 76 155.5 115t184.5 39q204 0 328 -125t124 -348q0 -109 -39 -200t-104.5 -150t-150 -91t-177.5 -32
q-85 0 -157 21t-136.5 70t-109.5 125t-71.5 192.5t-26.5 264.5zM348 453q0 -137 83.5 -225.5t219.5 -88.5t219.5 88.5t83.5 225.5t-83.5 225t-219.5 88t-219.5 -88t-83.5 -225z" />
    <glyph glyph-name="seven" unicode="7" 
d="M162 1294v119q0 21 20 21h893q21 0 21 -21v-78q0 -18 -11 -51l-512 -1270q-6 -14 -22 -14h-131q-21 0 -21 16q0 3 4 15l502 1243h-723q-20 0 -20 20z" />
    <glyph glyph-name="eight" unicode="8" 
d="M193 1075q0 87 34.5 160t93.5 120t135 73t160 26q113 0 208.5 -43.5t155.5 -131.5t60 -204q0 -111 -47 -185.5t-135 -127.5q225 -108 225 -356q0 -187 -129.5 -306.5t-337.5 -119.5t-337 119.5t-129 306.5q0 248 225 356q-88 53 -135 127.5t-47 185.5zM317 406
q0 -123 82 -195t217 -72t217 72t82 195q0 124 -82 197t-217 73t-217 -73t-82 -197zM352 1067q0 -105 71 -170.5t193 -65.5t193.5 65.5t71.5 170.5q0 108 -72.5 167.5t-192.5 59.5t-192 -59.5t-72 -167.5z" />
    <glyph glyph-name="nine" unicode="9" 
d="M1096 780q0 -399 -137 -599.5t-375 -200.5q-177 0 -287 94t-137 262q0 13 5 16.5t17 3.5h123q17 0 23 -20q28 -105 96 -155t160 -50q146 0 236.5 132.5t94.5 398.5q-63 -76 -155.5 -115t-184.5 -39q-205 0 -328.5 125t-123.5 348q0 109 39 200t104.5 150t150 91t177.5 32
q85 0 157 -21t137 -70.5t110 -125.5t71.5 -192.5t26.5 -264.5zM897 981q0 137 -83.5 225t-219.5 88t-219.5 -88t-83.5 -225t83.5 -225t219.5 -88t219.5 88t83.5 225z" />
    <glyph glyph-name="colon" unicode=":" 
d="M512 250h209q20 0 20 -21v-209q0 -20 -20 -20h-209q-20 0 -20 20v209q0 21 20 21zM512 967h209q20 0 20 -21v-209q0 -20 -20 -20h-209q-20 0 -20 20v209q0 21 20 21z" />
    <glyph glyph-name="semicolon" unicode=";" 
d="M512 -111q58 0 76 20t18 77v14h-94q-20 0 -20 20v209q0 21 20 21h209q20 0 20 -21v-288q0 -83 -41 -124.5t-116 -41.5h-72q-20 0 -20 20v74q0 20 20 20zM512 967h209q20 0 20 -21v-209q0 -20 -20 -20h-209q-20 0 -20 20v209q0 21 20 21z" />
    <glyph glyph-name="less" unicode="&#x3c;" 
d="M1032 285v-150q0 -12 -10 -12q-6 0 -10 2l-813 371q-21 9 -21 26v152q0 17 21 26l813 371q4 2 10 2q10 0 10 -12v-150q0 -19 -20 -28l-650 -285l650 -285q20 -9 20 -28z" />
    <glyph glyph-name="equal" unicode="=" 
d="M197 903h839q21 0 21 -20v-119q0 -21 -21 -21h-839q-21 0 -21 21v119q0 20 21 20zM197 487h839q21 0 21 -20v-119q0 -20 -21 -20h-839q-21 0 -21 20v119q0 20 21 20z" />
    <glyph glyph-name="greater" unicode="&#x3e;" 
d="M201 135v150q0 19 20 28l649 285l-649 285q-20 9 -20 28v150q0 12 10 12q6 0 10 -2l813 -371q21 -9 21 -26v-152q0 -17 -21 -26l-813 -371q-4 -2 -10 -2q-10 0 -10 12z" />
    <glyph glyph-name="question" unicode="?" 
d="M172 1049q5 170 129.5 287.5t325.5 117.5q192 0 307 -104.5t115 -276.5q0 -60 -19 -111.5t-48.5 -89t-66 -71.5t-73 -66t-66 -64.5t-48.5 -74t-19 -88.5v-109q0 -20 -21 -20h-131q-20 0 -20 20v95q0 66 19 123t48.5 97.5t66 76.5t73 67.5t66 63t48.5 70t19 81.5
q0 98 -68.5 157.5t-181.5 59.5t-191.5 -62t-95.5 -179q-3 -21 -21 -21h-126q-21 0 -21 21zM522 242h201q20 0 20 -21v-201q0 -20 -20 -20h-201q-20 0 -20 20v201q0 21 20 21z" />
    <glyph glyph-name="at" unicode="@" 
d="M1167 995v-817q0 -18 -18 -18h-107q-18 0 -18 18v80q-91 -115 -254 -115q-167 0 -272 124t-105 325t105 324.5t272 123.5q172 0 254 -110v76q0 129 -81.5 208.5t-258.5 79.5q-146 0 -254 -94t-161.5 -251.5t-53.5 -356.5q0 -332 139 -513t377 -181q105 0 186.5 21
t161.5 69q2 2 11 2q7 0 14 -10l49 -97q2 -2 2 -8q0 -9 -10 -16q-100 -55 -196.5 -78t-217.5 -23q-149 0 -269.5 49.5t-210.5 149t-139 261t-49 374.5q0 243 74 433t216 299.5t331 109.5q224 0 353.5 -120.5t129.5 -318.5zM1036 592q0 149 -61 229t-182 80
q-119 0 -183.5 -85.5t-64.5 -223.5q0 -137 64.5 -223t183.5 -86q121 0 182 80t61 229z" />
    <glyph glyph-name="A" unicode="A" 
d="M348 416l-131 -396q-4 -9 -5.5 -12t-6 -5.5t-12.5 -2.5h-140q-22 0 -22 20q0 9 2 13l479 1380q1 2 2.5 6t2 5.5t2 4t3.5 3.5t4.5 1.5t5.5 0.5h168q6 0 9.5 -2t5.5 -5t4 -9q1 -3 2 -5l479 -1380q2 -4 2 -13q0 -20 -22 -20h-140q-11 0 -15 4t-9 16l-133 396h-535zM616 1221
l-215 -641h428z" />
    <glyph glyph-name="B" unicode="B" 
d="M717 0h-508q-21 0 -21 20v1393q0 21 21 21h471q113 0 201 -37t143 -118.5t55 -199.5q0 -235 -182 -319q119 -45 181.5 -128.5t62.5 -223.5q0 -177 -113 -292.5t-311 -115.5zM360 672v-502h338q128 0 199.5 61t71.5 189q0 125 -72.5 188.5t-198.5 63.5h-338zM360 1264
v-428h330q101 0 159 51t58 164q0 103 -60 158t-157 55h-330z" />
    <glyph glyph-name="C" unicode="C" 
d="M1024 485h125q22 0 22 -20q-30 -237 -166.5 -361t-349.5 -124q-118 0 -219 47t-178 136.5t-120.5 231.5t-43.5 322t43.5 322t120.5 231.5t178 136.5t219 47q213 0 349.5 -124t166.5 -361q0 -21 -22 -21h-125q-22 0 -25 21q-34 166 -111.5 243.5t-232.5 77.5
q-182 0 -281.5 -146.5t-99.5 -426.5t99.5 -427t281.5 -147q157 0 233.5 77.5t110.5 244.5q3 20 25 20z" />
    <glyph glyph-name="D" unicode="D" 
d="M154 20v1393q0 21 20 21h324q134 0 246.5 -43.5t199 -129.5t135.5 -225t49 -319t-49 -319t-135.5 -225t-199 -129.5t-246.5 -43.5h-324q-20 0 -20 20zM326 164h170q213 0 332.5 137t119.5 416t-119.5 416t-332.5 137h-170v-1106z" />
    <glyph glyph-name="E" unicode="E" 
d="M350 672v-508h723q21 0 21 -21v-123q0 -20 -21 -20h-874q-21 0 -21 20v1393q0 21 21 21h860q20 0 20 -21v-123q0 -20 -20 -20h-709v-434h645q21 0 21 -21v-123q0 -20 -21 -20h-645z" />
    <glyph glyph-name="F" unicode="F" 
d="M350 641v-621q0 -20 -20 -20h-131q-21 0 -21 20v1393q0 21 21 21h891q20 0 20 -21v-123q0 -20 -20 -20h-740v-465h676q21 0 21 -21v-122q0 -21 -21 -21h-676z" />
    <glyph glyph-name="G" unicode="G" 
d="M645 729h498q20 0 20 -20v-367q0 -42 -20 -78q-65 -132 -185.5 -208t-283.5 -76q-127 0 -234.5 48t-187.5 139t-125 232t-45 318q0 179 46 322t125 232t181 136t219 47q208 0 336.5 -119t153.5 -319q0 -21 -23 -21h-131q-21 0 -24 21q-30 138 -104 206t-208 68
q-185 0 -288 -147t-103 -426q0 -283 104.5 -428.5t307.5 -145.5q225 0 317 193v229h-346q-20 0 -20 21v123q0 20 20 20z" />
    <glyph glyph-name="H" unicode="H" 
d="M301 666v-646q0 -20 -20 -20h-131q-21 0 -21 20v1393q0 21 21 21h131q20 0 20 -21v-584h631v584q0 21 20 21h131q21 0 21 -21v-1393q0 -20 -21 -20h-131q-20 0 -20 20v646h-631z" />
    <glyph glyph-name="I" unicode="I" 
d="M197 1290v123q0 21 20 21h799q20 0 20 -21v-123q0 -20 -20 -20h-314v-1106h334q21 0 21 -21v-123q0 -20 -21 -20h-839q-21 0 -21 20v123q0 21 21 21h333v1106h-313q-20 0 -20 20z" />
    <glyph glyph-name="J" unicode="J" 
d="M1018 1413v-899q0 -266 -124.5 -400t-332.5 -134q-213 0 -330.5 127.5t-117.5 328.5q0 21 20 21h131q21 0 21 -21q0 -127 76.5 -210t199.5 -83q285 0 285 369v901q0 21 20 21h131q21 0 21 -21z" />
    <glyph glyph-name="K" unicode="K" 
d="M1114 1405l-459 -506l543 -870q4 -12 4 -13q0 -16 -18 -16h-158q-11 0 -18.5 6.5t-18.5 24.5l-459 731l-182 -203v-539q0 -20 -20 -20h-131q-21 0 -21 20v1393q0 21 21 21h131q20 0 20 -21v-604l557 604l5 5l5 5l4 4t4.5 3.5t4 1.5t5 1.5t5.5 0.5h164q18 0 18 -15
q0 -5 -6 -14z" />
    <glyph glyph-name="L" unicode="L" 
d="M250 20v1393q0 21 20 21h131q21 0 21 -21v-1249h717q20 0 20 -21v-123q0 -20 -20 -20h-869q-20 0 -20 20z" />
    <glyph glyph-name="M" unicode="M" 
d="M1114 1413v-1393q0 -20 -20 -20h-131q-21 0 -21 20v1162l-246 -645q-4 -11 -26 -11h-107q-22 0 -26 11l-246 645v-1162q0 -20 -21 -20h-131q-20 0 -20 20v1393q0 21 20 21h199q26 0 33 -17l245 -678l246 678q7 17 33 17h199q20 0 20 -21z" />
    <glyph glyph-name="N" unicode="N" 
d="M1081 0h-166q-25 0 -32 16l-580 1123v-1119q0 -20 -20 -20h-131q-21 0 -21 20v1393q0 21 21 21h165q26 0 33 -17l580 -1122v1118q0 21 20 21h131q21 0 21 -21v-1393q0 -20 -21 -20z" />
    <glyph glyph-name="O" unicode="O" 
d="M616 -20q-242 0 -390 195t-148 542t148 542t390 195t390.5 -195t148.5 -542t-148.5 -542t-390.5 -195zM616 143q172 0 265.5 143t93.5 431t-93.5 430.5t-265.5 142.5q-174 0 -266 -142t-92 -431t92 -431.5t266 -142.5z" />
    <glyph glyph-name="P" unicode="P" 
d="M195 20v1393q0 21 20 21h461q224 0 347.5 -106.5t123.5 -293.5t-123.5 -293t-347.5 -106h-309v-615q0 -20 -21 -20h-131q-20 0 -20 20zM367 1270v-471h340q260 0 260 235q0 236 -260 236h-340z" />
    <glyph glyph-name="Q" unicode="Q" 
d="M616 -20q-242 0 -390 195t-148 542t148 542t390 195t390.5 -195t148.5 -542q0 -306 -121 -502l115 -109q8 -8 8 -14t-8 -14l-86 -90q-8 -8 -14 -8q-7 0 -15 8l-106 102q-128 -110 -312 -110zM616 143q113 0 193 62l-129 125q-8 8 -8 14t8 14l86 91q8 8 14 8q7 0 15 -8
l114 -113q66 144 66 381q0 288 -93.5 430.5t-265.5 142.5q-174 0 -266 -142t-92 -431t92 -431.5t266 -142.5z" />
    <glyph glyph-name="R" unicode="R" 
d="M158 20v1393q0 21 20 21h490q434 0 434 -379q0 -143 -72 -232.5t-196 -128.5l323 -674q2 -2 2 -8q0 -12 -18 -12h-152q-19 0 -28 20l-316 656h-315v-656q0 -20 -21 -20h-131q-20 0 -20 20zM330 1270v-430h358q125 0 183.5 53.5t58.5 161.5t-58.5 161.5t-183.5 53.5h-358z
" />
    <glyph glyph-name="S" unicode="S" 
d="M117 1063q0 122 66 212.5t172.5 134.5t236.5 44q217 0 350 -115t133 -284q0 -21 -20 -21h-131q-21 0 -21 21q0 95 -91.5 165t-219.5 70q-133 0 -218 -58.5t-85 -156.5q0 -27 7.5 -51t18 -43t31.5 -37t38.5 -30.5t48.5 -26.5t52 -22.5t59 -19.5t59.5 -17t62.5 -17
q87 -25 145.5 -45.5t122.5 -53.5t101.5 -70t62 -91t24.5 -121q0 -91 -26.5 -166t-73 -127t-111.5 -88t-141.5 -52.5t-163.5 -16.5q-227 0 -371.5 122t-144.5 322q0 20 21 20h131q20 0 20 -20q0 -121 94 -201t250 -80q154 0 249 69t95 204q0 41 -21 76t-51.5 59t-83 46
t-96.5 36t-110 31q-90 24 -153 46t-127.5 55.5t-103 73t-63 96.5t-24.5 128z" />
    <glyph glyph-name="T" unicode="T" 
d="M90 1290v123q0 21 21 21h1011q21 0 21 -21v-123q0 -20 -21 -20h-420v-1250q0 -20 -20 -20h-131q-21 0 -21 20v1250h-419q-21 0 -21 20z" />
    <glyph glyph-name="U" unicode="U" 
d="M135 485v928q0 21 21 21h131q20 0 20 -21v-905q0 -365 309 -365q310 0 310 365v905q0 21 20 21h131q21 0 21 -21v-928q0 -232 -136 -368.5t-346 -136.5q-209 0 -345 136.5t-136 368.5z" />
    <glyph glyph-name="V" unicode="V" 
d="M496 20l-449 1393q-2 2 -2 4v4q0 13 18 13h152q19 0 25 -21l376 -1202l377 1202q6 21 25 21h151q19 0 19 -13q0 -1 -1 -2t-1 -2v-4l-449 -1393q-6 -20 -22 -20h-197q-16 0 -22 20z" />
    <glyph glyph-name="W" unicode="W" 
d="M199 20l-158 1393q0 21 16 21h133q22 0 25 -21l115 -1192l194 885q6 20 25 20h135q19 0 25 -20l194 -885l115 1192q3 21 24 21h134q16 0 16 -21l-158 -1393q-3 -20 -22 -20h-191q-16 0 -22 20l-183 826l-182 -826q-6 -20 -22 -20h-191q-19 0 -22 20z" />
    <glyph glyph-name="X" unicode="X" 
d="M338 1413l278 -473l279 473q7 13 12.5 17t16.5 4h149q17 0 17 -13q0 -5 -3 -8l-374 -637l444 -756q2 -2 2 -8q0 -12 -14 -12h-152q-11 0 -16 3.5t-12 16.5l-349 592l-348 -592q-7 -13 -12 -16.5t-16 -3.5h-152q-14 0 -14 12q0 6 2 8l444 756l-375 637q-2 2 -2 8
q0 13 17 13h149q11 0 16.5 -4t12.5 -17z" />
    <glyph glyph-name="Y" unicode="Y" 
d="M1149 1413l-447 -809v-584q0 -20 -20 -20h-131q-21 0 -21 20v584l-446 809q-1 2 -2 4.5t-1.5 3.5t-0.5 2q0 11 14 11h162q13 0 23 -17l337 -622l338 622q10 17 23 17h162q14 0 14 -11q0 -1 -0.5 -2t-1.5 -3.5t-2 -4.5z" />
    <glyph glyph-name="Z" unicode="Z" 
d="M156 1290v123q0 21 20 21h885q20 0 20 -21v-123q0 -17 -12 -35l-745 -1091h772q20 0 20 -21v-123q0 -20 -20 -20h-946q-21 0 -21 20v123q0 17 12 35l748 1092h-713q-20 0 -20 20z" />
    <glyph glyph-name="bracketleft" unicode="[" 
d="M350 -385v1798q0 21 21 21h592q20 0 20 -21v-123q0 -20 -20 -20h-441v-1512h441q20 0 20 -20v-123q0 -21 -20 -21h-592q-21 0 -21 21z" />
    <glyph glyph-name="backslash" unicode="\" 
d="M330 1413l784 -1393q1 -2 2 -4.5t1.5 -3.5t0.5 -2q0 -10 -16 -10h-146q-17 0 -28 20l-785 1393q-1 2 -2 4.5t-1.5 3.5t-0.5 2q0 11 17 11h145q17 0 29 -21z" />
    <glyph glyph-name="bracketright" unicode="]" 
d="M883 1413v-1798q0 -21 -21 -21h-592q-20 0 -20 21v123q0 20 20 20h441v1512h-441q-20 0 -20 20v123q0 21 20 21h592q21 0 21 -21z" />
    <glyph glyph-name="asciicircum" unicode="^" 
d="M315 805h-147q-14 0 -14 12q0 6 2 8l358 588q13 21 27 21h151q14 0 27 -21l358 -588q2 -2 2 -8q0 -12 -14 -12h-147q-18 0 -29 20l-273 453l-272 -453q-11 -20 -29 -20z" />
    <glyph glyph-name="underscore" unicode="_" 
d="M197 0h839q21 0 21 -20v-119q0 -21 -21 -21h-839q-21 0 -21 21v119q0 20 21 20z" />
    <glyph glyph-name="grave" unicode="`" 
d="M672 1413l135 -258q2 -2 2 -8q0 -12 -12 -12h-131q-22 0 -37 18l-203 260q-4 8 -4 10q0 11 12 11h207q19 0 31 -21z" />
    <glyph glyph-name="a" unicode="a" 
d="M346 723h-131q-14 0 -14 12q0 13 2 21q30 124 142 208.5t288 84.5q203 0 313.5 -100.5t110.5 -268.5v-483q0 -70 7 -105.5t28 -71.5q2 -2 2 -10q0 -10 -17 -10h-159q-21 0 -21 20v107q-54 -69 -148 -108t-204 -39q-73 0 -140 20t-121.5 59t-87 103t-32.5 145
q0 110 55.5 188t146 115t205.5 37q147 0 326 -43v51q0 242 -264 242q-96 0 -162 -41t-96 -115q-7 -18 -29 -18zM897 453q-173 43 -305 43q-112 0 -186 -49t-74 -140q0 -79 62 -127.5t169 -48.5q135 0 234.5 87.5t99.5 234.5z" />
    <glyph glyph-name="b" unicode="b" 
d="M197 20v1393q0 21 20 21h119q20 0 20 -21v-502q61 64 148 101t178 37q204 0 328.5 -145.5t124.5 -389.5t-124.5 -389t-328.5 -145q-103 0 -190.5 37.5t-135.5 99.5v-97q0 -20 -20 -20h-119q-20 0 -20 20zM340 514q0 -167 82.5 -275t226.5 -108q147 0 232.5 108.5
t85.5 274.5t-85.5 274.5t-232.5 108.5q-144 0 -226.5 -108t-82.5 -275z" />
    <glyph glyph-name="c" unicode="c" 
d="M645 897q-147 0 -239.5 -106t-92.5 -277t92.5 -277t239.5 -106q110 0 185 53.5t104 151.5q7 18 29 18h124q15 0 15 -12t-2 -20q-42 -162 -158.5 -252t-296.5 -90q-227 0 -363.5 151t-136.5 383t136.5 383.5t363.5 151.5q180 0 296.5 -90t158.5 -252q2 -8 2 -21
q0 -12 -15 -12h-124q-22 0 -29 18q-29 98 -104 151.5t-185 53.5z" />
    <glyph glyph-name="d" unicode="d" 
d="M1073 1413v-1393q0 -20 -20 -20h-119q-21 0 -21 20v97q-48 -62 -135 -99.5t-190 -37.5q-204 0 -328.5 145t-124.5 389t124.5 389.5t328.5 145.5q91 0 177.5 -37t147.5 -101v502q0 21 21 21h119q20 0 20 -21zM930 514q0 167 -82.5 275t-226.5 108q-147 0 -232.5 -108.5
t-85.5 -274.5t85.5 -274.5t232.5 -108.5q144 0 226.5 108t82.5 275z" />
    <glyph glyph-name="e" unicode="e" 
d="M1096 465h-781q12 -150 95.5 -242t226.5 -92q110 0 177 45t104 143q7 19 28 19h133q15 0 15 -14q0 -12 -4 -21q-111 -323 -453 -323q-155 0 -268.5 71.5t-169.5 191t-56 271.5q0 229 138 382t356 153q113 0 205.5 -43t151.5 -117t90.5 -170t31.5 -205v-29q0 -20 -20 -20z
M637 897q-114 0 -201.5 -76.5t-111.5 -204.5h612q-25 127 -107 204t-192 77z" />
    <glyph glyph-name="f" unicode="f" 
d="M1057 877h-430v-857q0 -20 -21 -20h-119q-20 0 -20 20v857h-283q-20 0 -20 20v111q0 20 20 20h283v90q0 88 32.5 162.5t103.5 124t169 49.5q131 0 223 -57q17 -12 17 -35v-109q0 -20 -15 -20q-6 0 -14 4q-59 37 -103 51.5t-96 14.5q-73 0 -115 -49.5t-42 -135.5v-90h430
q20 0 20 -20v-111q0 -20 -20 -20z" />
    <glyph glyph-name="g" unicode="g" 
d="M209 -88q0 103 51 166q-119 68 -119 217q0 90 44 152t137 110q-27 65 -27 141q0 161 103.5 256t254.5 95q117 0 205 -58l137 123q8 8 17 8q6 0 16 -10l78 -82q8 -8 8 -16q0 -9 -10 -19l-131 -125q41 -74 41 -172q0 -158 -101 -253t-260 -95q-152 0 -250 88
q-102 -46 -102 -133q0 -55 34.5 -85t90.5 -30q35 0 123 19.5t158 19.5q206 0 322 -82.5t116 -244.5q0 -151 -126.5 -239.5t-338.5 -88.5q-213 0 -342 87.5t-129 250.5zM680 78q-72 0 -156 -16t-98 -17q-57 -48 -57 -131q0 -93 84.5 -140.5t226.5 -47.5t223.5 46t81.5 130
q0 87 -78 131.5t-227 44.5zM455 698q0 -93 56 -144.5t142 -51.5q88 0 144.5 51.5t56.5 144.5q0 95 -56.5 147t-144.5 52q-86 0 -142 -52t-56 -147z" />
    <glyph glyph-name="h" unicode="h" 
d="M207 20v1393q0 21 20 21h119q21 0 21 -21v-532q55 74 157.5 121t204.5 47q170 0 262 -87t92 -257v-685q0 -20 -20 -20h-119q-20 0 -20 20v648q0 117 -61.5 173t-170.5 56q-54 0 -111 -25t-105 -69.5t-78.5 -113.5t-30.5 -148v-521q0 -20 -21 -20h-119q-20 0 -20 20z" />
    <glyph glyph-name="i" unicode="i" 
d="M252 901v107q0 20 20 20h443q20 0 20 -20v-856h355q20 0 20 -21v-111q0 -20 -20 -20h-869q-20 0 -20 20v111q0 21 20 21h354v729h-303q-20 0 -20 20zM532 1237v176q0 21 21 21h176q21 0 21 -21v-176q0 -20 -21 -20h-176q-21 0 -21 20z" />
    <glyph glyph-name="j" unicode="j" 
d="M260 901v107q0 20 21 20h593q21 0 21 -20v-1114q0 -147 -14.5 -232t-46.5 -156q-6 -16 -17 -16h-4q-2 0 -4 2l-117 33q-16 6 -16 16v4q0 2 2 4q57 156 57 320v1012h-454q-21 0 -21 20zM686 1237v176q0 21 21 21h176q20 0 20 -21v-176q0 -20 -20 -20h-176q-21 0 -21 20z
" />
    <glyph glyph-name="k" unicode="k" 
d="M895 18l-346 517l-176 -168v-347q0 -20 -21 -20h-119q-20 0 -20 20v1393q0 21 20 21h119q21 0 21 -21v-838l444 435q18 18 33 18h166q16 0 16 -14q0 -9 -8 -17l-354 -344l417 -622q5 -10 5 -15q0 -16 -19 -16h-145q-24 0 -33 18z" />
    <glyph glyph-name="l" unicode="l" 
d="M193 1303v110q0 21 20 21h475q21 0 21 -21v-1261h381q20 0 20 -21v-111q0 -20 -20 -20h-922q-21 0 -21 20v111q0 21 21 21h381v1130h-336q-20 0 -20 21z" />
    <glyph glyph-name="m" unicode="m" 
d="M92 20v988q0 20 21 20h118q21 0 21 -20v-88q36 60 102 94.5t135 34.5q80 0 128.5 -30t80.5 -93q43 58 106 90.5t136 32.5q118 0 173.5 -58t55.5 -194v-777q0 -20 -20 -20h-119q-20 0 -20 20v738q0 139 -115 139q-86 0 -135 -74t-49 -209v-594q0 -20 -21 -20h-119
q-20 0 -20 20v721q0 156 -115 156q-85 0 -134.5 -72.5t-49.5 -201.5v-603q0 -20 -21 -20h-118q-21 0 -21 20z" />
    <glyph glyph-name="n" unicode="n" 
d="M213 20v988q0 20 20 20h119q21 0 21 -20v-123q58 71 150 117.5t198 46.5q166 0 252 -90.5t86 -249.5v-689q0 -20 -21 -20h-118q-21 0 -21 20v658q0 110 -49 164.5t-162 54.5q-134 0 -224.5 -97t-90.5 -259v-521q0 -20 -21 -20h-119q-20 0 -20 20z" />
    <glyph glyph-name="o" unicode="o" 
d="M104 514q0 239 144 387t368 148t368 -148t144 -387t-144 -386.5t-368 -147.5t-368 147.5t-144 386.5zM272 514q0 -168 96 -275.5t248 -107.5t248.5 107.5t96.5 275.5t-96.5 275.5t-248.5 107.5t-248 -107.5t-96 -275.5z" />
    <glyph glyph-name="p" unicode="p" 
d="M201 -385v1393q0 20 20 20h119q20 0 20 -20v-97q48 62 135.5 100t190.5 38q204 0 328.5 -145.5t124.5 -389.5t-124.5 -389t-328.5 -145q-92 0 -179 37t-147 100v-502q0 -21 -20 -21h-119q-20 0 -20 21zM344 514q0 -167 82.5 -275t226.5 -108q147 0 232.5 108.5
t85.5 274.5t-85.5 274.5t-232.5 108.5q-144 0 -226.5 -108t-82.5 -275z" />
    <glyph glyph-name="q" unicode="q" 
d="M1049 1008v-1393q0 -21 -21 -21h-119q-20 0 -20 21v502q-60 -63 -147 -100t-179 -37q-204 0 -328 145t-124 389t124 389.5t328 145.5q103 0 190.5 -38t135.5 -100v97q0 20 20 20h119q21 0 21 -20zM905 514q0 167 -82.5 275t-226.5 108q-147 0 -232 -108.5t-85 -274.5
t85 -274.5t232 -108.5q144 0 226.5 108t82.5 275z" />
    <glyph glyph-name="r" unicode="r" 
d="M1096 795l-119 -72q-8 -4 -14 -4q-14 0 -17 10q-57 92 -109 130t-143 38q-126 0 -208.5 -117t-82.5 -286v-474q0 -20 -20 -20h-119q-20 0 -20 20v988q0 20 20 20h119q20 0 20 -20v-129q56 74 147 122t206 48q244 0 348 -220q4 -12 4 -14q0 -14 -12 -20z" />
    <glyph glyph-name="s" unicode="s" 
d="M1059 301q0 -102 -58.5 -176t-152.5 -109.5t-211 -35.5q-119 0 -219.5 42.5t-160.5 119.5t-60 171q0 21 20 21h131q18 0 21 -21q12 -88 86.5 -135t187.5 -47q110 0 179 37t69 113t-70.5 113t-238.5 63q-190 30 -275.5 98.5t-85.5 200.5q0 139 113.5 216t286.5 77t281 -79
t122 -216q0 -21 -20 -21h-115q-6 0 -9.5 2t-5.5 5t-4 9q-1 3 -2 5q-22 71 -92 107t-162 36q-104 0 -168.5 -34t-64.5 -103q0 -74 66.5 -109t232.5 -63q65 -11 115.5 -24t102 -36t85.5 -52.5t55 -74t21 -100.5z" />
    <glyph glyph-name="t" unicode="t" 
d="M106 1028h254v332q0 20 21 20h119q20 0 20 -20v-332h406q20 0 20 -20v-111q0 -20 -20 -20h-406v-480q0 -132 52.5 -199t148.5 -67q101 0 151 51.5t64 159.5q2 18 22 18h119q12 0 15.5 -2.5t3.5 -15.5q0 -97 -42.5 -178t-129.5 -132.5t-203 -51.5q-176 0 -268.5 103.5
t-92.5 311.5v482h-254q-20 0 -20 20v111q0 20 20 20z" />
    <glyph glyph-name="u" unicode="u" 
d="M1026 1008v-988q0 -20 -20 -20h-119q-21 0 -21 20v123q-58 -71 -149.5 -117t-198.5 -46q-167 0 -252.5 90t-85.5 249v689q0 20 21 20h118q21 0 21 -20v-658q0 -110 49 -164.5t162 -54.5q134 0 224.5 97t90.5 259v521q0 20 21 20h119q20 0 20 -20z" />
    <glyph glyph-name="v" unicode="v" 
d="M1128 995l-415 -975q-9 -20 -21 -20h-151q-12 0 -21 20l-416 975q-2 4 -2 15q0 18 19 18h139q23 0 29 -20l327 -795l328 795q6 20 29 20h139q18 0 18 -18q0 -11 -2 -15z" />
    <glyph glyph-name="w" unicode="w" 
d="M1198 997l-219 -977q-6 -20 -27 -20h-145q-21 0 -27 20l-164 658l-163 -658q-6 -20 -27 -20h-145q-24 0 -27 20l-219 977q-2 6 -2 17q0 14 16 14h141q11 0 16.5 -3t7 -5t5.5 -12l141 -775l156 672q7 17 13 20q4 1 10 1h155q10 0 13.5 -3t7.5 -14q1 -3 2 -4l155 -672
l142 775q1 2 2.5 5.5t2 4.5t2 3.5t3 3t4 1.5t6 1.5t8.5 0.5h142q16 0 16 -14q0 -11 -2 -17z" />
    <glyph glyph-name="x" unicode="x" 
d="M377 1014l239 -352l240 352q8 14 29 14h147q15 0 15 -14q0 -1 -1 -3t-2 -5t-2 -5l-327 -473l358 -501q6 -9 6 -17q0 -10 -12 -10h-158q-17 0 -28 20l-265 375l-264 -375q-11 -20 -28 -20h-158q-12 0 -12 10q0 8 6 17l358 501l-328 473q-4 12 -4 13q0 14 15 14h147
q21 0 29 -14z" />
    <glyph glyph-name="y" unicode="y" 
d="M184 -360v110q0 21 17 21q12 0 30 -11t47.5 -22.5t69.5 -11.5q73 0 113.5 57.5t99.5 212.5l4 12l-420 987q-4 16 -4 17q0 16 17 16h147q21 0 27 -20l321 -777l305 777q5 11 10.5 15.5t18.5 4.5h141q17 0 17 -14q0 -1 -0.5 -3t-1.5 -5.5t-2 -6.5l-441 -1099
q-70 -175 -149 -250.5t-195 -75.5q-84 0 -151 33q-21 12 -21 33z" />
    <glyph glyph-name="z" unicode="z" 
d="M240 897v111q0 20 20 20h717q20 0 20 -20v-111q0 -17 -16 -43l-573 -702h608q20 0 20 -21v-111q0 -20 -20 -20h-783q-20 0 -20 20v111q0 15 12 31l584 715h-549q-20 0 -20 20z" />
    <glyph glyph-name="braceleft" unicode="{" 
d="M684 346v-352q0 -139 24.5 -187.5t112.5 -48.5h142q20 0 20 -20v-123q0 -21 -20 -21h-142q-160 0 -234.5 94.5t-74.5 305.5v319q0 119 -109 119h-90q-20 0 -20 21v122q0 21 20 21h90q109 0 109 119v319q0 211 74.5 305.5t234.5 94.5h142q20 0 20 -21v-123q0 -20 -20 -20
h-142q-88 0 -112.5 -48.5t-24.5 -187.5v-352q0 -65 -24.5 -107t-92.5 -61q68 -19 92.5 -61t24.5 -107z" />
    <glyph glyph-name="bar" unicode="|" 
d="M530 -184v1802q0 20 21 20h131q20 0 20 -20v-1802q0 -21 -20 -21h-131q-21 0 -21 21z" />
    <glyph glyph-name="braceright" unicode="}" 
d="M549 -6v352q0 65 24.5 107t92.5 61q-68 19 -92.5 61t-24.5 107v352q0 139 -24.5 187.5t-112.5 48.5h-142q-20 0 -20 20v123q0 21 20 21h142q160 0 234.5 -94.5t74.5 -305.5v-319q0 -119 108 -119h91q20 0 20 -21v-122q0 -21 -20 -21h-91q-108 0 -108 -119v-319
q0 -211 -74.5 -305.5t-234.5 -94.5h-142q-20 0 -20 21v123q0 20 20 20h142q88 0 112.5 48.5t24.5 187.5z" />
    <glyph glyph-name="asciitilde" unicode="~" 
d="M195 745q99 74 233 74q67 0 135.5 -21t130 -42t111.5 -21q45 0 77 11.5t76 39.5l15 5q10 0 20 -17l62 -102q2 -2 2 -8q0 -14 -19 -27q-99 -74 -233 -74q-84 0 -203 42t-174 42q-45 0 -77.5 -11.5t-76.5 -39.5q-12 -4 -14 -4q-10 0 -20 16l-62 103q-2 2 -2 8q0 13 19 26z
" />
    <glyph glyph-name="uni00A0" unicode="&#xa0;" 
 />
    <glyph glyph-name="exclamdown" unicode="&#xa1;" 
d="M682 -406h-131q-21 0 -21 21v1014q0 20 21 20h131q20 0 20 -20v-1014q0 -21 -20 -21zM717 786h-201q-20 0 -20 21v201q0 20 20 20h201q20 0 20 -20v-201q0 -21 -20 -21z" />
    <glyph glyph-name="cent" unicode="&#xa2;" 
d="M539 20v168q-190 29 -302 174.5t-112 354.5q0 208 112 352.5t302 173.5v170q0 21 20 21h131q21 0 21 -21v-168q145 -23 239 -109.5t129 -226.5q2 -8 2 -20t-14 -12h-125q-22 0 -29 18q-47 158 -202 195v-746q155 37 202 195q7 18 29 18h125q14 0 14 -12q0 -13 -2 -21
q-36 -142 -129.5 -229t-238.5 -107v-168q0 -20 -21 -20h-131q-20 0 -20 20zM293 717q0 -145 67 -244t179 -129v743q-112 -30 -179 -128t-67 -242z" />
    <glyph glyph-name="sterling" unicode="&#xa3;" 
d="M344 569q0 33 -6 68h-152q-20 0 -20 20v119q0 21 20 21h105q-43 118 -43 229q0 195 124.5 311.5t317.5 116.5q206 0 321 -116t115 -289q0 -21 -20 -21h-131q-21 0 -21 21q0 100 -74.5 170.5t-189.5 70.5q-125 0 -197.5 -70t-72.5 -194q0 -71 12 -118.5t39 -110.5h467
q20 0 20 -21v-119q0 -20 -20 -20h-428q6 -37 6 -78q0 -212 -137 -395h747q21 0 21 -21v-123q0 -20 -21 -20h-907q-20 0 -20 20v144q0 19 16 41q70 92 99.5 170t29.5 194z" />
    <glyph glyph-name="currency" unicode="&#xa4;" 
d="M184 289l103 100q-64 103 -64 225q0 123 64 226l-103 100q-8 8 -8 14q0 7 8 15l78 78q8 8 14 8q7 0 15 -8l100 -101q97 66 225 66q129 0 226 -66l100 101q8 8 14 8q7 0 15 -8l78 -78q8 -8 8 -15q0 -6 -8 -14l-103 -100q64 -103 64 -226q0 -122 -64 -225l103 -100
q8 -8 8 -15q0 -6 -8 -14l-78 -78q-8 -8 -15 -8q-6 0 -14 8l-100 101q-97 -66 -226 -66q-128 0 -225 66l-100 -101q-8 -8 -15 -8q-6 0 -14 8l-78 78q-8 8 -8 14q0 7 8 15zM375 614q0 -117 65.5 -187.5t175.5 -70.5t176 70.5t66 187.5t-66 187.5t-176 70.5t-175.5 -70.5
t-65.5 -187.5z" />
    <glyph glyph-name="yen" unicode="&#xa5;" 
d="M203 764h237l-366 649q-2 2 -2 8q0 13 12 13h166q3 0 6 -0.5t4.5 -1.5t3.5 -3t2.5 -3t3 -4.5t2.5 -4.5l344 -635l345 635q0 1 2.5 4.5t3 4.5t2.5 3t3.5 3t4.5 1.5t6 0.5h166q12 0 12 -13q0 -6 -2 -8l-366 -649h237q21 0 21 -21v-118q0 -21 -21 -21h-328v-145h273
q20 0 20 -21v-119q0 -20 -20 -20h-273v-279q0 -20 -20 -20h-131q-21 0 -21 20v279h-272q-20 0 -20 20v119q0 21 20 21h272v145h-327q-21 0 -21 21v118q0 21 21 21z" />
    <glyph glyph-name="brokenbar" unicode="&#xa6;" 
d="M530 860v758q0 20 21 20h131q20 0 20 -20v-758q0 -20 -20 -20h-131q-21 0 -21 20zM530 -184v757q0 21 21 21h131q20 0 20 -21v-757q0 -21 -20 -21h-131q-21 0 -21 21z" />
    <glyph glyph-name="section" unicode="&#xa7;" 
d="M1055 -82q0 -83 -34.5 -150t-92.5 -108.5t-129.5 -63.5t-149.5 -22q-191 0 -307.5 112.5t-116.5 272.5q0 21 21 21h131q20 0 20 -21q0 -98 68.5 -159.5t183.5 -61.5q100 0 167 44.5t67 135.5q0 24 -6.5 45t-14 38t-29 38t-37 34.5t-54 39t-62 40t-78.5 48.5
q-67 40 -102.5 62t-83.5 53.5t-72 52.5t-52 49.5t-40.5 54t-21.5 56.5t-9 65q0 78 29 134t98 114q-67 60 -97 123.5t-30 144.5q0 83 34.5 150t92.5 108.5t129.5 63.5t149.5 22q191 0 307.5 -112.5t116.5 -272.5q0 -20 -21 -20h-131q-20 0 -20 20q0 98 -68.5 159.5
t-183.5 61.5q-100 0 -167 -44.5t-67 -135.5q0 -24 6.5 -45t14 -38t29 -38t37 -34.5t54 -39t62 -40t78.5 -48.5q55 -33 81 -49t69 -43.5t62.5 -42.5t50 -38.5t44 -40t31.5 -39.5t25 -43.5t12.5 -45t5.5 -51.5q0 -78 -29 -134t-98 -114q67 -60 97 -123.5t30 -144.5zM883 416
q0 60 -76.5 122t-321.5 205q-48 -27 -70 -57.5t-22 -73.5q0 -60 78.5 -124t319.5 -203q48 27 70 57.5t22 73.5z" />
    <glyph glyph-name="dieresis" unicode="&#xa8;" 
d="M340 1241v172q0 21 20 21h172q21 0 21 -21v-172q0 -20 -21 -20h-172q-20 0 -20 20zM680 1241v172q0 21 20 21h172q21 0 21 -21v-172q0 -20 -21 -20h-172q-20 0 -20 20z" />
    <glyph glyph-name="copyright" unicode="&#xa9;" 
d="M786 604h50q14 0 14 -14q-12 -95 -75.5 -147t-158.5 -52q-48 0 -93 19.5t-82.5 56.5t-60 97.5t-22.5 135.5q0 146 78 229t180 83q95 0 158.5 -52t75.5 -147q0 -14 -14 -14h-50q-15 0 -18 14q-27 121 -152 121q-76 0 -124 -60t-48 -174q0 -112 48 -171.5t124 -59.5
q125 0 152 121q3 14 18 14zM616 172q-95 0 -184.5 35.5t-161.5 101t-115.5 167.5t-43.5 224t43.5 224.5t115.5 167.5t161.5 101t184.5 36q75 0 148.5 -22t138 -67t113.5 -107.5t77.5 -148.5t28.5 -184q0 -122 -43.5 -224t-115.5 -167.5t-162 -101t-185 -35.5zM616 262
q78 0 150 28t131 80.5t94 138t35 191.5t-35 191.5t-94 138.5t-131 81t-150 28t-150 -28t-130.5 -81t-93.5 -138.5t-35 -191.5t35 -191.5t93.5 -138t130.5 -80.5t150 -28z" />
    <glyph glyph-name="ordfeminine" unicode="&#xaa;" 
d="M971 1419v-737q0 -14 -15 -14h-88q-16 0 -16 14v72q-83 -103 -250 -103q-144 0 -242 111.5t-98 288.5t98 288t242 111q167 0 250 -102v71q0 15 16 15h88q15 0 15 -15zM864 1051q0 131 -62.5 207.5t-176.5 76.5q-112 0 -175 -80.5t-63 -203.5t63 -204t175 -81
q114 0 176.5 77t62.5 208z" />
    <glyph glyph-name="guillemotleft" unicode="&#xab;" 
d="M629 260v-172q0 -14 -13 -14q-6 0 -12 6l-440 387q-21 18 -21 37v114q0 19 21 37l440 387q7 7 12 7q13 0 13 -15v-172q0 -21 -15 -33l-307 -268l307 -268q15 -12 15 -33zM1059 260v-172q0 -14 -12 -14q-7 0 -13 6l-440 387q-21 18 -21 37v114q0 19 21 37l440 387
q7 7 13 7q12 0 12 -15v-172q0 -21 -15 -33l-307 -268l307 -268q15 -12 15 -33z" />
    <glyph glyph-name="logicalnot" unicode="&#xac;" 
d="M182 598v102q0 21 21 21h794q21 0 21 -21v-378q0 -21 -21 -21h-118q-21 0 -21 21v256h-655q-21 0 -21 20z" />
    <glyph glyph-name="registered" unicode="&#xae;" 
d="M616 172q-95 0 -184.5 35.5t-161.5 101t-115.5 167.5t-43.5 224t43.5 224.5t115.5 167.5t161.5 101t184.5 36q75 0 148.5 -22t138 -67t113.5 -107.5t77.5 -148.5t28.5 -184q0 -122 -43.5 -224t-115.5 -167.5t-162 -101t-185 -35.5zM616 262q78 0 150 28t131 80.5t94 138
t35 191.5t-35 191.5t-94 138.5t-131 81t-150 28t-150 -28t-130.5 -81t-93.5 -138.5t-35 -191.5t35 -191.5t93.5 -138t130.5 -80.5t150 -28zM442 412v579q0 15 15 15h180q93 0 142.5 -43.5t49.5 -124.5q0 -119 -122 -162l131 -264q2 -2 2 -9q0 -6 -9 -6h-63q-14 0 -20 13
l-130 258h-94v-256q0 -15 -14 -15h-53q-15 0 -15 15zM524 928v-183h121q52 0 77.5 25t25.5 68q0 90 -103 90h-121z" />
    <glyph glyph-name="macron" unicode="&#xaf;" 
d="M397 1241v102q0 21 21 21h397q21 0 21 -21v-102q0 -20 -21 -20h-397q-21 0 -21 20z" />
    <glyph glyph-name="degree" unicode="&#xb0;" 
d="M250 1106q0 153 104 250.5t262 97.5t262.5 -97.5t104.5 -250.5t-104.5 -250.5t-262.5 -97.5t-262 97.5t-104 250.5zM393 1106q0 -102 63 -161.5t160 -59.5t160.5 59.5t63.5 161.5t-63.5 161.5t-160.5 59.5t-160 -59.5t-63 -161.5z" />
    <glyph glyph-name="plusminus" unicode="&#xb1;" 
d="M696 1153v-340h340q21 0 21 -20v-119q0 -21 -21 -21h-340v-340q0 -20 -20 -20h-119q-20 0 -20 20v340h-340q-21 0 -21 21v119q0 20 21 20h340v340q0 21 20 21h119q20 0 20 -21zM197 160h839q21 0 21 -21v-119q0 -20 -21 -20h-839q-21 0 -21 20v119q0 21 21 21z" />
    <glyph glyph-name="twosuperior" unicode="&#xb2;" 
d="M371 688v62q0 19 12 28l311 271q82 70 82 155q0 57 -33 94t-94 37q-64 0 -101.5 -37.5t-45.5 -95.5q-3 -20 -21 -20h-80q-20 0 -20 20q5 103 78 173.5t190 70.5q114 0 180 -69.5t66 -170.5q0 -75 -28 -128.5t-87 -102.5l-229 -197h354q21 0 21 -20v-70q0 -20 -21 -20
h-514q-20 0 -20 20z" />
    <glyph glyph-name="threesuperior" unicode="&#xb3;" 
d="M518 1034v70q0 20 21 20h41q64 0 99.5 29.5t35.5 89.5q0 43 -33 71.5t-86 28.5q-49 0 -82 -27t-43 -81q-3 -16 -20 -16h-72q-21 0 -21 18q5 92 70 150.5t168 58.5q102 0 167.5 -57.5t65.5 -133.5q0 -113 -92 -172q54 -23 89.5 -71t35.5 -121q0 -104 -77.5 -170
t-186.5 -66q-106 0 -188 67.5t-82 168.5q0 20 20 20h78q17 0 20 -20q20 -125 150 -125q65 0 106 31t41 94q0 59 -39 91t-108 32h-57q-21 0 -21 20z" />
    <glyph glyph-name="acute" unicode="&#xb4;" 
d="M426 1155l135 258q12 21 31 21h207q12 0 12 -11q0 -2 -4 -10l-203 -260q-13 -18 -37 -18h-131q-12 0 -12 12q0 6 2 8z" />
    <glyph glyph-name="mu" unicode="&#xb5;" 
d="M1026 1008v-988q0 -20 -20 -20h-119q-21 0 -21 20v123q-58 -71 -149.5 -117t-198.5 -46q-110 0 -178 36v-401q0 -21 -21 -21h-118q-21 0 -21 21v1393q0 20 21 20h118q21 0 21 -20v-658q0 -110 49 -164.5t162 -54.5q134 0 224.5 97t90.5 259v521q0 20 21 20h119
q20 0 20 -20z" />
    <glyph glyph-name="paragraph" unicode="&#xb6;" 
d="M442 1434h662q20 0 20 -21v-123q0 -20 -20 -20h-121v-1454q0 -21 -20 -21h-132q-20 0 -20 21v1454h-152v-1454q0 -21 -20 -21h-131q-21 0 -21 21v923h-45q-182 0 -282.5 92.5t-100.5 253.5t101 255t282 94z" />
    <glyph glyph-name="periodcentered" unicode="&#xb7;" 
d="M512 842h209q20 0 20 -21v-209q0 -20 -20 -20h-209q-20 0 -20 20v209q0 21 20 21z" />
    <glyph glyph-name="cedilla" unicode="&#xb8;" 
d="M451 -211l-27 27q-4 4 -4 8q0 1 0.5 2.5t1.5 5t2 6.5l90 219q9 21 25 21h90q14 0 14 -10q0 -9 -2 -11l-98 -182q54 14 119 14q81 0 128.5 -39.5t47.5 -105.5q0 -170 -220 -170q-127 0 -200 20q-18 8 -20 13q-1 3 -1 8v59q0 21 21 21q4 0 68 -11.5t126 -11.5q42 0 66 17
t24 47q0 29 -24.5 46t-65.5 17q-65 0 -133 -14q-6 -2 -14 -2t-14 6z" />
    <glyph glyph-name="onesuperior" unicode="&#xb9;" 
d="M381 688v70q0 20 20 20h185v500l-158 -84q-12 -6 -20 -6q-17 0 -17 16v96q0 12 15 21l196 104q15 9 31 9h47q20 0 20 -21v-635h185q20 0 20 -20v-70q0 -20 -20 -20h-484q-20 0 -20 20z" />
    <glyph glyph-name="ordmasculine" unicode="&#xba;" 
d="M231 1051q0 182 108 290.5t277 108.5t277 -108.5t108 -290.5t-108 -291t-277 -109t-277 109t-108 291zM356 1051q0 -130 74 -207.5t186 -77.5t186.5 77.5t74.5 207.5t-74.5 207t-186.5 77t-186 -77t-74 -207z" />
    <glyph glyph-name="guillemotright" unicode="&#xbb;" 
d="M604 88v172q0 22 14 33l308 268l-308 268q-14 11 -14 33v172q0 15 12 15q6 0 13 -7l440 -387q21 -18 21 -37v-114q0 -19 -21 -37l-440 -387q-6 -6 -13 -6q-12 0 -12 14zM174 88v172q0 22 14 33l308 268l-308 268q-14 11 -14 33v172q0 15 12 15q6 0 13 -7l440 -387
q20 -17 20 -37v-114q0 -20 -20 -37l-440 -387q-6 -6 -13 -6q-12 0 -12 14z" />
    <glyph glyph-name="onequarter" unicode="&#xbc;" 
d="M106 688v70q0 20 21 20h184v500l-157 -84q-12 -6 -21 -6q-16 0 -16 16v96q0 13 14 21l197 104q15 9 30 9h48q20 0 20 -21v-635h184q21 0 21 -20v-70q0 -20 -21 -20h-483q-21 0 -21 20zM291 143l803 832q8 8 14 8q8 0 16 -8l52 -51q8 -8 8 -15q0 -6 -8 -14l-803 -832
q-8 -8 -15 -8q-8 0 -16 8l-51 52q-8 8 -8 14t8 14zM858 -385v125h-307q-21 0 -21 20v58q0 12 9 24l323 504q8 14 23 14h67q21 0 21 -20v-490h76q20 0 20 -20v-70q0 -20 -20 -20h-76v-125q0 -21 -21 -21h-73q-21 0 -21 21zM858 137l-178 -287h178v287z" />
    <glyph glyph-name="onehalf" unicode="&#xbd;" 
d="M106 688v70q0 20 21 20h184v500l-157 -84q-12 -6 -21 -6q-16 0 -16 16v96q0 13 14 21l197 104q15 9 30 9h48q20 0 20 -21v-635h184q21 0 21 -20v-70q0 -20 -21 -20h-483q-21 0 -21 20zM236 143l802 832q8 8 15 8q8 0 16 -8l51 -51q8 -8 8 -15q0 -6 -8 -14l-803 -832
q-8 -8 -14 -8q-8 0 -16 8l-51 52q-9 9 -9 14t9 14zM594 -385v61q0 20 12 29l312 270q81 69 81 156q0 57 -33 94t-94 37q-64 0 -101.5 -37.5t-45.5 -95.5q-3 -20 -20 -20h-80q-21 0 -21 20q5 103 78 173.5t190 70.5q114 0 180 -69.5t66 -170.5q0 -76 -27.5 -129t-86.5 -102
l-230 -197h354q21 0 21 -20v-70q0 -21 -21 -21h-514q-20 0 -20 21z" />
    <glyph glyph-name="threequarters" unicode="&#xbe;" 
d="M236 143l802 832q8 8 15 8q8 0 16 -8l51 -51q8 -8 8 -15q0 -6 -8 -14l-803 -832q-8 -8 -14 -8q-8 0 -16 8l-51 52q-9 9 -9 14t9 14zM858 -385v125h-307q-21 0 -21 20v58q0 12 9 24l323 504q8 14 23 14h67q21 0 21 -20v-490h76q20 0 20 -20v-70q0 -20 -20 -20h-76v-125
q0 -21 -21 -21h-73q-21 0 -21 21zM858 137l-178 -287h178v287zM279 1034v70q0 20 20 20h41q64 0 99.5 29.5t35.5 89.5q0 43 -33 71.5t-86 28.5q-49 0 -82 -27t-43 -81q-3 -16 -20 -16h-72q-20 0 -20 18q5 92 69.5 150.5t167.5 58.5q102 0 168 -58t66 -133q0 -113 -92 -172
q54 -23 89.5 -71t35.5 -121q0 -104 -78 -170t-187 -66q-106 0 -188 67.5t-82 168.5q0 20 21 20h77q18 0 21 -20q20 -125 149 -125q65 0 106.5 31t41.5 94q0 59 -39.5 91t-108.5 32h-57q-20 0 -20 20z" />
    <glyph glyph-name="questiondown" unicode="&#xbf;" 
d="M1061 -20q-5 -170 -129.5 -288t-325.5 -118q-192 0 -307 104.5t-115 276.5q0 60 19 111.5t48.5 89t66 71.5t73 66t66 64.5t48.5 74t19 88.5v109q0 20 21 20h131q20 0 20 -20v-94q0 -66 -19 -123t-48.5 -97.5t-66 -77t-73 -68t-66 -63t-48.5 -70t-19 -81.5
q0 -98 68.5 -157.5t181.5 -59.5t191.5 62.5t95.5 179.5q3 20 20 20h127q21 0 21 -20zM711 786h-201q-21 0 -21 21v201q0 20 21 20h201q20 0 20 -20v-201q0 -21 -20 -21z" />
    <glyph glyph-name="Agrave" unicode="&#xc0;" 
d="M348 416l-131 -396q-4 -9 -5.5 -12t-6 -5.5t-12.5 -2.5h-140q-22 0 -22 20q0 9 2 13l479 1380q1 2 2.5 6t2 5.5t2 4t3.5 3.5t4.5 1.5t5.5 0.5h168q6 0 9.5 -2t5.5 -5t4 -9q1 -3 2 -5l479 -1380q2 -4 2 -13q0 -20 -22 -20h-140q-11 0 -15 4t-9 16l-133 396h-535zM616 1221
l-215 -641h428zM569 1819l136 -258q2 -2 2 -9q0 -12 -13 -12h-131q-21 0 -37 19l-202 260l-5 10q0 10 13 10h207q19 0 30 -20z" />
    <glyph glyph-name="Aacute" unicode="&#xc1;" 
d="M348 416l-131 -396q-4 -9 -5.5 -12t-6 -5.5t-12.5 -2.5h-140q-22 0 -22 20q0 9 2 13l479 1380q1 2 2.5 6t2 5.5t2 4t3.5 3.5t4.5 1.5t5.5 0.5h168q6 0 9.5 -2t5.5 -5t4 -9q1 -3 2 -5l479 -1380q2 -4 2 -13q0 -20 -22 -20h-140q-11 0 -15 4t-9 16l-133 396h-535zM616 1221
l-215 -641h428zM528 1561l136 258q11 20 30 20h207q12 0 12 -10q0 -2 -4 -10l-202 -260q-14 -19 -37 -19h-131q-13 0 -13 12q0 7 2 9z" />
    <glyph glyph-name="Acircumflex" unicode="&#xc2;" 
d="M348 416l-131 -396q-4 -9 -5.5 -12t-6 -5.5t-12.5 -2.5h-140q-22 0 -22 20q0 9 2 13l479 1380q1 2 2.5 6t2 5.5t2 4t3.5 3.5t4.5 1.5t5.5 0.5h168q6 0 9.5 -2t5.5 -5t4 -9q1 -3 2 -5l479 -1380q2 -4 2 -13q0 -20 -22 -20h-140q-11 0 -15 4t-9 16l-133 396h-535zM616 1221
l-215 -641h428zM705 1823l206 -262l2 -2q0 -1 1 -4.5t1 -4.5q0 -10 -14 -10h-127q-18 0 -37 19l-121 122l-120 -122q-19 -19 -37 -19h-127q-15 0 -15 10q0 7 2 9q0 2 3 2l206 262q16 16 31 16h115q15 0 31 -16z" />
    <glyph glyph-name="Atilde" unicode="&#xc3;" 
d="M348 416l-131 -396q-4 -9 -5.5 -12t-6 -5.5t-12.5 -2.5h-140q-22 0 -22 20q0 9 2 13l479 1380q1 2 2.5 6t2 5.5t2 4t3.5 3.5t4.5 1.5t5.5 0.5h168q6 0 9.5 -2t5.5 -5t4 -9q1 -3 2 -5l479 -1380q2 -4 2 -13q0 -20 -22 -20h-140q-11 0 -15 4t-9 16l-133 396h-535zM616 1221
l-215 -641h428zM276 1761q47 36 104 57t107 21q44 0 76.5 -8.5t51.5 -21t36 -25t40.5 -21t53.5 -8.5q28 0 54.5 11.5t70.5 39.5q12 4 15 4q10 0 20 -16l58 -86q4 -8 4 -12q0 -8 -11 -19q-47 -36 -104 -57t-107 -21q-44 0 -76.5 8.5t-51.5 21t-36 25t-40.5 21t-53.5 8.5
q-28 0 -54.5 -11.5t-70.5 -39.5q-12 -4 -14 -4q-10 0 -20 17l-58 86q-4 8 -4 12q0 8 10 18z" />
    <glyph glyph-name="Adieresis" unicode="&#xc4;" 
d="M348 416l-131 -396q-4 -9 -5.5 -12t-6 -5.5t-12.5 -2.5h-140q-22 0 -22 20q0 9 2 13l479 1380q1 2 2.5 6t2 5.5t2 4t3.5 3.5t4.5 1.5t5.5 0.5h168q6 0 9.5 -2t5.5 -5t4 -9q1 -3 2 -5l479 -1380q2 -4 2 -13q0 -20 -22 -20h-140q-11 0 -15 4t-9 16l-133 396h-535zM616 1221
l-215 -641h428zM340 1647v172q0 20 20 20h172q21 0 21 -20v-172q0 -21 -21 -21h-172q-20 0 -20 21zM680 1647v172q0 20 20 20h172q21 0 21 -20v-172q0 -21 -21 -21h-172q-20 0 -20 21z" />
    <glyph glyph-name="Aring" unicode="&#xc5;" 
d="M348 416l-131 -396q-4 -9 -5.5 -12t-6 -5.5t-12.5 -2.5h-140q-22 0 -22 20q0 9 2 13l479 1380q1 2 2.5 6t2 5.5t2 4t3.5 3.5t4.5 1.5t5.5 0.5h168q6 0 9.5 -2t5.5 -5t4 -9q1 -3 2 -5l479 -1380q2 -4 2 -13q0 -20 -22 -20h-140q-11 0 -15 4t-9 16l-133 396h-535zM616 1221
l-215 -641h428zM438 1708q0 75 50 123.5t128 48.5t128.5 -48.5t50.5 -123.5t-50.5 -123.5t-128.5 -48.5t-128 48.5t-50 123.5zM537 1708q0 -38 21.5 -60t57.5 -22t58 22t22 60t-22 60t-58 22t-57.5 -22t-21.5 -60z" />
    <glyph glyph-name="AE" unicode="&#xc6;" 
d="M694 672v-508h484q20 0 20 -21v-123q0 -20 -20 -20h-635q-21 0 -21 20v396h-268l-100 -396q-5 -12 -9.5 -16t-15.5 -4h-131q-23 0 -23 20q0 9 2 13l381 1380q8 18 13 20q3 1 8 1h778q21 0 21 -21v-123q0 -20 -21 -20h-463v-434h404q20 0 20 -21v-123q0 -20 -20 -20h-404z
M475 1270l-178 -690h225v690h-47z" />
    <glyph glyph-name="Ccedilla" unicode="&#xc7;" 
d="M532 -211l-26 27q-4 4 -4 8q0 1 0.5 2.5t1.5 5t2 6.5l59 150q-210 31 -340.5 219t-130.5 510q0 180 43.5 322t120.5 231.5t178 136.5t219 47q213 0 349.5 -124t166.5 -361q0 -21 -22 -21h-125q-22 0 -25 21q-34 166 -111.5 243.5t-232.5 77.5q-182 0 -281.5 -146.5
t-99.5 -426.5t99.5 -427t281.5 -147q157 0 233.5 77.5t110.5 244.5q3 20 25 20h125q22 0 22 -20q-30 -230 -159.5 -353.5t-331.5 -131.5l-55 -105q54 14 118 14q81 0 129 -39.5t48 -105.5q0 -170 -220 -170q-127 0 -200 20q-18 8 -20 13q-1 3 -1 8v59q0 21 21 21
q4 0 68 -11.5t126 -11.5q42 0 66 17t24 47q0 29 -24.5 46t-65.5 17q-65 0 -133 -14q-6 -2 -14 -2q-9 0 -15 6z" />
    <glyph glyph-name="Egrave" unicode="&#xc8;" 
d="M350 672v-508h723q21 0 21 -21v-123q0 -20 -21 -20h-874q-21 0 -21 20v1393q0 21 21 21h860q20 0 20 -21v-123q0 -20 -20 -20h-709v-434h645q21 0 21 -21v-123q0 -20 -21 -20h-645zM639 1819l135 -258q2 -2 2 -9q0 -12 -12 -12h-131q-21 0 -37 19l-203 260q-4 8 -4 10
q0 10 12 10h207q20 0 31 -20z" />
    <glyph glyph-name="Eacute" unicode="&#xc9;" 
d="M350 672v-508h723q21 0 21 -21v-123q0 -20 -21 -20h-874q-21 0 -21 20v1393q0 21 21 21h860q20 0 20 -21v-123q0 -20 -20 -20h-709v-434h645q21 0 21 -21v-123q0 -20 -21 -20h-645zM500 1561l135 258q11 20 31 20h206q13 0 13 -10q0 -2 -4 -10l-203 -260q-14 -19 -37 -19
h-131q-12 0 -12 12q0 7 2 9z" />
    <glyph glyph-name="Ecircumflex" unicode="&#xca;" 
d="M350 672v-508h723q21 0 21 -21v-123q0 -20 -21 -20h-874q-21 0 -21 20v1393q0 21 21 21h860q20 0 20 -21v-123q0 -20 -20 -20h-709v-434h645q21 0 21 -21v-123q0 -20 -21 -20h-645zM721 1823l207 -262l2 -2q0 -1 1 -4.5t1 -4.5q0 -10 -14 -10h-127q-18 0 -37 19l-121 122
l-121 -122q-19 -19 -37 -19h-127q-14 0 -14 10q0 7 2 9q0 2 2 2l207 262q16 16 30 16h115q15 0 31 -16z" />
    <glyph glyph-name="Edieresis" unicode="&#xcb;" 
d="M350 672v-508h723q21 0 21 -21v-123q0 -20 -21 -20h-874q-21 0 -21 20v1393q0 21 21 21h860q20 0 20 -21v-123q0 -20 -20 -20h-709v-434h645q21 0 21 -21v-123q0 -20 -21 -20h-645zM369 1647v172q0 20 20 20h172q21 0 21 -20v-172q0 -21 -21 -21h-172q-20 0 -20 21z
M709 1647v172q0 20 20 20h172q21 0 21 -20v-172q0 -21 -21 -21h-172q-20 0 -20 21z" />
    <glyph glyph-name="Igrave" unicode="&#xcc;" 
d="M197 1290v123q0 21 20 21h799q20 0 20 -21v-123q0 -20 -20 -20h-314v-1106h334q21 0 21 -21v-123q0 -20 -21 -20h-839q-21 0 -21 20v123q0 21 21 21h333v1106h-313q-20 0 -20 20zM588 1819l135 -258q2 -2 2 -9q0 -12 -12 -12h-131q-21 0 -37 19l-203 260q-4 8 -4 10
q0 10 12 10h207q20 0 31 -20z" />
    <glyph glyph-name="Iacute" unicode="&#xcd;" 
d="M197 1290v123q0 21 20 21h799q20 0 20 -21v-123q0 -20 -20 -20h-314v-1106h334q21 0 21 -21v-123q0 -20 -21 -20h-839q-21 0 -21 20v123q0 21 21 21h333v1106h-313q-20 0 -20 20zM512 1561l135 258q11 20 31 20h207q12 0 12 -10q0 -2 -4 -10l-203 -260q-14 -19 -37 -19
h-131q-12 0 -12 12q0 7 2 9z" />
    <glyph glyph-name="Icircumflex" unicode="&#xce;" 
d="M197 1290v123q0 21 20 21h799q20 0 20 -21v-123q0 -20 -20 -20h-314v-1106h334q21 0 21 -21v-123q0 -20 -21 -20h-839q-21 0 -21 20v123q0 21 21 21h333v1106h-313q-20 0 -20 20zM705 1823l206 -262l2 -2q0 -1 1 -4.5t1 -4.5q0 -10 -14 -10h-127q-18 0 -37 19l-121 122
l-120 -122q-19 -19 -37 -19h-127q-15 0 -15 10q0 7 2 9q0 2 3 2l206 262q16 16 31 16h115q15 0 31 -16z" />
    <glyph glyph-name="Idieresis" unicode="&#xcf;" 
d="M197 1290v123q0 21 20 21h799q20 0 20 -21v-123q0 -20 -20 -20h-314v-1106h334q21 0 21 -21v-123q0 -20 -21 -20h-839q-21 0 -21 20v123q0 21 21 21h333v1106h-313q-20 0 -20 20zM340 1647v172q0 20 20 20h172q21 0 21 -20v-172q0 -21 -21 -21h-172q-20 0 -20 21z
M680 1647v172q0 20 20 20h172q21 0 21 -20v-172q0 -21 -21 -21h-172q-20 0 -20 21z" />
    <glyph glyph-name="Eth" unicode="&#xd0;" 
d="M168 20v617h-119q-20 0 -20 20v119q0 21 20 21h119v616q0 21 20 21h324q134 0 247 -43.5t199.5 -129.5t135.5 -225.5t49 -318.5t-49 -318.5t-135.5 -225.5t-199.5 -129.5t-247 -43.5h-324q-20 0 -20 20zM340 164h170q213 0 333 137t120 416t-120 416t-333 137h-170v-473
h254q20 0 20 -21v-119q0 -20 -20 -20h-254v-473z" />
    <glyph glyph-name="Ntilde" unicode="&#xd1;" 
d="M1081 0h-166q-25 0 -32 16l-580 1123v-1119q0 -20 -20 -20h-131q-21 0 -21 20v1393q0 21 21 21h165q26 0 33 -17l580 -1122v1118q0 21 20 21h131q21 0 21 -21v-1393q0 -20 -21 -20zM285 1761q47 36 104 57t107 21q44 0 76.5 -8.5t51.5 -21t36 -25t40.5 -21t53.5 -8.5
q28 0 54.5 11.5t70.5 39.5q12 4 14 4q10 0 20 -16l58 -86q4 -8 4 -12q0 -9 -10 -19q-47 -36 -104 -57t-107 -21q-44 0 -76.5 8.5t-51.5 21t-36 25t-40.5 21t-53.5 8.5q-28 0 -54.5 -11.5t-70.5 -39.5q-12 -4 -15 -4q-10 0 -20 17l-57 86q-5 10 -5 12q0 7 11 18z" />
    <glyph glyph-name="Ograve" unicode="&#xd2;" 
d="M616 -20q-242 0 -390 195t-148 542t148 542t390 195t390.5 -195t148.5 -542t-148.5 -542t-390.5 -195zM616 143q172 0 265.5 143t93.5 431t-93.5 430.5t-265.5 142.5q-174 0 -266 -142t-92 -431t92 -431.5t266 -142.5zM580 1819l135 -258q2 -2 2 -9q0 -12 -12 -12h-132
q-20 0 -36 19l-203 260q-4 8 -4 10q0 10 12 10h207q20 0 31 -20z" />
    <glyph glyph-name="Oacute" unicode="&#xd3;" 
d="M616 -20q-242 0 -390 195t-148 542t148 542t390 195t390.5 -195t148.5 -542t-148.5 -542t-390.5 -195zM616 143q172 0 265.5 143t93.5 431t-93.5 430.5t-265.5 142.5q-174 0 -266 -142t-92 -431t92 -431.5t266 -142.5zM500 1561l135 258q11 20 31 20h206q13 0 13 -10
q0 -2 -4 -10l-203 -260q-14 -19 -37 -19h-131q-12 0 -12 12q0 7 2 9z" />
    <glyph glyph-name="Ocircumflex" unicode="&#xd4;" 
d="M616 -20q-242 0 -390 195t-148 542t148 542t390 195t390.5 -195t148.5 -542t-148.5 -542t-390.5 -195zM616 143q172 0 265.5 143t93.5 431t-93.5 430.5t-265.5 142.5q-174 0 -266 -142t-92 -431t92 -431.5t266 -142.5zM705 1823l206 -262l2 -2q0 -1 1 -4.5t1 -4.5
q0 -10 -14 -10h-127q-18 0 -37 19l-121 122l-120 -122q-19 -19 -37 -19h-127q-15 0 -15 10q0 7 2 9q0 2 3 2l206 262q16 16 31 16h115q15 0 31 -16z" />
    <glyph glyph-name="Otilde" unicode="&#xd5;" 
d="M616 -20q-242 0 -390 195t-148 542t148 542t390 195t390.5 -195t148.5 -542t-148.5 -542t-390.5 -195zM616 143q172 0 265.5 143t93.5 431t-93.5 430.5t-265.5 142.5q-174 0 -266 -142t-92 -431t92 -431.5t266 -142.5zM276 1761q47 36 104 57t107 21q44 0 76.5 -8.5
t51.5 -21t36 -25t40.5 -21t53.5 -8.5q28 0 54.5 11.5t70.5 39.5q12 4 15 4q10 0 20 -16l58 -86q4 -8 4 -12q0 -8 -11 -19q-47 -36 -104 -57t-107 -21q-44 0 -76.5 8.5t-51.5 21t-36 25t-40.5 21t-53.5 8.5q-28 0 -54.5 -11.5t-70.5 -39.5q-12 -4 -14 -4q-10 0 -20 17l-58 86
q-4 8 -4 12q0 8 10 18z" />
    <glyph glyph-name="Odieresis" unicode="&#xd6;" 
d="M616 -20q-242 0 -390 195t-148 542t148 542t390 195t390.5 -195t148.5 -542t-148.5 -542t-390.5 -195zM616 143q172 0 265.5 143t93.5 431t-93.5 430.5t-265.5 142.5q-174 0 -266 -142t-92 -431t92 -431.5t266 -142.5zM340 1647v172q0 20 20 20h172q21 0 21 -20v-172
q0 -21 -21 -21h-172q-20 0 -20 21zM680 1647v172q0 20 20 20h172q21 0 21 -20v-172q0 -21 -21 -21h-172q-20 0 -20 21z" />
    <glyph glyph-name="multiply" unicode="&#xd7;" 
d="M971 940l-242 -240l242 -239q8 -8 8 -15q0 -8 -8 -16l-84 -84q-8 -8 -17 -8q-6 0 -14 8l-240 242l-239 -242q-8 -8 -15 -8q-8 0 -16 8l-84 84q-8 8 -8 16q0 7 8 15l242 239l-242 240q-8 8 -8 14q0 9 8 17l84 84q8 8 16 8q7 0 15 -8l239 -242l240 242q8 8 14 8q9 0 17 -8
l84 -84q8 -8 8 -17q0 -6 -8 -14z" />
    <glyph glyph-name="Oslash" unicode="&#xd8;" 
d="M616 -20q-180 0 -307 106l-78 -131q-9 -12 -16 -12l-12 4l-56 33q-12 9 -12 16q0 1 0.5 2.5l1.5 4.5t2 5l92 158q-153 199 -153 551q0 347 148 542t390 195q184 0 308 -106l77 131q9 12 17 12q1 0 2.5 -0.5l4.5 -1.5t5 -2l55 -33q13 -10 13 -16q0 -1 -4 -13l-93 -157
q154 -201 154 -551q0 -347 -148.5 -542t-390.5 -195zM258 717q0 -250 68 -389l514 874q-88 88 -224 88q-174 0 -266 -142t-92 -431zM616 143q172 0 265.5 143t93.5 431q0 250 -68 389l-514 -875q88 -88 223 -88z" />
    <glyph glyph-name="Ugrave" unicode="&#xd9;" 
d="M135 485v928q0 21 21 21h131q20 0 20 -21v-905q0 -365 309 -365q310 0 310 365v905q0 21 20 21h131q21 0 21 -21v-928q0 -232 -136 -368.5t-346 -136.5q-209 0 -345 136.5t-136 368.5zM608 1819l135 -258q2 -2 2 -9q0 -12 -12 -12h-131q-21 0 -37 19l-203 260q-4 8 -4 10
q0 10 13 10h207q19 0 30 -20z" />
    <glyph glyph-name="Uacute" unicode="&#xda;" 
d="M135 485v928q0 21 21 21h131q20 0 20 -21v-905q0 -365 309 -365q310 0 310 365v905q0 21 20 21h131q21 0 21 -21v-928q0 -232 -136 -368.5t-346 -136.5q-209 0 -345 136.5t-136 368.5zM477 1561l135 258q11 20 31 20h207q12 0 12 -10q0 -2 -4 -10l-203 -260
q-14 -19 -37 -19h-131q-12 0 -12 12q0 7 2 9z" />
    <glyph glyph-name="Ucircumflex" unicode="&#xdb;" 
d="M135 485v928q0 21 21 21h131q20 0 20 -21v-905q0 -365 309 -365q310 0 310 365v905q0 21 20 21h131q21 0 21 -21v-928q0 -232 -136 -368.5t-346 -136.5q-209 0 -345 136.5t-136 368.5zM705 1823l206 -262l2 -2q0 -1 1 -4.5t1 -4.5q0 -10 -14 -10h-127q-18 0 -37 19
l-121 122l-120 -122q-19 -19 -37 -19h-127q-15 0 -15 10q0 7 2 9q0 2 3 2l206 262q16 16 31 16h115q15 0 31 -16z" />
    <glyph glyph-name="Udieresis" unicode="&#xdc;" 
d="M135 485v928q0 21 21 21h131q20 0 20 -21v-905q0 -365 309 -365q310 0 310 365v905q0 21 20 21h131q21 0 21 -21v-928q0 -232 -136 -368.5t-346 -136.5q-209 0 -345 136.5t-136 368.5zM340 1647v172q0 20 20 20h172q21 0 21 -20v-172q0 -21 -21 -21h-172q-20 0 -20 21z
M680 1647v172q0 20 20 20h172q21 0 21 -20v-172q0 -21 -21 -21h-172q-20 0 -20 21z" />
    <glyph glyph-name="Yacute" unicode="&#xdd;" 
d="M1149 1413l-447 -809v-584q0 -20 -20 -20h-131q-21 0 -21 20v584l-446 809q-1 2 -2 4.5t-1.5 3.5t-0.5 2q0 11 14 11h162q13 0 23 -17l337 -622l338 622q10 17 23 17h162q14 0 14 -11q0 -1 -0.5 -2t-1.5 -3.5t-2 -4.5zM500 1561l135 258q11 20 31 20h206q13 0 13 -10
q0 -2 -4 -10l-203 -260q-14 -19 -37 -19h-131q-12 0 -12 12q0 7 2 9z" />
    <glyph glyph-name="Thorn" unicode="&#xde;" 
d="M195 20v1393q0 21 20 21h131q21 0 21 -21v-297h309q224 0 347.5 -106t123.5 -293t-123.5 -293.5t-347.5 -106.5h-309v-297q0 -20 -21 -20h-131q-20 0 -20 20zM367 952v-471h340q260 0 260 236q0 235 -260 235h-340z" />
    <glyph glyph-name="germandbls" unicode="&#xdf;" 
d="M801 -20q-132 0 -228 81.5t-96 202.5q0 21 21 21h118q18 0 21 -21q12 -61 55.5 -97t108.5 -36q80 0 126 51.5t46 149.5q0 52 -18 92t-46.5 65t-63 46t-69 43t-63 48t-46.5 68t-18 97q0 49 18.5 89t45 67t53 52t45 57.5t18.5 69.5q0 76 -54.5 126.5t-153.5 50.5
q-104 0 -159.5 -64t-55.5 -186v-1033q0 -20 -21 -20h-119q-20 0 -20 20v857h-148q-20 0 -20 20v111q0 20 20 20h148v66q0 148 102.5 254t272.5 106q171 0 269.5 -87.5t98.5 -231.5q0 -59 -18.5 -106t-45 -76.5t-53 -54.5t-45 -51.5t-18.5 -55.5t18.5 -54t47.5 -45.5
t64.5 -42t71 -50t64.5 -63t47.5 -86t18.5 -114.5q0 -159 -89 -257.5t-251 -98.5z" />
    <glyph glyph-name="agrave" unicode="&#xe0;" 
d="M346 723h-131q-14 0 -14 12q0 13 2 21q30 124 142 208.5t288 84.5q203 0 313.5 -100.5t110.5 -268.5v-483q0 -70 7 -105.5t28 -71.5q2 -2 2 -10q0 -10 -17 -10h-159q-21 0 -21 20v107q-54 -69 -148 -108t-204 -39q-73 0 -140 20t-121.5 59t-87 103t-32.5 145
q0 110 55.5 188t146 115t205.5 37q147 0 326 -43v51q0 242 -264 242q-96 0 -162 -41t-96 -115q-7 -18 -29 -18zM897 453q-173 43 -305 43q-112 0 -186 -49t-74 -140q0 -79 62 -127.5t169 -48.5q135 0 234.5 87.5t99.5 234.5zM633 1413l135 -258q2 -2 2 -8q0 -12 -12 -12
h-131q-22 0 -37 18l-203 260q-4 8 -4 10q0 11 12 11h207q19 0 31 -21z" />
    <glyph glyph-name="aacute" unicode="&#xe1;" 
d="M346 723h-131q-14 0 -14 12q0 13 2 21q30 124 142 208.5t288 84.5q203 0 313.5 -100.5t110.5 -268.5v-483q0 -70 7 -105.5t28 -71.5q2 -2 2 -10q0 -10 -17 -10h-159q-21 0 -21 20v107q-54 -69 -148 -108t-204 -39q-73 0 -140 20t-121.5 59t-87 103t-32.5 145
q0 110 55.5 188t146 115t205.5 37q147 0 326 -43v51q0 242 -264 242q-96 0 -162 -41t-96 -115q-7 -18 -29 -18zM897 453q-173 43 -305 43q-112 0 -186 -49t-74 -140q0 -79 62 -127.5t169 -48.5q135 0 234.5 87.5t99.5 234.5zM492 1155l135 258q12 21 30 21h207q13 0 13 -11
l-5 -10l-202 -260q-13 -18 -37 -18h-131q-13 0 -13 12q0 5 3 8z" />
    <glyph glyph-name="acircumflex" unicode="&#xe2;" 
d="M346 723h-131q-14 0 -14 12q0 13 2 21q30 124 142 208.5t288 84.5q203 0 313.5 -100.5t110.5 -268.5v-483q0 -70 7 -105.5t28 -71.5q2 -2 2 -10q0 -10 -17 -10h-159q-21 0 -21 20v107q-54 -69 -148 -108t-204 -39q-73 0 -140 20t-121.5 59t-87 103t-32.5 145
q0 110 55.5 188t146 115t205.5 37q147 0 326 -43v51q0 242 -264 242q-96 0 -162 -41t-96 -115q-7 -18 -29 -18zM897 453q-173 43 -305 43q-112 0 -186 -49t-74 -140q0 -79 62 -127.5t169 -48.5q135 0 234.5 87.5t99.5 234.5zM721 1417l207 -262l2 -2q0 -1 1 -4t1 -4
q0 -10 -14 -10h-127q-19 0 -37 18l-121 123l-121 -123q-18 -18 -37 -18h-127q-14 0 -14 10q0 6 2 8q0 2 2 2l207 262q17 17 30 17h115q14 0 31 -17z" />
    <glyph glyph-name="atilde" unicode="&#xe3;" 
d="M346 723h-131q-14 0 -14 12q0 13 2 21q30 124 142 208.5t288 84.5q203 0 313.5 -100.5t110.5 -268.5v-483q0 -70 7 -105.5t28 -71.5q2 -2 2 -10q0 -10 -17 -10h-159q-21 0 -21 20v107q-54 -69 -148 -108t-204 -39q-73 0 -140 20t-121.5 59t-87 103t-32.5 145
q0 110 55.5 188t146 115t205.5 37q147 0 326 -43v51q0 242 -264 242q-96 0 -162 -41t-96 -115q-7 -18 -29 -18zM897 453q-173 43 -305 43q-112 0 -186 -49t-74 -140q0 -79 62 -127.5t169 -48.5q135 0 234.5 87.5t99.5 234.5zM303 1356q47 36 104 57t107 21q44 0 76.5 -8.5
t51.5 -21t36 -25t40.5 -21t53.5 -8.5q28 0 54.5 11.5t70.5 39.5q12 4 14 4q11 0 21 -16l57 -86q4 -8 4 -13q0 -8 -10 -18q-47 -36 -104 -57t-107 -21q-44 0 -76.5 8.5t-51.5 21t-36 25t-40.5 21t-53.5 8.5q-28 0 -54.5 -11.5t-70.5 -39.5q-12 -4 -14 -4q-11 0 -21 16l-57 86
q-4 8 -4 12q0 9 10 19z" />
    <glyph glyph-name="adieresis" unicode="&#xe4;" 
d="M346 723h-131q-14 0 -14 12q0 13 2 21q30 124 142 208.5t288 84.5q203 0 313.5 -100.5t110.5 -268.5v-483q0 -70 7 -105.5t28 -71.5q2 -2 2 -10q0 -10 -17 -10h-159q-21 0 -21 20v107q-54 -69 -148 -108t-204 -39q-73 0 -140 20t-121.5 59t-87 103t-32.5 145
q0 110 55.5 188t146 115t205.5 37q147 0 326 -43v51q0 242 -264 242q-96 0 -162 -41t-96 -115q-7 -18 -29 -18zM897 453q-173 43 -305 43q-112 0 -186 -49t-74 -140q0 -79 62 -127.5t169 -48.5q135 0 234.5 87.5t99.5 234.5zM362 1241v172q0 21 21 21h172q20 0 20 -21v-172
q0 -20 -20 -20h-172q-21 0 -21 20zM702 1241v172q0 21 21 21h172q20 0 20 -21v-172q0 -20 -20 -20h-172q-21 0 -21 20z" />
    <glyph glyph-name="aring" unicode="&#xe5;" 
d="M346 723h-131q-14 0 -14 12q0 13 2 21q30 124 142 208.5t288 84.5q203 0 313.5 -100.5t110.5 -268.5v-483q0 -70 7 -105.5t28 -71.5q2 -2 2 -10q0 -10 -17 -10h-159q-21 0 -21 20v107q-54 -69 -148 -108t-204 -39q-73 0 -140 20t-121.5 59t-87 103t-32.5 145
q0 110 55.5 188t146 115t205.5 37q147 0 326 -43v51q0 242 -264 242q-96 0 -162 -41t-96 -115q-7 -18 -29 -18zM897 453q-173 43 -305 43q-112 0 -186 -49t-74 -140q0 -79 62 -127.5t169 -48.5q135 0 234.5 87.5t99.5 234.5zM455 1303q0 75 50 123.5t128 48.5t128 -48.5
t50 -123.5t-50 -124t-128 -49t-128 49t-50 124zM553 1303q0 -38 22 -60t58 -22t58 22t22 60t-22 59.5t-58 21.5t-58 -21.5t-22 -59.5z" />
    <glyph glyph-name="ae" unicode="&#xe6;" 
d="M586 1049h55q92 0 173.5 -28t143 -78t106 -116.5t67 -146.5t22.5 -166v-29q0 -20 -20 -20h-441v-334q108 0 166 43.5t96 144.5q7 19 29 19h133q14 0 14 -14q0 -12 -4 -21q-102 -323 -485 -323h-78q-141 0 -243.5 31.5t-164 103.5t-61.5 180q0 82 36 145.5t97 100.5
t135.5 56t157.5 19h12v277q-80 -8 -141 -48.5t-86 -103.5q-7 -18 -29 -18h-131q-14 0 -14 12q0 13 2 21q26 112 156 202.5t297 90.5zM262 295q0 -79 63.5 -121.5t186.5 -42.5h20v334q-130 0 -200 -44t-70 -126zM692 616h281q-25 130 -99 205.5t-182 75.5v-281z" />
    <glyph glyph-name="ccedilla" unicode="&#xe7;" 
d="M504 -211l-27 27q-4 4 -4 8q0 1 0.5 2.5t1.5 5t2 6.5l62 152q-182 32 -288 175.5t-106 348.5q0 232 136.5 383.5t363.5 151.5q180 0 296.5 -90t158.5 -252q2 -8 2 -21q0 -12 -15 -12h-124q-22 0 -29 18q-29 98 -104 151.5t-185 53.5q-147 0 -239.5 -106t-92.5 -277
t92.5 -277t239.5 -106q110 0 185 53.5t104 151.5q7 18 29 18h124q15 0 15 -12t-2 -20q-42 -161 -157 -251t-292 -91l-55 -105q54 14 119 14q81 0 128.5 -39.5t47.5 -105.5q0 -170 -219 -170q-128 0 -201 20q-17 7 -19 13q-1 3 -1 8v59q0 21 20 21q4 0 68.5 -11.5
t126.5 -11.5q42 0 66 17t24 47q0 29 -24.5 46t-65.5 17q-66 0 -134 -14q-6 -2 -14 -2t-14 6z" />
    <glyph glyph-name="egrave" unicode="&#xe8;" 
d="M1096 465h-781q12 -150 95.5 -242t226.5 -92q110 0 177 45t104 143q7 19 28 19h133q15 0 15 -14q0 -12 -4 -21q-111 -323 -453 -323q-155 0 -268.5 71.5t-169.5 191t-56 271.5q0 229 138 382t356 153q113 0 205.5 -43t151.5 -117t90.5 -170t31.5 -205v-29q0 -20 -20 -20z
M637 897q-114 0 -201.5 -76.5t-111.5 -204.5h612q-25 127 -107 204t-192 77zM659 1413l136 -258q2 -2 2 -8q0 -12 -13 -12h-131q-22 0 -37 18l-202 260q-4 8 -4 10q0 11 12 11h207q18 0 30 -21z" />
    <glyph glyph-name="eacute" unicode="&#xe9;" 
d="M1096 465h-781q12 -150 95.5 -242t226.5 -92q110 0 177 45t104 143q7 19 28 19h133q15 0 15 -14q0 -12 -4 -21q-111 -323 -453 -323q-155 0 -268.5 71.5t-169.5 191t-56 271.5q0 229 138 382t356 153q113 0 205.5 -43t151.5 -117t90.5 -170t31.5 -205v-29q0 -20 -20 -20z
M637 897q-114 0 -201.5 -76.5t-111.5 -204.5h612q-25 127 -107 204t-192 77zM514 1155l135 258q12 21 31 21h207q12 0 12 -11q0 -2 -4 -10l-203 -260q-13 -18 -37 -18h-131q-12 0 -12 12q0 6 2 8z" />
    <glyph glyph-name="ecircumflex" unicode="&#xea;" 
d="M1096 465h-781q12 -150 95.5 -242t226.5 -92q110 0 177 45t104 143q7 19 28 19h133q15 0 15 -14q0 -12 -4 -21q-111 -323 -453 -323q-155 0 -268.5 71.5t-169.5 191t-56 271.5q0 229 138 382t356 153q113 0 205.5 -43t151.5 -117t90.5 -170t31.5 -205v-29q0 -20 -20 -20z
M637 897q-114 0 -201.5 -76.5t-111.5 -204.5h612q-25 127 -107 204t-192 77zM725 1417l207 -262l2 -2q0 -1 1 -4t1 -4q0 -10 -14 -10h-127q-19 0 -37 18l-121 123l-121 -123q-18 -18 -37 -18h-127q-14 0 -14 10q0 6 2 8q0 2 2 2l207 262q17 17 31 17h114q14 0 31 -17z" />
    <glyph glyph-name="edieresis" unicode="&#xeb;" 
d="M1096 465h-781q12 -150 95.5 -242t226.5 -92q110 0 177 45t104 143q7 19 28 19h133q15 0 15 -14q0 -12 -4 -21q-111 -323 -453 -323q-155 0 -268.5 71.5t-169.5 191t-56 271.5q0 229 138 382t356 153q113 0 205.5 -43t151.5 -117t90.5 -170t31.5 -205v-29q0 -20 -20 -20z
M637 897q-114 0 -201.5 -76.5t-111.5 -204.5h612q-25 127 -107 204t-192 77zM360 1241v172q0 21 21 21h172q20 0 20 -21v-172q0 -20 -20 -20h-172q-21 0 -21 20zM700 1241v172q0 21 21 21h172q20 0 20 -21v-172q0 -20 -20 -20h-172q-21 0 -21 20z" />
    <glyph glyph-name="igrave" unicode="&#xec;" 
d="M252 901v107q0 20 20 20h443q20 0 20 -20v-856h355q20 0 20 -21v-111q0 -20 -20 -20h-869q-20 0 -20 20v111q0 21 20 21h354v729h-303q-20 0 -20 20zM610 1413l135 -258q3 -3 3 -8q0 -12 -13 -12h-131q-22 0 -37 18l-202 260l-5 10q0 11 13 11h207q18 0 30 -21z" />
    <glyph glyph-name="iacute" unicode="&#xed;" 
d="M252 901v107q0 20 20 20h443q20 0 20 -20v-856h355q20 0 20 -21v-111q0 -20 -20 -20h-869q-20 0 -20 20v111q0 21 20 21h354v729h-303q-20 0 -20 20zM504 1155l135 258q12 21 31 21h207q12 0 12 -11q0 -2 -4 -10l-203 -260q-13 -18 -37 -18h-131q-12 0 -12 12q0 6 2 8z
" />
    <glyph glyph-name="icircumflex" unicode="&#xee;" 
d="M252 901v107q0 20 20 20h443q20 0 20 -20v-856h355q20 0 20 -21v-111q0 -20 -20 -20h-869q-20 0 -20 20v111q0 21 20 21h354v729h-303q-20 0 -20 20zM717 1417l207 -262l2 -2q0 -1 1 -4t1 -4q0 -10 -15 -10h-127q-13 0 -18.5 3.5t-17.5 14.5l-121 123l-121 -123
q-18 -18 -37 -18h-127q-14 0 -14 10q0 6 2 8q0 2 2 2l207 262q17 17 30 17h115q14 0 31 -17z" />
    <glyph glyph-name="idieresis" unicode="&#xef;" 
d="M252 901v107q0 20 20 20h443q20 0 20 -20v-856h355q20 0 20 -21v-111q0 -20 -20 -20h-869q-20 0 -20 20v111q0 21 20 21h354v729h-303q-20 0 -20 20zM342 1241v172q0 21 20 21h173q20 0 20 -21v-172q0 -20 -20 -20h-173q-20 0 -20 20zM682 1241v172q0 21 20 21h172
q21 0 21 -21v-172q0 -20 -21 -20h-172q-20 0 -20 20z" />
    <glyph glyph-name="eth" unicode="&#xf0;" 
d="M459 1096l-37 96q-2 4 -2 10q0 11 14 17l107 41q-68 24 -205 38q-17 3 -17 25l19 107q2 14 29 14q222 -23 378 -109l191 76h4q1 0 4 1t4 1q12 0 15 -12l36 -96v-5q0 -1 1 -3t1 -3q0 -10 -14 -16l-115 -45q100 -103 155.5 -264.5t55.5 -347.5q0 -166 -38.5 -291.5
t-106.5 -200.5t-155 -112t-191 -37q-101 0 -191 38t-156.5 106t-105.5 169.5t-39 220.5q0 242 135 388.5t351 146.5q184 0 288 -121q-34 157 -172 241l-217 -84q-2 -2 -4 -2h-8q-11 0 -14 13zM268 514q0 -176 83.5 -279.5t240.5 -103.5q148 0 235.5 102.5t87.5 280.5
q0 176 -88 279.5t-235 103.5q-157 0 -240.5 -103.5t-83.5 -279.5z" />
    <glyph glyph-name="ntilde" unicode="&#xf1;" 
d="M213 20v988q0 20 20 20h119q21 0 21 -20v-123q58 71 150 117.5t198 46.5q166 0 252 -90.5t86 -249.5v-689q0 -20 -21 -20h-118q-21 0 -21 20v658q0 110 -49 164.5t-162 54.5q-134 0 -224.5 -97t-90.5 -259v-521q0 -20 -21 -20h-119q-20 0 -20 20zM297 1356q47 36 104 57
t107 21q44 0 76.5 -8.5t51.5 -21t36 -25t40.5 -21t53.5 -8.5q28 0 54.5 11.5t70.5 39.5q12 4 14 4q11 0 21 -16l57 -86q4 -8 4 -13q0 -8 -10 -18q-47 -36 -104 -57t-107 -21q-44 0 -76.5 8.5t-51.5 21t-36 25t-40.5 21t-53.5 8.5q-28 0 -54.5 -11.5t-70.5 -39.5
q-12 -4 -14 -4q-11 0 -21 16l-57 86q-4 8 -4 12q0 9 10 19z" />
    <glyph glyph-name="ograve" unicode="&#xf2;" 
d="M104 514q0 239 144 387t368 148t368 -148t144 -387t-144 -386.5t-368 -147.5t-368 147.5t-144 386.5zM272 514q0 -168 96 -275.5t248 -107.5t248.5 107.5t96.5 275.5t-96.5 275.5t-248.5 107.5t-248 -107.5t-96 -275.5zM625 1413l135 -258q2 -2 2 -8q0 -12 -12 -12h-132
q-21 0 -36 18l-203 260q-4 8 -4 10q0 11 12 11h207q19 0 31 -21z" />
    <glyph glyph-name="oacute" unicode="&#xf3;" 
d="M104 514q0 239 144 387t368 148t368 -148t144 -387t-144 -386.5t-368 -147.5t-368 147.5t-144 386.5zM272 514q0 -168 96 -275.5t248 -107.5t248.5 107.5t96.5 275.5t-96.5 275.5t-248.5 107.5t-248 -107.5t-96 -275.5zM489 1155l136 258q12 21 30 21h207q12 0 12 -11
q0 -2 -4 -10l-202 -260q-13 -18 -37 -18h-131q-13 0 -13 12q0 6 2 8z" />
    <glyph glyph-name="ocircumflex" unicode="&#xf4;" 
d="M104 514q0 239 144 387t368 148t368 -148t144 -387t-144 -386.5t-368 -147.5t-368 147.5t-144 386.5zM272 514q0 -168 96 -275.5t248 -107.5t248.5 107.5t96.5 275.5t-96.5 275.5t-248.5 107.5t-248 -107.5t-96 -275.5zM705 1417l206 -262l2 -2q0 -1 1 -4t1 -4
q0 -10 -14 -10h-127q-19 0 -37 18l-121 123l-120 -123q-18 -18 -37 -18h-127q-15 0 -15 10q0 6 2 8q0 2 3 2l206 262q17 17 31 17h115q14 0 31 -17z" />
    <glyph glyph-name="otilde" unicode="&#xf5;" 
d="M104 514q0 239 144 387t368 148t368 -148t144 -387t-144 -386.5t-368 -147.5t-368 147.5t-144 386.5zM272 514q0 -168 96 -275.5t248 -107.5t248.5 107.5t96.5 275.5t-96.5 275.5t-248.5 107.5t-248 -107.5t-96 -275.5zM276 1356q47 36 104 57t107 21q44 0 76.5 -8.5
t51.5 -21t36 -25t40.5 -21t53.5 -8.5q28 0 54.5 11.5t70.5 39.5q12 4 15 4q10 0 20 -16l58 -86q4 -8 4 -13q0 -7 -11 -18q-47 -36 -104 -57t-107 -21q-44 0 -76.5 8.5t-51.5 21t-36 25t-40.5 21t-53.5 8.5q-28 0 -54.5 -11.5t-70.5 -39.5q-12 -4 -14 -4q-10 0 -20 16l-58 86
q-4 8 -4 12q0 9 10 19z" />
    <glyph glyph-name="odieresis" unicode="&#xf6;" 
d="M104 514q0 239 144 387t368 148t368 -148t144 -387t-144 -386.5t-368 -147.5t-368 147.5t-144 386.5zM272 514q0 -168 96 -275.5t248 -107.5t248.5 107.5t96.5 275.5t-96.5 275.5t-248.5 107.5t-248 -107.5t-96 -275.5zM340 1241v172q0 21 20 21h172q21 0 21 -21v-172
q0 -20 -21 -20h-172q-20 0 -20 20zM680 1241v172q0 21 20 21h172q21 0 21 -21v-172q0 -20 -21 -20h-172q-20 0 -20 20z" />
    <glyph glyph-name="divide" unicode="&#xf7;" 
d="M512 332h209q20 0 20 -21v-209q0 -20 -20 -20h-209q-20 0 -20 20v209q0 21 20 21zM512 1049h209q20 0 20 -21v-209q0 -20 -20 -20h-209q-20 0 -20 20v209q0 21 20 21zM197 645h839q21 0 21 -20v-119q0 -21 -21 -21h-839q-21 0 -21 21v119q0 20 21 20z" />
    <glyph glyph-name="oslash" unicode="&#xf8;" 
d="M104 514q0 239 144 387t368 148q121 0 226 -45l49 83q10 13 16 13q1 0 13 -4l55 -33q12 -9 12 -16q0 -1 -4 -13l-51 -86q94 -73 145 -184t51 -250q0 -239 -144 -386.5t-368 -147.5q-120 0 -225 45l-49 -84q-10 -13 -16 -13q-1 0 -13 4l-55 33q-12 9 -12 17l4 12l51 86
q-94 73 -145.5 184t-51.5 250zM961 514q0 182 -111 293l-379 -645q67 -31 145 -31q152 0 248.5 107.5t96.5 275.5zM272 514q0 -182 111 -293l379 645q-67 31 -146 31q-152 0 -248 -107.5t-96 -275.5z" />
    <glyph glyph-name="ugrave" unicode="&#xf9;" 
d="M1026 1008v-988q0 -20 -20 -20h-119q-21 0 -21 20v123q-58 -71 -149.5 -117t-198.5 -46q-167 0 -252.5 90t-85.5 249v689q0 20 21 20h118q21 0 21 -20v-658q0 -110 49 -164.5t162 -54.5q134 0 224.5 97t90.5 259v521q0 20 21 20h119q20 0 20 -20zM629 1413l135 -258
q2 -2 2 -8q0 -12 -12 -12h-131q-22 0 -37 18l-203 260q-4 8 -4 10q0 11 12 11h207q19 0 31 -21z" />
    <glyph glyph-name="uacute" unicode="&#xfa;" 
d="M1026 1008v-988q0 -20 -20 -20h-119q-21 0 -21 20v123q-58 -71 -149.5 -117t-198.5 -46q-167 0 -252.5 90t-85.5 249v689q0 20 21 20h118q21 0 21 -20v-658q0 -110 49 -164.5t162 -54.5q134 0 224.5 97t90.5 259v521q0 20 21 20h119q20 0 20 -20zM444 1155l136 258
q12 21 30 21h207q12 0 12 -11q0 -2 -4 -10l-202 -260q-13 -18 -37 -18h-131q-13 0 -13 12q0 6 2 8z" />
    <glyph glyph-name="ucircumflex" unicode="&#xfb;" 
d="M1026 1008v-988q0 -20 -20 -20h-119q-21 0 -21 20v123q-58 -71 -149.5 -117t-198.5 -46q-167 0 -252.5 90t-85.5 249v689q0 20 21 20h118q21 0 21 -20v-658q0 -110 49 -164.5t162 -54.5q134 0 224.5 97t90.5 259v521q0 20 21 20h119q20 0 20 -20zM692 1417l207 -262l2 -2
q0 -1 1 -4t1 -4q0 -10 -14 -10h-127q-19 0 -37 18l-121 123l-121 -123q-18 -18 -37 -18h-127q-14 0 -14 10q0 6 2 8q0 2 2 2l207 262q17 17 31 17h115q13 0 30 -17z" />
    <glyph glyph-name="udieresis" unicode="&#xfc;" 
d="M1026 1008v-988q0 -20 -20 -20h-119q-21 0 -21 20v123q-58 -71 -149.5 -117t-198.5 -46q-167 0 -252.5 90t-85.5 249v689q0 20 21 20h118q21 0 21 -20v-658q0 -110 49 -164.5t162 -54.5q134 0 224.5 97t90.5 259v521q0 20 21 20h119q20 0 20 -20zM326 1241v172
q0 21 20 21h172q21 0 21 -21v-172q0 -20 -21 -20h-172q-20 0 -20 20zM666 1241v172q0 21 20 21h172q21 0 21 -21v-172q0 -20 -21 -20h-172q-20 0 -20 20z" />
    <glyph glyph-name="yacute" unicode="&#xfd;" 
d="M184 -360v110q0 21 17 21q12 0 30 -11t47.5 -22.5t69.5 -11.5q73 0 113.5 57.5t99.5 212.5l4 12l-420 987q-4 16 -4 17q0 16 17 16h147q21 0 27 -20l321 -777l305 777q5 11 10.5 15.5t18.5 4.5h141q17 0 17 -14q0 -1 -0.5 -3t-1.5 -5.5t-2 -6.5l-441 -1099
q-70 -175 -149 -250.5t-195 -75.5q-84 0 -151 33q-21 12 -21 33zM524 1155l135 258q12 21 31 21h207q12 0 12 -11q0 -2 -4 -10l-203 -260q-13 -18 -36 -18h-131q-13 0 -13 12q0 6 2 8z" />
    <glyph glyph-name="thorn" unicode="&#xfe;" 
d="M197 -385v1798q0 21 20 21h119q20 0 20 -21v-502q57 57 147.5 97.5t178.5 40.5q204 0 328.5 -145.5t124.5 -389.5t-124.5 -389t-328.5 -145q-103 0 -190.5 37.5t-135.5 99.5v-502q0 -21 -20 -21h-119q-20 0 -20 21zM340 514q0 -167 82.5 -275t226.5 -108
q147 0 232.5 108.5t85.5 274.5t-85.5 274.5t-232.5 108.5q-144 0 -226.5 -108t-82.5 -275z" />
    <glyph glyph-name="ydieresis" unicode="&#xff;" 
d="M184 -360v110q0 21 17 21q12 0 30 -11t47.5 -22.5t69.5 -11.5q73 0 113.5 57.5t99.5 212.5l4 12l-420 987q-4 16 -4 17q0 16 17 16h147q21 0 27 -20l321 -777l305 777q5 11 10.5 15.5t18.5 4.5h141q17 0 17 -14q0 -1 -0.5 -3t-1.5 -5.5t-2 -6.5l-441 -1099
q-70 -175 -149 -250.5t-195 -75.5q-84 0 -151 33q-21 12 -21 33zM377 1241v172q0 21 20 21h172q21 0 21 -21v-172q0 -20 -21 -20h-172q-20 0 -20 20zM717 1241v172q0 21 20 21h172q21 0 21 -21v-172q0 -20 -21 -20h-172q-20 0 -20 20z" />
    <glyph glyph-name="Amacron" unicode="&#x100;" 
d="M348 416l-131 -396q-4 -9 -5.5 -12t-6 -5.5t-12.5 -2.5h-140q-22 0 -22 20q0 9 2 13l479 1380q1 2 2.5 6t2 5.5t2 4t3.5 3.5t4.5 1.5t5.5 0.5h168q6 0 9.5 -2t5.5 -5t4 -9q1 -3 2 -5l479 -1380q2 -4 2 -13q0 -20 -22 -20h-140q-11 0 -15 4t-9 16l-133 396h-535zM616 1221
l-215 -641h428zM397 1647v102q0 20 21 20h397q21 0 21 -20v-102q0 -21 -21 -21h-397q-21 0 -21 21z" />
    <glyph glyph-name="amacron" unicode="&#x101;" 
d="M346 723h-131q-14 0 -14 12q0 13 2 21q30 124 142 208.5t288 84.5q203 0 313.5 -100.5t110.5 -268.5v-483q0 -70 7 -105.5t28 -71.5q2 -2 2 -10q0 -10 -17 -10h-159q-21 0 -21 20v107q-54 -69 -148 -108t-204 -39q-73 0 -140 20t-121.5 59t-87 103t-32.5 145
q0 110 55.5 188t146 115t205.5 37q147 0 326 -43v51q0 242 -264 242q-96 0 -162 -41t-96 -115q-7 -18 -29 -18zM897 453q-173 43 -305 43q-112 0 -186 -49t-74 -140q0 -79 62 -127.5t169 -48.5q135 0 234.5 87.5t99.5 234.5zM420 1241v102q0 21 20 21h398q20 0 20 -21v-102
q0 -20 -20 -20h-398q-20 0 -20 20z" />
    <glyph glyph-name="Abreve" unicode="&#x102;" 
d="M348 416l-131 -396q-4 -9 -5.5 -12t-6 -5.5t-12.5 -2.5h-140q-22 0 -22 20q0 9 2 13l479 1380q1 2 2.5 6t2 5.5t2 4t3.5 3.5t4.5 1.5t5.5 0.5h168q6 0 9.5 -2t5.5 -5t4 -9q1 -3 2 -5l479 -1380q2 -4 2 -13q0 -20 -22 -20h-140q-11 0 -15 4t-9 16l-133 396h-535zM616 1221
l-215 -641h428zM367 1808h98q20 0 20 -20q0 -51 34.5 -79t96.5 -28t97 28t35 79q0 20 20 20h98q21 0 21 -20q0 -114 -74 -178t-197 -64t-196.5 64t-73.5 178q0 20 21 20z" />
    <glyph glyph-name="abreve" unicode="&#x103;" 
d="M346 723h-131q-14 0 -14 12q0 13 2 21q30 124 142 208.5t288 84.5q203 0 313.5 -100.5t110.5 -268.5v-483q0 -70 7 -105.5t28 -71.5q2 -2 2 -10q0 -10 -17 -10h-159q-21 0 -21 20v107q-54 -69 -148 -108t-204 -39q-73 0 -140 20t-121.5 59t-87 103t-32.5 145
q0 110 55.5 188t146 115t205.5 37q147 0 326 -43v51q0 242 -264 242q-96 0 -162 -41t-96 -115q-7 -18 -29 -18zM897 453q-173 43 -305 43q-112 0 -186 -49t-74 -140q0 -79 62 -127.5t169 -48.5q135 0 234.5 87.5t99.5 234.5zM395 1403h99q20 0 20 -21q0 -51 34.5 -78.5
t96.5 -27.5t96.5 27.5t34.5 78.5q0 21 21 21h98q20 0 20 -21q0 -114 -73.5 -177.5t-196.5 -63.5t-196.5 63.5t-73.5 177.5q0 21 20 21z" />
    <glyph glyph-name="Aogonek" unicode="&#x104;" 
d="M348 416l-131 -396q-4 -9 -5.5 -12t-6 -5.5t-12.5 -2.5h-140q-22 0 -22 20q0 9 2 13l479 1380q1 2 2.5 6t2 5.5t2 4t3.5 3.5t4.5 1.5t5.5 0.5h168q6 0 9.5 -2t5.5 -5t4 -9q1 -3 2 -5l479 -1380q2 -4 2 -13q0 -17 -16 -20q-62 -18 -99.5 -55.5t-37.5 -87.5q0 -49 35.5 -77
t93.5 -28h39q20 0 20 -20v-70q0 -20 -20 -20h-74q-109 0 -176.5 47t-67.5 139q0 63 33.5 110t85.5 74l-135 404h-535zM616 1221l-215 -641h428z" />
    <glyph glyph-name="aogonek" unicode="&#x105;" 
d="M346 723h-131q-14 0 -14 12q0 13 2 21q30 124 142 208.5t288 84.5q203 0 313.5 -100.5t110.5 -268.5v-483q0 -70 7 -105.5t28 -71.5q2 -2 2 -10q0 -6 -11 -10q-62 -18 -99.5 -55.5t-37.5 -87.5q0 -49 35.5 -77t93.5 -28h39q21 0 21 -20v-70q0 -20 -21 -20h-74
q-109 0 -176 46.5t-67 139.5q0 57 28.5 101.5t71.5 70.5v127q-54 -69 -148 -108t-204 -39q-73 0 -140 20t-121.5 59t-87 103t-32.5 145q0 110 55.5 188t146 115t205.5 37q147 0 326 -43v51q0 242 -264 242q-96 0 -162 -41t-96 -115q-7 -18 -29 -18zM897 453q-173 43 -305 43
q-112 0 -186 -49t-74 -140q0 -79 62 -127.5t169 -48.5q135 0 234.5 87.5t99.5 234.5z" />
    <glyph glyph-name="Cacute" unicode="&#x106;" 
d="M1024 485h125q22 0 22 -20q-30 -237 -166.5 -361t-349.5 -124q-118 0 -219 47t-178 136.5t-120.5 231.5t-43.5 322t43.5 322t120.5 231.5t178 136.5t219 47q213 0 349.5 -124t166.5 -361q0 -21 -22 -21h-125q-22 0 -25 21q-34 166 -111.5 243.5t-232.5 77.5
q-182 0 -281.5 -146.5t-99.5 -426.5t99.5 -427t281.5 -147q157 0 233.5 77.5t110.5 244.5q3 20 25 20zM545 1561l135 258q11 20 31 20h207q12 0 12 -10q0 -2 -4 -10l-203 -260q-14 -19 -37 -19h-131q-12 0 -12 12q0 7 2 9z" />
    <glyph glyph-name="cacute" unicode="&#x107;" 
d="M645 897q-147 0 -239.5 -106t-92.5 -277t92.5 -277t239.5 -106q110 0 185 53.5t104 151.5q7 18 29 18h124q15 0 15 -12t-2 -20q-42 -162 -158.5 -252t-296.5 -90q-227 0 -363.5 151t-136.5 383t136.5 383.5t363.5 151.5q180 0 296.5 -90t158.5 -252q2 -8 2 -21
q0 -12 -15 -12h-124q-22 0 -29 18q-29 98 -104 151.5t-185 53.5zM520 1155l135 258q12 21 31 21h207q12 0 12 -11q0 -2 -4 -10l-203 -260q-13 -18 -36 -18h-132q-12 0 -12 12q0 6 2 8z" />
    <glyph glyph-name="Ccircumflex" unicode="&#x108;" 
d="M1024 485h125q22 0 22 -20q-30 -237 -166.5 -361t-349.5 -124q-118 0 -219 47t-178 136.5t-120.5 231.5t-43.5 322t43.5 322t120.5 231.5t178 136.5t219 47q213 0 349.5 -124t166.5 -361q0 -21 -22 -21h-125q-22 0 -25 21q-34 166 -111.5 243.5t-232.5 77.5
q-182 0 -281.5 -146.5t-99.5 -426.5t99.5 -427t281.5 -147q157 0 233.5 77.5t110.5 244.5q3 20 25 20zM743 1823l207 -262l2 -2q0 -1 1 -4.5t1 -4.5q0 -10 -14 -10h-127q-18 0 -37 19l-121 122l-120 -122q-19 -19 -37 -19h-127q-15 0 -15 10q0 7 2 9q0 2 2 2l207 262
q16 16 31 16h115q14 0 30 -16z" />
    <glyph glyph-name="ccircumflex" unicode="&#x109;" 
d="M645 897q-147 0 -239.5 -106t-92.5 -277t92.5 -277t239.5 -106q110 0 185 53.5t104 151.5q7 18 29 18h124q15 0 15 -12t-2 -20q-42 -162 -158.5 -252t-296.5 -90q-227 0 -363.5 151t-136.5 383t136.5 383.5t363.5 151.5q180 0 296.5 -90t158.5 -252q2 -8 2 -21
q0 -12 -15 -12h-124q-22 0 -29 18q-29 98 -104 151.5t-185 53.5zM733 1417l207 -262l2 -2q0 -1 1 -4t1 -4q0 -10 -14 -10h-127q-19 0 -37 18l-121 123l-121 -123q-18 -18 -37 -18h-127q-14 0 -14 10q0 6 2 8q0 2 2 2l207 262q17 17 31 17h114q14 0 31 -17z" />
    <glyph glyph-name="Cdotaccent" unicode="&#x10a;" 
d="M1024 485h125q22 0 22 -20q-30 -237 -166.5 -361t-349.5 -124q-118 0 -219 47t-178 136.5t-120.5 231.5t-43.5 322t43.5 322t120.5 231.5t178 136.5t219 47q213 0 349.5 -124t166.5 -361q0 -21 -22 -21h-125q-22 0 -25 21q-34 166 -111.5 243.5t-232.5 77.5
q-182 0 -281.5 -146.5t-99.5 -426.5t99.5 -427t281.5 -147q157 0 233.5 77.5t110.5 244.5q3 20 25 20zM547 1642v177q0 20 20 20h176q21 0 21 -20v-177q0 -20 -21 -20h-176q-20 0 -20 20z" />
    <glyph glyph-name="cdotaccent" unicode="&#x10b;" 
d="M645 897q-147 0 -239.5 -106t-92.5 -277t92.5 -277t239.5 -106q110 0 185 53.5t104 151.5q7 18 29 18h124q15 0 15 -12t-2 -20q-42 -162 -158.5 -252t-296.5 -90q-227 0 -363.5 151t-136.5 383t136.5 383.5t363.5 151.5q180 0 296.5 -90t158.5 -252q2 -8 2 -21
q0 -12 -15 -12h-124q-22 0 -29 18q-29 98 -104 151.5t-185 53.5zM537 1237v176q0 21 20 21h176q21 0 21 -21v-176q0 -20 -21 -20h-176q-20 0 -20 20z" />
    <glyph glyph-name="Ccaron" unicode="&#x10c;" 
d="M1024 485h125q22 0 22 -20q-30 -237 -166.5 -361t-349.5 -124q-118 0 -219 47t-178 136.5t-120.5 231.5t-43.5 322t43.5 322t120.5 231.5t178 136.5t219 47q213 0 349.5 -124t166.5 -361q0 -21 -22 -21h-125q-22 0 -25 21q-34 166 -111.5 243.5t-232.5 77.5
q-182 0 -281.5 -146.5t-99.5 -426.5t99.5 -427t281.5 -147q157 0 233.5 77.5t110.5 244.5q3 20 25 20zM950 1819l-207 -263q-16 -16 -30 -16h-115q-15 0 -31 16l-207 263q-2 0 -2 2q-2 2 -2 8q0 10 15 10h127q19 0 37 -18l120 -123l121 123q18 18 37 18h127q14 0 14 -10
q0 -3 -1 -5t-1 -3z" />
    <glyph glyph-name="ccaron" unicode="&#x10d;" 
d="M645 897q-147 0 -239.5 -106t-92.5 -277t92.5 -277t239.5 -106q110 0 185 53.5t104 151.5q7 18 29 18h124q15 0 15 -12t-2 -20q-42 -162 -158.5 -252t-296.5 -90q-227 0 -363.5 151t-136.5 383t136.5 383.5t363.5 151.5q180 0 296.5 -90t158.5 -252q2 -8 2 -21
q0 -12 -15 -12h-124q-22 0 -29 18q-29 98 -104 151.5t-185 53.5zM940 1413l-207 -262q-16 -16 -31 -16h-114q-15 0 -31 16l-207 262q-2 0 -2 2q-2 2 -2 8q0 11 14 11h127q18 0 37 -19l121 -123l121 123q19 19 37 19h127q14 0 14 -11q0 -3 -1 -5t-1 -3z" />
    <glyph glyph-name="Dcaron" unicode="&#x10e;" 
d="M154 20v1393q0 21 20 21h324q134 0 246.5 -43.5t199 -129.5t135.5 -225t49 -319t-49 -319t-135.5 -225t-199 -129.5t-246.5 -43.5h-324q-20 0 -20 20zM326 164h170q213 0 332.5 137t119.5 416t-119.5 416t-332.5 137h-170v-1106zM774 1819l-207 -263q-16 -16 -30 -16
h-115q-15 0 -31 16l-207 263q-2 0 -2 2q-2 2 -2 8q0 10 15 10h127q13 0 18.5 -3.5t17.5 -14.5l121 -123l121 123q18 18 37 18h127q14 0 14 -10q0 -3 -1 -5t-1 -3z" />
    <glyph glyph-name="dcaron" unicode="&#x10f;" 
d="M950 1413v-1393q0 -20 -20 -20h-119q-20 0 -20 20v97q-48 -62 -135.5 -99.5t-190.5 -37.5q-204 0 -328.5 145t-124.5 389t124.5 389.5t328.5 145.5q91 0 178 -37t148 -101v502q0 21 20 21h119q20 0 20 -21zM807 514q0 167 -82.5 275t-226.5 108q-147 0 -232.5 -108.5
t-85.5 -274.5t85.5 -274.5t232.5 -108.5q144 0 226.5 108t82.5 275zM1044 1036q58 0 76.5 22.5t18.5 86.5v39h-95q-20 0 -20 20v209q0 21 20 21h209q21 0 21 -21v-301q0 -90 -42 -140t-116 -50h-72q-20 0 -20 20v74q0 20 20 20z" />
    <glyph glyph-name="Dcroat" unicode="&#x110;" 
d="M168 20v617h-119q-20 0 -20 20v119q0 21 20 21h119v616q0 21 20 21h324q134 0 247 -43.5t199.5 -129.5t135.5 -225.5t49 -318.5t-49 -318.5t-135.5 -225.5t-199.5 -129.5t-247 -43.5h-324q-20 0 -20 20zM340 164h170q213 0 333 137t120 416t-120 416t-333 137h-170v-473
h254q20 0 20 -21v-119q0 -20 -20 -20h-254v-473z" />
    <glyph glyph-name="dcroat" unicode="&#x111;" 
d="M1073 1413v-139h103q20 0 20 -21v-106q0 -21 -20 -21h-103v-1106q0 -20 -20 -20h-119q-21 0 -21 20v97q-48 -62 -135 -99.5t-190 -37.5q-204 0 -328.5 145t-124.5 389t124.5 389.5t328.5 145.5q91 0 177.5 -37t147.5 -101v215h-200q-21 0 -21 21v106q0 21 21 21h200v139
q0 21 21 21h119q20 0 20 -21zM930 514q0 167 -82.5 275t-226.5 108q-147 0 -232.5 -108.5t-85.5 -274.5t85.5 -274.5t232.5 -108.5q144 0 226.5 108t82.5 275z" />
    <glyph glyph-name="Emacron" unicode="&#x112;" 
d="M350 672v-508h723q21 0 21 -21v-123q0 -20 -21 -20h-874q-21 0 -21 20v1393q0 21 21 21h860q20 0 20 -21v-123q0 -20 -20 -20h-709v-434h645q21 0 21 -21v-123q0 -20 -21 -20h-645zM412 1647v102q0 20 20 20h397q21 0 21 -20v-102q0 -21 -21 -21h-397q-20 0 -20 21z" />
    <glyph glyph-name="emacron" unicode="&#x113;" 
d="M1096 465h-781q12 -150 95.5 -242t226.5 -92q110 0 177 45t104 143q7 19 28 19h133q15 0 15 -14q0 -12 -4 -21q-111 -323 -453 -323q-155 0 -268.5 71.5t-169.5 191t-56 271.5q0 229 138 382t356 153q113 0 205.5 -43t151.5 -117t90.5 -170t31.5 -205v-29q0 -20 -20 -20z
M637 897q-114 0 -201.5 -76.5t-111.5 -204.5h612q-25 127 -107 204t-192 77zM418 1241v102q0 21 20 21h398q20 0 20 -21v-102q0 -20 -20 -20h-398q-20 0 -20 20z" />
    <glyph glyph-name="Ebreve" unicode="&#x114;" 
d="M350 672v-508h723q21 0 21 -21v-123q0 -20 -21 -20h-874q-21 0 -21 20v1393q0 21 21 21h860q20 0 20 -21v-123q0 -20 -20 -20h-709v-434h645q21 0 21 -21v-123q0 -20 -21 -20h-645zM383 1808h98q21 0 21 -20q0 -51 34.5 -79t96.5 -28t96.5 28t34.5 79q0 20 20 20h99
q20 0 20 -20q0 -114 -73.5 -178t-196.5 -64t-197 64t-74 178q0 20 21 20z" />
    <glyph glyph-name="ebreve" unicode="&#x115;" 
d="M1096 465h-781q12 -150 95.5 -242t226.5 -92q110 0 177 45t104 143q7 19 28 19h133q15 0 15 -14q0 -12 -4 -21q-111 -323 -453 -323q-155 0 -268.5 71.5t-169.5 191t-56 271.5q0 229 138 382t356 153q113 0 205.5 -43t151.5 -117t90.5 -170t31.5 -205v-29q0 -20 -20 -20z
M637 897q-114 0 -201.5 -76.5t-111.5 -204.5h612q-25 127 -107 204t-192 77zM387 1403h98q21 0 21 -21q0 -51 34.5 -78.5t96.5 -27.5t96.5 27.5t34.5 78.5q0 21 20 21h99q20 0 20 -21q0 -114 -73.5 -177.5t-196.5 -63.5t-196.5 63.5t-73.5 177.5q0 21 20 21z" />
    <glyph glyph-name="Edotaccent" unicode="&#x116;" 
d="M350 672v-508h723q21 0 21 -21v-123q0 -20 -21 -20h-874q-21 0 -21 20v1393q0 21 21 21h860q20 0 20 -21v-123q0 -20 -20 -20h-709v-434h645q21 0 21 -21v-123q0 -20 -21 -20h-645zM528 1642v177q0 20 21 20h176q20 0 20 -20v-177q0 -20 -20 -20h-176q-21 0 -21 20z" />
    <glyph glyph-name="edotaccent" unicode="&#x117;" 
d="M1096 465h-781q12 -150 95.5 -242t226.5 -92q110 0 177 45t104 143q7 19 28 19h133q15 0 15 -14q0 -12 -4 -21q-111 -323 -453 -323q-155 0 -268.5 71.5t-169.5 191t-56 271.5q0 229 138 382t356 153q113 0 205.5 -43t151.5 -117t90.5 -170t31.5 -205v-29q0 -20 -20 -20z
M637 897q-114 0 -201.5 -76.5t-111.5 -204.5h612q-25 127 -107 204t-192 77zM528 1237v176q0 21 21 21h176q20 0 20 -21v-176q0 -20 -20 -20h-176q-21 0 -21 20z" />
    <glyph glyph-name="Eogonek" unicode="&#x118;" 
d="M350 672v-508h723q21 0 21 -21v-123q0 -17 -15 -20q-61 -14 -99 -53t-38 -90q0 -49 35.5 -77t93.5 -28h39q20 0 20 -20v-70q0 -20 -20 -20h-74q-109 0 -176 46.5t-67 139.5q0 110 98 172h-692q-21 0 -21 20v1393q0 21 21 21h860q20 0 20 -21v-123q0 -20 -20 -20h-709
v-434h645q21 0 21 -21v-123q0 -20 -21 -20h-645z" />
    <glyph glyph-name="eogonek" unicode="&#x119;" 
d="M1096 465h-781q12 -150 95.5 -242t226.5 -92q110 0 177 45t104 143q7 19 28 19h133q15 0 15 -14q0 -12 -4 -21q-42 -127 -119 -201.5t-195 -105.5q-54 -13 -87.5 -52t-33.5 -87q0 -49 35.5 -77t93.5 -28h39q21 0 21 -20v-70q0 -20 -21 -20h-73q-109 0 -176.5 47
t-67.5 139q0 86 74 156q-206 17 -321.5 164.5t-115.5 365.5q0 229 138 382t356 153q113 0 205.5 -43t151.5 -117t90.5 -170t31.5 -205v-29q0 -20 -20 -20zM637 897q-114 0 -201.5 -76.5t-111.5 -204.5h612q-25 127 -107 204t-192 77z" />
    <glyph glyph-name="Ecaron" unicode="&#x11a;" 
d="M350 672v-508h723q21 0 21 -21v-123q0 -20 -21 -20h-874q-21 0 -21 20v1393q0 21 21 21h860q20 0 20 -21v-123q0 -20 -20 -20h-709v-434h645q21 0 21 -21v-123q0 -20 -21 -20h-645zM924 1819l-207 -263q-16 -16 -31 -16h-115q-14 0 -30 16l-207 263q-2 0 -2 2q-2 2 -2 8
q0 10 14 10h127q19 0 37 -18l121 -123l121 123q12 11 17.5 14.5t18.5 3.5h127q15 0 15 -10q0 -3 -1 -5t-1 -3z" />
    <glyph glyph-name="ecaron" unicode="&#x11b;" 
d="M1096 465h-781q12 -150 95.5 -242t226.5 -92q110 0 177 45t104 143q7 19 28 19h133q15 0 15 -14q0 -12 -4 -21q-111 -323 -453 -323q-155 0 -268.5 71.5t-169.5 191t-56 271.5q0 229 138 382t356 153q113 0 205.5 -43t151.5 -117t90.5 -170t31.5 -205v-29q0 -20 -20 -20z
M637 897q-114 0 -201.5 -76.5t-111.5 -204.5h612q-25 127 -107 204t-192 77zM932 1413l-207 -262q-16 -16 -31 -16h-114q-15 0 -31 16l-207 262q-2 0 -2 2q-2 2 -2 8q0 11 14 11h127q18 0 37 -19l121 -123l121 123q19 19 37 19h127q14 0 14 -11q0 -3 -1 -5t-1 -3z" />
    <glyph glyph-name="Gcircumflex" unicode="&#x11c;" 
d="M645 729h498q20 0 20 -20v-367q0 -42 -20 -78q-65 -132 -185.5 -208t-283.5 -76q-127 0 -234.5 48t-187.5 139t-125 232t-45 318q0 179 46 322t125 232t181 136t219 47q208 0 336.5 -119t153.5 -319q0 -21 -23 -21h-131q-21 0 -24 21q-30 138 -104 206t-208 68
q-185 0 -288 -147t-103 -426q0 -283 104.5 -428.5t307.5 -145.5q225 0 317 193v229h-346q-20 0 -20 21v123q0 20 20 20zM741 1823l207 -262l2 -2q0 -1 1 -4.5t1 -4.5q0 -10 -14 -10h-127q-18 0 -37 19l-121 122l-121 -122q-9 -9 -12 -11.5t-9 -5t-15 -2.5h-127q-15 0 -15 10
q0 7 2 9q0 2 2 2l207 262q16 16 31 16h115q14 0 30 -16z" />
    <glyph glyph-name="gcircumflex" unicode="&#x11d;" 
d="M209 -88q0 103 51 166q-119 68 -119 217q0 90 44 152t137 110q-27 65 -27 141q0 161 103.5 256t254.5 95q117 0 205 -58l137 123q8 8 17 8q6 0 16 -10l78 -82q8 -8 8 -16q0 -9 -10 -19l-131 -125q41 -74 41 -172q0 -158 -101 -253t-260 -95q-152 0 -250 88
q-102 -46 -102 -133q0 -55 34.5 -85t90.5 -30q35 0 123 19.5t158 19.5q206 0 322 -82.5t116 -244.5q0 -151 -126.5 -239.5t-338.5 -88.5q-213 0 -342 87.5t-129 250.5zM680 78q-72 0 -156 -16t-98 -17q-57 -48 -57 -131q0 -93 84.5 -140.5t226.5 -47.5t223.5 46t81.5 130
q0 87 -78 131.5t-227 44.5zM455 698q0 -93 56 -144.5t142 -51.5q88 0 144.5 51.5t56.5 144.5q0 95 -56.5 147t-144.5 52q-86 0 -142 -52t-56 -147zM741 1417l207 -262l2 -2q0 -1 1 -4t1 -4q0 -10 -14 -10h-127q-19 0 -37 18l-121 123l-121 -123q-12 -11 -17.5 -14.5
t-18.5 -3.5h-127q-15 0 -15 10q0 6 2 8q0 2 2 2l207 262q17 17 31 17h115q13 0 30 -17z" />
    <glyph glyph-name="Gbreve" unicode="&#x11e;" 
d="M645 729h498q20 0 20 -20v-367q0 -42 -20 -78q-65 -132 -185.5 -208t-283.5 -76q-127 0 -234.5 48t-187.5 139t-125 232t-45 318q0 179 46 322t125 232t181 136t219 47q208 0 336.5 -119t153.5 -319q0 -21 -23 -21h-131q-21 0 -24 21q-30 138 -104 206t-208 68
q-185 0 -288 -147t-103 -426q0 -283 104.5 -428.5t307.5 -145.5q225 0 317 193v229h-346q-20 0 -20 21v123q0 20 20 20zM403 1808h99q20 0 20 -20q0 -51 34.5 -79t96.5 -28t96.5 28t34.5 79q0 20 21 20h98q21 0 21 -20q0 -114 -74 -178t-197 -64t-196.5 64t-73.5 178
q0 20 20 20z" />
    <glyph glyph-name="gbreve" unicode="&#x11f;" 
d="M209 -88q0 103 51 166q-119 68 -119 217q0 90 44 152t137 110q-27 65 -27 141q0 161 103.5 256t254.5 95q117 0 205 -58l137 123q8 8 17 8q6 0 16 -10l78 -82q8 -8 8 -16q0 -9 -10 -19l-131 -125q41 -74 41 -172q0 -158 -101 -253t-260 -95q-152 0 -250 88
q-102 -46 -102 -133q0 -55 34.5 -85t90.5 -30q35 0 123 19.5t158 19.5q206 0 322 -82.5t116 -244.5q0 -151 -126.5 -239.5t-338.5 -88.5q-213 0 -342 87.5t-129 250.5zM680 78q-72 0 -156 -16t-98 -17q-57 -48 -57 -131q0 -93 84.5 -140.5t226.5 -47.5t223.5 46t81.5 130
q0 87 -78 131.5t-227 44.5zM455 698q0 -93 56 -144.5t142 -51.5q88 0 144.5 51.5t56.5 144.5q0 95 -56.5 147t-144.5 52q-86 0 -142 -52t-56 -147zM403 1403h99q20 0 20 -21q0 -51 34.5 -78.5t96.5 -27.5t96.5 27.5t34.5 78.5q0 21 21 21h98q21 0 21 -21
q0 -114 -73.5 -177.5t-197.5 -63.5q-123 0 -196.5 63.5t-73.5 177.5q0 21 20 21z" />
    <glyph glyph-name="Gdotaccent" unicode="&#x120;" 
d="M645 729h498q20 0 20 -20v-367q0 -42 -20 -78q-65 -132 -185.5 -208t-283.5 -76q-127 0 -234.5 48t-187.5 139t-125 232t-45 318q0 179 46 322t125 232t181 136t219 47q208 0 336.5 -119t153.5 -319q0 -21 -23 -21h-131q-21 0 -24 21q-30 138 -104 206t-208 68
q-185 0 -288 -147t-103 -426q0 -283 104.5 -428.5t307.5 -145.5q225 0 317 193v229h-346q-20 0 -20 21v123q0 20 20 20zM545 1642v177q0 20 20 20h176q21 0 21 -20v-177q0 -20 -21 -20h-176q-20 0 -20 20z" />
    <glyph glyph-name="gdotaccent" unicode="&#x121;" 
d="M209 -88q0 103 51 166q-119 68 -119 217q0 90 44 152t137 110q-27 65 -27 141q0 161 103.5 256t254.5 95q117 0 205 -58l137 123q8 8 17 8q6 0 16 -10l78 -82q8 -8 8 -16q0 -9 -10 -19l-131 -125q41 -74 41 -172q0 -158 -101 -253t-260 -95q-152 0 -250 88
q-102 -46 -102 -133q0 -55 34.5 -85t90.5 -30q35 0 123 19.5t158 19.5q206 0 322 -82.5t116 -244.5q0 -151 -126.5 -239.5t-338.5 -88.5q-213 0 -342 87.5t-129 250.5zM680 78q-72 0 -156 -16t-98 -17q-57 -48 -57 -131q0 -93 84.5 -140.5t226.5 -47.5t223.5 46t81.5 130
q0 87 -78 131.5t-227 44.5zM455 698q0 -93 56 -144.5t142 -51.5q88 0 144.5 51.5t56.5 144.5q0 95 -56.5 147t-144.5 52q-86 0 -142 -52t-56 -147zM545 1237v176q0 21 20 21h176q21 0 21 -21v-176q0 -20 -21 -20h-176q-20 0 -20 20z" />
    <glyph glyph-name="Gcommaaccent" unicode="&#x122;" 
d="M645 729h498q20 0 20 -20v-367q0 -42 -20 -78q-65 -132 -185.5 -208t-283.5 -76q-127 0 -234.5 48t-187.5 139t-125 232t-45 318q0 179 46 322t125 232t181 136t219 47q208 0 336.5 -119t153.5 -319q0 -21 -23 -21h-131q-21 0 -24 21q-30 138 -104 206t-208 68
q-185 0 -288 -147t-103 -426q0 -283 104.5 -428.5t307.5 -145.5q225 0 317 193v229h-346q-20 0 -20 21v123q0 20 20 20zM569 -446q59 0 77 19.5t18 76.5v14h-95q-20 0 -20 21v209q0 20 20 20h209q21 0 21 -20v-289q0 -83 -41.5 -124.5t-116.5 -41.5h-72q-20 0 -20 20v74
q0 21 20 21z" />
    <glyph glyph-name="gcommaaccent" unicode="&#x123;" 
d="M209 -88q0 103 51 166q-119 68 -119 217q0 90 44 152t137 110q-27 65 -27 141q0 161 103.5 256t254.5 95q117 0 205 -58l137 123q8 8 17 8q6 0 16 -10l78 -82q8 -8 8 -16q0 -9 -10 -19l-131 -125q41 -74 41 -172q0 -158 -101 -253t-260 -95q-152 0 -250 88
q-102 -46 -102 -133q0 -55 34.5 -85t90.5 -30q35 0 123 19.5t158 19.5q206 0 322 -82.5t116 -244.5q0 -151 -126.5 -239.5t-338.5 -88.5q-213 0 -342 87.5t-129 250.5zM680 78q-72 0 -156 -16t-98 -17q-57 -48 -57 -131q0 -93 84.5 -140.5t226.5 -47.5t223.5 46t81.5 130
q0 87 -78 131.5t-227 44.5zM455 698q0 -93 56 -144.5t142 -51.5q88 0 144.5 51.5t56.5 144.5q0 95 -56.5 147t-144.5 52q-86 0 -142 -52t-56 -147zM758 1552q-58 0 -76 -22t-18 -86v-39h94q20 0 20 -21v-208q0 -21 -20 -21h-209q-21 0 -21 21v301q0 90 42 140t116 50h72
q20 0 20 -20v-74q0 -21 -20 -21z" />
    <glyph glyph-name="Hcircumflex" unicode="&#x124;" 
d="M301 666v-646q0 -20 -20 -20h-131q-21 0 -21 20v1393q0 21 21 21h131q20 0 20 -21v-584h631v584q0 21 20 21h131q21 0 21 -21v-1393q0 -20 -21 -20h-131q-20 0 -20 20v646h-631zM705 1823l206 -262l2 -2q0 -1 1 -4.5t1 -4.5q0 -10 -14 -10h-127q-18 0 -37 19l-121 122
l-120 -122q-19 -19 -37 -19h-127q-15 0 -15 10q0 7 2 9q0 2 3 2l206 262q16 16 31 16h115q15 0 31 -16z" />
    <glyph glyph-name="hcircumflex" unicode="&#x125;" 
d="M207 20v1393q0 21 20 21h119q21 0 21 -21v-532q55 74 157.5 121t204.5 47q170 0 262 -87t92 -257v-685q0 -20 -20 -20h-119q-20 0 -20 20v648q0 117 -61.5 173t-170.5 56q-54 0 -111 -25t-105 -69.5t-78.5 -113.5t-30.5 -148v-521q0 -20 -21 -20h-119q-20 0 -20 20z
M596 1823l207 -262l2 -2q0 -1 1 -4.5t1 -4.5q0 -10 -14 -10h-127q-18 0 -37 19l-121 122l-121 -122q-19 -19 -37 -19h-127q-14 0 -14 10q0 7 2 9q0 2 2 2l207 262q16 16 31 16h114q15 0 31 -16z" />
    <glyph glyph-name="Hbar" unicode="&#x126;" 
d="M301 666v-646q0 -20 -20 -20h-131q-21 0 -21 20v1024h-76q-20 0 -20 21v111q0 20 20 20h76v217q0 21 21 21h131q20 0 20 -21v-217h631v217q0 21 20 21h131q21 0 21 -21v-217h76q20 0 20 -20v-111q0 -21 -20 -21h-76v-1024q0 -20 -21 -20h-131q-20 0 -20 20v646h-631z
M301 829h631v215h-631v-215z" />
    <glyph glyph-name="hbar" unicode="&#x127;" 
d="M207 20v1106h-121q-20 0 -20 21v106q0 21 20 21h121v139q0 21 20 21h119q21 0 21 -21v-139h247q21 0 21 -21v-106q0 -21 -21 -21h-247v-245q55 74 157.5 121t204.5 47q170 0 262 -87t92 -257v-685q0 -20 -20 -20h-119q-20 0 -20 20v648q0 117 -61.5 173t-170.5 56
q-54 0 -111 -25t-105 -69.5t-78.5 -113.5t-30.5 -148v-521q0 -20 -21 -20h-119q-20 0 -20 20z" />
    <glyph glyph-name="Itilde" unicode="&#x128;" 
d="M197 1290v123q0 21 20 21h799q20 0 20 -21v-123q0 -20 -20 -20h-314v-1106h334q21 0 21 -21v-123q0 -20 -21 -20h-839q-21 0 -21 20v123q0 21 21 21h333v1106h-313q-20 0 -20 20zM276 1761q47 36 104 57t107 21q44 0 76.5 -8.5t51.5 -21t36 -25t40.5 -21t53.5 -8.5
q28 0 54.5 11.5t70.5 39.5q12 4 15 4q10 0 20 -16l58 -86q4 -8 4 -12q0 -8 -11 -19q-47 -36 -104 -57t-107 -21q-44 0 -76.5 8.5t-51.5 21t-36 25t-40.5 21t-53.5 8.5q-28 0 -54.5 -11.5t-70.5 -39.5q-12 -4 -14 -4q-10 0 -20 17l-58 86q-4 8 -4 12q0 8 10 18z" />
    <glyph glyph-name="itilde" unicode="&#x129;" 
d="M252 901v107q0 20 20 20h443q20 0 20 -20v-856h355q20 0 20 -21v-111q0 -20 -20 -20h-869q-20 0 -20 20v111q0 21 20 21h354v729h-303q-20 0 -20 20zM285 1356q47 36 104 57t107 21q44 0 76.5 -8.5t51.5 -21t36 -25t40.5 -21t53.5 -8.5q28 0 54.5 11.5t70.5 39.5
q12 4 14 4q10 0 20 -16l58 -86q4 -8 4 -13q0 -8 -10 -18q-47 -36 -104 -57t-107 -21q-44 0 -76.5 8.5t-51.5 21t-36 25t-40.5 21t-53.5 8.5q-28 0 -54.5 -11.5t-70.5 -39.5q-12 -4 -15 -4q-10 0 -20 16l-57 86q-5 10 -5 12q0 8 11 19z" />
    <glyph glyph-name="uni012A" unicode="&#x12a;" 
d="M197 1290v123q0 21 20 21h799q20 0 20 -21v-123q0 -20 -20 -20h-314v-1106h334q21 0 21 -21v-123q0 -20 -21 -20h-839q-21 0 -21 20v123q0 21 21 21h333v1106h-313q-20 0 -20 20zM397 1647v102q0 20 21 20h397q21 0 21 -20v-102q0 -21 -21 -21h-397q-21 0 -21 21z" />
    <glyph glyph-name="imacron" unicode="&#x12b;" 
d="M252 901v107q0 20 20 20h443q20 0 20 -20v-856h355q20 0 20 -21v-111q0 -20 -20 -20h-869q-20 0 -20 20v111q0 21 20 21h354v729h-303q-20 0 -20 20zM371 1241v102q0 21 20 21h397q21 0 21 -21v-102q0 -20 -21 -20h-397q-20 0 -20 20z" />
    <glyph glyph-name="Ibreve" unicode="&#x12c;" 
d="M197 1290v123q0 21 20 21h799q20 0 20 -21v-123q0 -20 -20 -20h-314v-1106h334q21 0 21 -21v-123q0 -20 -21 -20h-839q-21 0 -21 20v123q0 21 21 21h333v1106h-313q-20 0 -20 20zM367 1808h98q20 0 20 -20q0 -51 34.5 -79t96.5 -28t97 28t35 79q0 20 20 20h98
q21 0 21 -20q0 -114 -74 -178t-197 -64t-196.5 64t-73.5 178q0 20 21 20z" />
    <glyph glyph-name="uni012D" unicode="&#x12d;" 
d="M252 901v107q0 20 20 20h443q20 0 20 -20v-856h355q20 0 20 -21v-111q0 -20 -20 -20h-869q-20 0 -20 20v111q0 21 20 21h354v729h-303q-20 0 -20 20zM377 1403h98q21 0 21 -21q0 -51 34.5 -78.5t96.5 -27.5t96.5 27.5t34.5 78.5q0 21 20 21h99q20 0 20 -21
q0 -114 -73.5 -177.5t-196.5 -63.5q-124 0 -197.5 63.5t-73.5 177.5q0 21 21 21z" />
    <glyph glyph-name="Iogonek" unicode="&#x12e;" 
d="M197 1290v123q0 21 20 21h799q20 0 20 -21v-123q0 -20 -20 -20h-314v-1106h334q21 0 21 -21v-123q0 -17 -15 -20q-62 -18 -99.5 -55.5t-37.5 -87.5q0 -49 35.5 -77t93.5 -28h39q21 0 21 -20v-70q0 -20 -21 -20h-74q-109 0 -176 46.5t-67 139.5q0 110 98 172h-657
q-21 0 -21 20v123q0 21 21 21h333v1106h-313q-20 0 -20 20z" />
    <glyph glyph-name="iogonek" unicode="&#x12f;" 
d="M252 901v107q0 20 20 20h443q20 0 20 -20v-856h355q20 0 20 -21v-111q0 -17 -14 -20q-61 -14 -99.5 -53.5t-38.5 -89.5q0 -49 35.5 -77t93.5 -28h39q21 0 21 -20v-70q0 -20 -21 -20h-73q-109 0 -176.5 47t-67.5 139q0 110 98 172h-686q-20 0 -20 20v111q0 21 20 21h354
v729h-303q-20 0 -20 20zM532 1217v176q0 20 21 20h176q21 0 21 -20v-176q0 -21 -21 -21h-176q-21 0 -21 21z" />
    <glyph glyph-name="Idotaccent" unicode="&#x130;" 
d="M197 1290v123q0 21 20 21h799q20 0 20 -21v-123q0 -20 -20 -20h-314v-1106h334q21 0 21 -21v-123q0 -20 -21 -20h-839q-21 0 -21 20v123q0 21 21 21h333v1106h-313q-20 0 -20 20zM508 1642v177q0 20 20 20h177q20 0 20 -20v-177q0 -20 -20 -20h-177q-20 0 -20 20z" />
    <glyph glyph-name="dotlessi" unicode="&#x131;" 
d="M252 901v107q0 20 20 20h443q20 0 20 -20v-856h355q20 0 20 -21v-111q0 -20 -20 -20h-869q-20 0 -20 20v111q0 21 20 21h354v729h-303q-20 0 -20 20z" />
    <glyph glyph-name="IJ" unicode="&#x132;" 
d="M90 1290v123q0 21 21 21h602q20 0 20 -21v-123q0 -20 -20 -20h-215v-1106h235q21 0 21 -21v-123q0 -20 -21 -20h-643q-20 0 -20 20v123q0 21 20 21h236v1106h-215q-21 0 -21 20zM840 164q98 0 134 44.5t36 158.5v1046q0 21 20 21h131q21 0 21 -21v-1046q0 -205 -76 -286
t-266 -81q-21 0 -21 20v123q0 21 21 21z" />
    <glyph glyph-name="ij" unicode="&#x133;" 
d="M125 901v107q0 20 20 20h320q20 0 20 -20v-856h232q20 0 20 -21v-111q0 -20 -20 -20h-623q-20 0 -20 20v111q0 21 20 21h232v729h-181q-20 0 -20 20zM283 1237v176q0 21 20 21h176q21 0 21 -21v-176q0 -20 -21 -20h-176q-20 0 -20 20zM651 901v107q0 20 21 20h409
q21 0 21 -20v-1114q0 -146 -15 -231t-47 -157q-6 -16 -16 -16h-4q-2 0 -4 2l-117 33q-16 6 -16 16v4q0 2 2 4q57 156 57 320v1012h-270q-21 0 -21 20zM893 1237v176q0 21 20 21h177q20 0 20 -21v-176q0 -20 -20 -20h-177q-20 0 -20 20z" />
    <glyph glyph-name="Jcircumflex" unicode="&#x134;" 
d="M1018 1413v-899q0 -266 -124.5 -400t-332.5 -134q-213 0 -330.5 127.5t-117.5 328.5q0 21 20 21h131q21 0 21 -21q0 -127 76.5 -210t199.5 -83q285 0 285 369v901q0 21 20 21h131q21 0 21 -21zM1020 1823l207 -262l2 -2q0 -1 1 -4.5t1 -4.5q0 -10 -14 -10h-127
q-18 0 -37 19l-121 122l-121 -122q-19 -19 -37 -19h-127q-14 0 -14 10q0 7 2 9q0 2 2 2l207 262q16 16 30 16h115q15 0 31 -16z" />
    <glyph glyph-name="jcircumflex" unicode="&#x135;" 
d="M260 901v107q0 20 21 20h593q21 0 21 -20v-1114q0 -147 -14.5 -232t-46.5 -156q-6 -16 -17 -16h-4q-2 0 -4 2l-117 33q-16 6 -16 16v4q0 2 2 4q57 156 57 320v1012h-454q-21 0 -21 20zM766 1417l207 -262l2 -2q0 -1 1 -4t1 -4q0 -10 -14 -10h-127q-19 0 -37 18l-121 123
l-121 -123q-18 -18 -37 -18h-127q-14 0 -14 10q0 6 2 8q0 2 2 2l207 262q17 17 31 17h114q14 0 31 -17z" />
    <glyph glyph-name="Kcommaaccent" unicode="&#x136;" 
d="M1114 1405l-459 -506l543 -870q4 -12 4 -13q0 -16 -18 -16h-158q-11 0 -18.5 6.5t-18.5 24.5l-459 731l-182 -203v-539q0 -20 -20 -20h-131q-21 0 -21 20v1393q0 21 21 21h131q20 0 20 -21v-604l557 604l5 5l5 5l4 4t4.5 3.5t4 1.5t5 1.5t5.5 0.5h164q18 0 18 -15
q0 -5 -6 -14zM537 -446q58 0 76 19.5t18 76.5v14h-94q-21 0 -21 21v209q0 20 21 20h208q21 0 21 -20v-289q0 -83 -41.5 -124.5t-116.5 -41.5h-71q-21 0 -21 20v74q0 21 21 21z" />
    <glyph glyph-name="kcommaaccent" unicode="&#x137;" 
d="M895 18l-346 517l-176 -168v-347q0 -20 -21 -20h-119q-20 0 -20 20v1393q0 21 20 21h119q21 0 21 -21v-838l444 435q18 18 33 18h166q16 0 16 -14q0 -9 -8 -17l-354 -344l417 -622q5 -10 5 -15q0 -16 -19 -16h-145q-24 0 -33 18zM535 -446q58 0 76 19.5t18 76.5v14h-94
q-21 0 -21 21v209q0 20 21 20h208q21 0 21 -20v-289q0 -83 -41.5 -124.5t-116.5 -41.5h-71q-21 0 -21 20v74q0 21 21 21z" />
    <glyph glyph-name="kgreenlandic" unicode="&#x138;" 
d="M895 18l-348 517l-174 -168v-347q0 -20 -21 -20h-119q-20 0 -20 20v988q0 20 20 20h119q21 0 21 -20v-433l438 435q18 18 33 18h166q16 0 16 -14q0 -9 -8 -17l-350 -344l419 -622q5 -10 5 -15q0 -16 -19 -16h-145q-24 0 -33 18z" />
    <glyph glyph-name="Lacute" unicode="&#x139;" 
d="M250 20v1393q0 21 20 21h131q21 0 21 -21v-1249h717q20 0 20 -21v-123q0 -20 -20 -20h-869q-20 0 -20 20zM256 1561l135 258q11 20 31 20h207q12 0 12 -10q0 -2 -4 -10l-203 -260q-14 -19 -37 -19h-131q-12 0 -12 12q0 7 2 9z" />
    <glyph glyph-name="lacute" unicode="&#x13a;" 
d="M193 1303v110q0 21 20 21h475q21 0 21 -21v-1261h381q20 0 20 -21v-111q0 -20 -20 -20h-922q-21 0 -21 20v111q0 21 21 21h381v1130h-336q-20 0 -20 21zM516 1561l135 258q11 20 31 20h207q12 0 12 -10q0 -2 -4 -10l-203 -260q-14 -19 -37 -19h-131q-12 0 -12 12q0 7 2 9
z" />
    <glyph glyph-name="Lcommaaccent" unicode="&#x13b;" 
d="M250 20v1393q0 21 20 21h131q21 0 21 -21v-1249h717q20 0 20 -21v-123q0 -20 -20 -20h-869q-20 0 -20 20zM608 -446q58 0 76 19.5t18 76.5v14h-94q-20 0 -20 21v209q0 20 20 20h209q21 0 21 -20v-289q0 -83 -41.5 -124.5t-116.5 -41.5h-72q-20 0 -20 20v74q0 21 20 21z
" />
    <glyph glyph-name="lcommaaccent" unicode="&#x13c;" 
d="M193 1303v110q0 21 20 21h475q21 0 21 -21v-1261h381q20 0 20 -21v-111q0 -20 -20 -20h-922q-21 0 -21 20v111q0 21 21 21h381v1130h-336q-20 0 -20 21zM524 -446q58 0 76 19.5t18 76.5v14h-94q-20 0 -20 21v209q0 20 20 20h209q21 0 21 -20v-289q0 -83 -41.5 -124.5
t-116.5 -41.5h-72q-20 0 -20 20v74q0 21 20 21z" />
    <glyph glyph-name="Lcaron" unicode="&#x13d;" 
d="M250 20v1393q0 21 20 21h131q21 0 21 -21v-1249h717q20 0 20 -21v-123q0 -20 -20 -20h-869q-20 0 -20 20zM750 1036q58 0 76 22.5t18 86.5v39h-94q-21 0 -21 20v209q0 21 21 21h208q21 0 21 -21v-301q0 -90 -42 -140t-116 -50h-71q-21 0 -21 20v74q0 20 21 20z" />
    <glyph glyph-name="lcaron" unicode="&#x13e;" 
d="M193 1303v110q0 21 20 21h475q21 0 21 -21v-1261h381q20 0 20 -21v-111q0 -20 -20 -20h-922q-21 0 -21 20v111q0 21 21 21h381v1130h-336q-20 0 -20 21zM903 1036q58 0 76 22.5t18 86.5v39h-94q-20 0 -20 20v209q0 21 20 21h209q21 0 21 -21v-301q0 -90 -42 -140
t-116 -50h-72q-20 0 -20 20v74q0 20 20 20z" />
    <glyph glyph-name="Ldot" unicode="&#x13f;" 
d="M250 20v1393q0 21 20 21h131q21 0 21 -21v-1249h717q20 0 20 -21v-123q0 -20 -20 -20h-869q-20 0 -20 20zM725 864h209q20 0 20 -20v-209q0 -21 -20 -21h-209q-20 0 -20 21v209q0 20 20 20z" />
    <glyph glyph-name="ldot" unicode="&#x140;" 
d="M193 1303v110q0 21 20 21h475q21 0 21 -21v-1261h381q20 0 20 -21v-111q0 -20 -20 -20h-922q-21 0 -21 20v111q0 21 21 21h381v1130h-336q-20 0 -20 21zM881 864h209q20 0 20 -20v-209q0 -21 -20 -21h-209q-21 0 -21 21v209q0 20 21 20z" />
    <glyph glyph-name="Lslash" unicode="&#x141;" 
d="M274 20v484l-122 -66q-12 -4 -13 -4q-8 0 -14 12l-53 99q-2 2 -2 10q0 10 12 16l192 103v739q0 21 21 21h131q20 0 20 -21v-649l308 164l12 4q8 0 14 -12l54 -99q2 -2 2 -10q0 -9 -13 -16l-377 -201v-430h693q20 0 20 -21v-123q0 -20 -20 -20h-844q-21 0 -21 20z" />
    <glyph glyph-name="lslash" unicode="&#x142;" 
d="M285 580l264 139v563h-336q-20 0 -20 21v110q0 21 20 21h475q21 0 21 -21v-610l194 102l12 4q9 0 15 -12l53 -98q2 -2 2 -11q0 -10 -12 -16l-264 -139v-481h381q20 0 20 -21v-111q0 -20 -20 -20h-922q-21 0 -21 20v111q0 21 21 21h381v397l-195 -103l-12 -4q-8 0 -14 13
l-54 98q-2 2 -2 10q0 11 13 17z" />
    <glyph glyph-name="Nacute" unicode="&#x143;" 
d="M1081 0h-166q-25 0 -32 16l-580 1123v-1119q0 -20 -20 -20h-131q-21 0 -21 20v1393q0 21 21 21h165q26 0 33 -17l580 -1122v1118q0 21 20 21h131q21 0 21 -21v-1393q0 -20 -21 -20zM510 1561l135 258q11 20 31 20h207q12 0 12 -10q0 -2 -4 -10l-203 -260q-14 -19 -37 -19
h-131q-12 0 -12 12q0 7 2 9z" />
    <glyph glyph-name="nacute" unicode="&#x144;" 
d="M213 20v988q0 20 20 20h119q21 0 21 -20v-123q58 71 150 117.5t198 46.5q166 0 252 -90.5t86 -249.5v-689q0 -20 -21 -20h-118q-21 0 -21 20v658q0 110 -49 164.5t-162 54.5q-134 0 -224.5 -97t-90.5 -259v-521q0 -20 -21 -20h-119q-20 0 -20 20zM567 1155l135 258
q12 21 31 21h207q12 0 12 -11q0 -2 -4 -10l-203 -260q-13 -18 -36 -18h-131q-13 0 -13 12q0 6 2 8z" />
    <glyph glyph-name="Ncommaaccent" unicode="&#x145;" 
d="M1081 0h-166q-25 0 -32 16l-580 1123v-1119q0 -20 -20 -20h-131q-21 0 -21 20v1393q0 21 21 21h165q26 0 33 -17l580 -1122v1118q0 21 20 21h131q21 0 21 -21v-1393q0 -20 -21 -20zM512 -446q58 0 76 19.5t18 76.5v14h-94q-20 0 -20 21v209q0 20 20 20h209q20 0 20 -20
v-289q0 -83 -41 -124.5t-116 -41.5h-72q-20 0 -20 20v74q0 21 20 21z" />
    <glyph glyph-name="ncommaaccent" unicode="&#x146;" 
d="M213 20v988q0 20 20 20h119q21 0 21 -20v-123q58 71 150 117.5t198 46.5q166 0 252 -90.5t86 -249.5v-689q0 -20 -21 -20h-118q-21 0 -21 20v658q0 110 -49 164.5t-162 54.5q-134 0 -224.5 -97t-90.5 -259v-521q0 -20 -21 -20h-119q-20 0 -20 20zM530 -446q59 0 77 19.5
t18 76.5v14h-95q-20 0 -20 21v209q0 20 20 20h209q21 0 21 -20v-289q0 -83 -41.5 -124.5t-116.5 -41.5h-72q-20 0 -20 20v74q0 21 20 21z" />
    <glyph glyph-name="Ncaron" unicode="&#x147;" 
d="M1081 0h-166q-25 0 -32 16l-580 1123v-1119q0 -20 -20 -20h-131q-21 0 -21 20v1393q0 21 21 21h165q26 0 33 -17l580 -1122v1118q0 21 20 21h131q21 0 21 -21v-1393q0 -20 -21 -20zM911 1819l-206 -263q-16 -16 -31 -16h-115q-15 0 -31 16l-206 263q-3 0 -3 2q-2 2 -2 8
q0 10 15 10h127q19 0 37 -18l120 -123l121 123q18 18 37 18h127q14 0 14 -10q0 -3 -1 -5t-1 -3z" />
    <glyph glyph-name="ncaron" unicode="&#x148;" 
d="M213 20v988q0 20 20 20h119q21 0 21 -20v-123q58 71 150 117.5t198 46.5q166 0 252 -90.5t86 -249.5v-689q0 -20 -21 -20h-118q-21 0 -21 20v658q0 110 -49 164.5t-162 54.5q-134 0 -224.5 -97t-90.5 -259v-521q0 -20 -21 -20h-119q-20 0 -20 20zM963 1413l-207 -262
q-16 -16 -31 -16h-115q-14 0 -30 16l-207 262q-2 0 -2 2q-2 2 -2 8q0 11 14 11h127q18 0 37 -19l121 -123l120 123q19 19 37 19h127q15 0 15 -11q0 -3 -1 -5t-1 -3z" />
    <glyph glyph-name="napostrophe" unicode="&#x149;" 
d="M379 20v988q0 20 20 20h119q21 0 21 -20v-123q58 71 150 117.5t198 46.5q166 0 252 -90.5t86 -249.5v-689q0 -20 -21 -20h-119q-20 0 -20 20v658q0 110 -49 164.5t-162 54.5q-134 0 -224.5 -97t-90.5 -259v-521q0 -20 -21 -20h-119q-20 0 -20 20zM78 1098q58 0 76 22
t18 86v39h-94q-21 0 -21 21v209q0 20 21 20h209q20 0 20 -20v-301q0 -90 -41.5 -140.5t-115.5 -50.5h-72q-21 0 -21 21v73q0 21 21 21z" />
    <glyph glyph-name="Eng" unicode="&#x14a;" 
d="M1102 1413v-1413q0 -104 -21 -180t-57 -123t-95 -75t-125.5 -38t-156.5 -10q-20 0 -20 20v123q0 21 20 21q157 0 220 60t63 202l-627 1139v-1119q0 -20 -20 -20h-131q-21 0 -21 20v1393q0 21 21 21h165q26 0 33 -17l580 -1050v1046q0 21 20 21h131q21 0 21 -21z" />
    <glyph glyph-name="eng" unicode="&#x14b;" 
d="M213 20v988q0 20 20 20h119q21 0 21 -20v-123q58 71 150 117.5t198 46.5q166 0 252 -90.5t86 -249.5v-815q0 -146 -15 -231t-47 -157q-6 -16 -16 -16h-4q-2 0 -4 2l-117 33q-16 6 -16 16v4q0 2 2 4q57 156 57 320v809q0 110 -49 164.5t-162 54.5q-134 0 -224.5 -97
t-90.5 -259v-521q0 -20 -21 -20h-119q-20 0 -20 20z" />
    <glyph glyph-name="Omacron" unicode="&#x14c;" 
d="M616 -20q-242 0 -390 195t-148 542t148 542t390 195t390.5 -195t148.5 -542t-148.5 -542t-390.5 -195zM616 143q172 0 265.5 143t93.5 431t-93.5 430.5t-265.5 142.5q-174 0 -266 -142t-92 -431t92 -431.5t266 -142.5zM397 1647v102q0 20 21 20h397q21 0 21 -20v-102
q0 -21 -21 -21h-397q-21 0 -21 21z" />
    <glyph glyph-name="omacron" unicode="&#x14d;" 
d="M104 514q0 239 144 387t368 148t368 -148t144 -387t-144 -386.5t-368 -147.5t-368 147.5t-144 386.5zM272 514q0 -168 96 -275.5t248 -107.5t248.5 107.5t96.5 275.5t-96.5 275.5t-248.5 107.5t-248 -107.5t-96 -275.5zM397 1241v102q0 21 21 21h397q21 0 21 -21v-102
q0 -20 -21 -20h-397q-21 0 -21 20z" />
    <glyph glyph-name="Obreve" unicode="&#x14e;" 
d="M616 -20q-242 0 -390 195t-148 542t148 542t390 195t390.5 -195t148.5 -542t-148.5 -542t-390.5 -195zM616 143q172 0 265.5 143t93.5 431t-93.5 430.5t-265.5 142.5q-174 0 -266 -142t-92 -431t92 -431.5t266 -142.5zM367 1808h98q20 0 20 -20q0 -51 34.5 -79t96.5 -28
t97 28t35 79q0 20 20 20h98q21 0 21 -20q0 -114 -74 -178t-197 -64t-196.5 64t-73.5 178q0 20 21 20z" />
    <glyph glyph-name="obreve" unicode="&#x14f;" 
d="M104 514q0 239 144 387t368 148t368 -148t144 -387t-144 -386.5t-368 -147.5t-368 147.5t-144 386.5zM272 514q0 -168 96 -275.5t248 -107.5t248.5 107.5t96.5 275.5t-96.5 275.5t-248.5 107.5t-248 -107.5t-96 -275.5zM367 1403h98q20 0 20 -21q0 -51 34.5 -78.5
t96.5 -27.5t97 27.5t35 78.5q0 21 20 21h98q21 0 21 -21q0 -114 -73.5 -177.5t-197.5 -63.5q-123 0 -196.5 63.5t-73.5 177.5q0 21 21 21z" />
    <glyph glyph-name="Ohungarumlaut" unicode="&#x150;" 
d="M616 -20q-242 0 -390 195t-148 542t148 542t390 195t390.5 -195t148.5 -542t-148.5 -542t-390.5 -195zM616 143q172 0 265.5 143t93.5 431t-93.5 430.5t-265.5 142.5q-174 0 -266 -142t-92 -431t92 -431.5t266 -142.5zM301 1561l135 258q11 20 31 20h207q12 0 12 -10
q0 -2 -4 -10l-203 -260q-14 -19 -37 -19h-131q-12 0 -12 12q0 7 2 9zM688 1561l135 258q11 20 31 20h207q12 0 12 -10q0 -2 -4 -10l-203 -260q-14 -19 -37 -19h-131q-12 0 -12 12q0 7 2 9z" />
    <glyph glyph-name="ohungarumlaut" unicode="&#x151;" 
d="M104 514q0 239 144 387t368 148t368 -148t144 -387t-144 -386.5t-368 -147.5t-368 147.5t-144 386.5zM272 514q0 -168 96 -275.5t248 -107.5t248.5 107.5t96.5 275.5t-96.5 275.5t-248.5 107.5t-248 -107.5t-96 -275.5zM307 1155l135 258q12 21 31 21h207q12 0 12 -11
q0 -2 -4 -10l-203 -260q-13 -18 -36 -18h-132q-12 0 -12 12q0 6 2 8zM694 1155l135 258q12 21 31 21h207q12 0 12 -11q0 -2 -4 -10l-203 -260q-13 -18 -36 -18h-131q-13 0 -13 12q0 6 2 8z" />
    <glyph glyph-name="OE" unicode="&#x152;" 
d="M799 672v-508h399q21 0 21 -21v-123q0 -20 -21 -20h-555q-79 -20 -170 -20q-200 0 -320 194t-120 543t120 543t320 194q91 0 170 -20h541q20 0 20 -21v-123q0 -20 -20 -20h-385v-434h282q21 0 21 -21v-123q0 -20 -21 -20h-282zM481 143q46 0 75 7t71 28v1077
q-42 21 -71 28t-75 7q-126 0 -197 -143.5t-71 -429.5q0 -287 71 -430.5t197 -143.5z" />
    <glyph glyph-name="oe" unicode="&#x153;" 
d="M616 -20q-224 0 -368 147.5t-144 386.5t144 387t368 148q151 0 271.5 -74t185 -195.5t64.5 -265.5v-29q0 -20 -21 -20h-424v-334q95 10 151 54t95 134q7 19 29 19h133q14 0 14 -14q0 -12 -4 -21q-57 -158 -187.5 -240.5t-306.5 -82.5zM272 514q0 -142 70.5 -244
t189.5 -131v750q-119 -29 -189.5 -131t-70.5 -244zM692 616h264q-19 111 -87.5 184t-176.5 93v-277z" />
    <glyph glyph-name="Racute" unicode="&#x154;" 
d="M158 20v1393q0 21 20 21h490q434 0 434 -379q0 -143 -72 -232.5t-196 -128.5l323 -674q2 -2 2 -8q0 -12 -18 -12h-152q-19 0 -28 20l-316 656h-315v-656q0 -20 -21 -20h-131q-20 0 -20 20zM330 1270v-430h358q125 0 183.5 53.5t58.5 161.5t-58.5 161.5t-183.5 53.5h-358z
M436 1561l135 258q11 20 31 20h207q12 0 12 -10q0 -2 -4 -10l-203 -260q-14 -19 -36 -19h-132q-12 0 -12 12q0 7 2 9z" />
    <glyph glyph-name="racute" unicode="&#x155;" 
d="M1096 795l-119 -72q-8 -4 -14 -4q-14 0 -17 10q-57 92 -109 130t-143 38q-126 0 -208.5 -117t-82.5 -286v-474q0 -20 -20 -20h-119q-20 0 -20 20v988q0 20 20 20h119q20 0 20 -20v-129q56 74 147 122t206 48q244 0 348 -220q4 -12 4 -14q0 -14 -12 -20zM545 1155l135 258
q12 21 31 21h207q12 0 12 -11q0 -2 -4 -10l-203 -260q-13 -18 -37 -18h-131q-12 0 -12 12q0 6 2 8z" />
    <glyph glyph-name="Rcommaaccent" unicode="&#x156;" 
d="M158 20v1393q0 21 20 21h490q434 0 434 -379q0 -143 -72 -232.5t-196 -128.5l323 -674q2 -2 2 -8q0 -12 -18 -12h-152q-19 0 -28 20l-316 656h-315v-656q0 -20 -21 -20h-131q-20 0 -20 20zM330 1270v-430h358q125 0 183.5 53.5t58.5 161.5t-58.5 161.5t-183.5 53.5h-358z
M518 -446q58 0 76 19.5t18 76.5v14h-94q-20 0 -20 21v209q0 20 20 20h209q21 0 21 -20v-289q0 -83 -41.5 -124.5t-116.5 -41.5h-72q-20 0 -20 20v74q0 21 20 21z" />
    <glyph glyph-name="rcommaaccent" unicode="&#x157;" 
d="M1096 795l-119 -72q-8 -4 -14 -4q-14 0 -17 10q-57 92 -109 130t-143 38q-126 0 -208.5 -117t-82.5 -286v-474q0 -20 -20 -20h-119q-20 0 -20 20v988q0 20 20 20h119q20 0 20 -20v-129q56 74 147 122t206 48q244 0 348 -220q4 -12 4 -14q0 -14 -12 -20zM459 -446
q58 0 76 19.5t18 76.5v14h-94q-21 0 -21 21v209q0 20 21 20h209q20 0 20 -20v-289q0 -83 -41.5 -124.5t-116.5 -41.5h-71q-21 0 -21 20v74q0 21 21 21z" />
    <glyph glyph-name="Rcaron" unicode="&#x158;" 
d="M158 20v1393q0 21 20 21h490q434 0 434 -379q0 -143 -72 -232.5t-196 -128.5l323 -674q2 -2 2 -8q0 -12 -18 -12h-152q-19 0 -28 20l-316 656h-315v-656q0 -20 -21 -20h-131q-20 0 -20 20zM330 1270v-430h358q125 0 183.5 53.5t58.5 161.5t-58.5 161.5t-183.5 53.5h-358z
M860 1819l-207 -263q-16 -16 -30 -16h-115q-15 0 -31 16l-207 263q-2 0 -2 2q-2 2 -2 8q0 10 15 10h127q13 0 18.5 -3.5t17.5 -14.5l121 -123l121 123q18 18 37 18h127q14 0 14 -10q0 -3 -1 -5t-1 -3z" />
    <glyph glyph-name="rcaron" unicode="&#x159;" 
d="M1096 795l-119 -72q-8 -4 -14 -4q-14 0 -17 10q-57 92 -109 130t-143 38q-126 0 -208.5 -117t-82.5 -286v-474q0 -20 -20 -20h-119q-20 0 -20 20v988q0 20 20 20h119q20 0 20 -20v-129q56 74 147 122t206 48q244 0 348 -220q4 -12 4 -14q0 -14 -12 -20zM954 1413
l-206 -262q-16 -16 -31 -16h-115q-15 0 -31 16l-206 262q-3 0 -3 2q-2 2 -2 8q0 11 15 11h127q18 0 37 -19l120 -123l121 123q19 19 37 19h127q14 0 14 -11q0 -3 -1 -5t-1 -3z" />
    <glyph glyph-name="Sacute" unicode="&#x15a;" 
d="M117 1063q0 122 66 212.5t172.5 134.5t236.5 44q217 0 350 -115t133 -284q0 -21 -20 -21h-131q-21 0 -21 21q0 95 -91.5 165t-219.5 70q-133 0 -218 -58.5t-85 -156.5q0 -27 7.5 -51t18 -43t31.5 -37t38.5 -30.5t48.5 -26.5t52 -22.5t59 -19.5t59.5 -17t62.5 -17
q87 -25 145.5 -45.5t122.5 -53.5t101.5 -70t62 -91t24.5 -121q0 -91 -26.5 -166t-73 -127t-111.5 -88t-141.5 -52.5t-163.5 -16.5q-227 0 -371.5 122t-144.5 322q0 20 21 20h131q20 0 20 -20q0 -121 94 -201t250 -80q154 0 249 69t95 204q0 41 -21 76t-51.5 59t-83 46
t-96.5 36t-110 31q-90 24 -153 46t-127.5 55.5t-103 73t-63 96.5t-24.5 128zM475 1561l135 258q11 20 31 20h207q12 0 12 -10q0 -2 -4 -10l-203 -260q-14 -19 -37 -19h-131q-12 0 -12 12q0 7 2 9z" />
    <glyph glyph-name="sacute" unicode="&#x15b;" 
d="M1059 301q0 -102 -58.5 -176t-152.5 -109.5t-211 -35.5q-119 0 -219.5 42.5t-160.5 119.5t-60 171q0 21 20 21h131q18 0 21 -21q12 -88 86.5 -135t187.5 -47q110 0 179 37t69 113t-70.5 113t-238.5 63q-190 30 -275.5 98.5t-85.5 200.5q0 139 113.5 216t286.5 77t281 -79
t122 -216q0 -21 -20 -21h-115q-6 0 -9.5 2t-5.5 5t-4 9q-1 3 -2 5q-22 71 -92 107t-162 36q-104 0 -168.5 -34t-64.5 -103q0 -74 66.5 -109t232.5 -63q65 -11 115.5 -24t102 -36t85.5 -52.5t55 -74t21 -100.5zM500 1155l135 258q12 21 31 21h206q13 0 13 -11q0 -2 -4 -10
l-203 -260q-13 -18 -37 -18h-131q-12 0 -12 12q0 6 2 8z" />
    <glyph glyph-name="Scircumflex" unicode="&#x15c;" 
d="M117 1063q0 122 66 212.5t172.5 134.5t236.5 44q217 0 350 -115t133 -284q0 -21 -20 -21h-131q-21 0 -21 21q0 95 -91.5 165t-219.5 70q-133 0 -218 -58.5t-85 -156.5q0 -27 7.5 -51t18 -43t31.5 -37t38.5 -30.5t48.5 -26.5t52 -22.5t59 -19.5t59.5 -17t62.5 -17
q87 -25 145.5 -45.5t122.5 -53.5t101.5 -70t62 -91t24.5 -121q0 -91 -26.5 -166t-73 -127t-111.5 -88t-141.5 -52.5t-163.5 -16.5q-227 0 -371.5 122t-144.5 322q0 20 21 20h131q20 0 20 -20q0 -121 94 -201t250 -80q154 0 249 69t95 204q0 41 -21 76t-51.5 59t-83 46
t-96.5 36t-110 31q-90 24 -153 46t-127.5 55.5t-103 73t-63 96.5t-24.5 128zM680 1823l207 -262l2 -2q0 -1 1 -4.5t1 -4.5q0 -10 -14 -10h-127q-18 0 -37 19l-121 122l-121 -122q-19 -19 -37 -19h-127q-14 0 -14 10q0 7 2 9q0 2 2 2l207 262q16 16 31 16h114q15 0 31 -16z
" />
    <glyph glyph-name="scircumflex" unicode="&#x15d;" 
d="M1059 301q0 -102 -58.5 -176t-152.5 -109.5t-211 -35.5q-119 0 -219.5 42.5t-160.5 119.5t-60 171q0 21 20 21h131q18 0 21 -21q12 -88 86.5 -135t187.5 -47q110 0 179 37t69 113t-70.5 113t-238.5 63q-190 30 -275.5 98.5t-85.5 200.5q0 139 113.5 216t286.5 77t281 -79
t122 -216q0 -21 -20 -21h-115q-6 0 -9.5 2t-5.5 5t-4 9q-1 3 -2 5q-22 71 -92 107t-162 36q-104 0 -168.5 -34t-64.5 -103q0 -74 66.5 -109t232.5 -63q65 -11 115.5 -24t102 -36t85.5 -52.5t55 -74t21 -100.5zM702 1417l207 -262l2 -2q0 -1 1 -4t1 -4q0 -10 -14 -10h-127
q-19 0 -37 18l-121 123l-120 -123q-18 -18 -37 -18h-127q-15 0 -15 10q0 6 2 8q0 2 2 2l207 262q17 17 31 17h115q13 0 30 -17z" />
    <glyph glyph-name="Scedilla" unicode="&#x15e;" 
d="M487 -211l-26 27q-4 4 -4 8q0 1 0.5 2.5t1.5 5t2 6.5l59 150q-193 20 -311.5 138.5t-118.5 297.5q0 20 21 20h131q20 0 20 -20q0 -121 94 -201t250 -80q154 0 249 69t95 204q0 41 -21 76t-51.5 59t-83 46t-96.5 36t-110 31q-90 24 -153 46t-127.5 55.5t-103 73t-63 96.5
t-24.5 128q0 122 66 212.5t172.5 134.5t236.5 44q217 0 350 -115t133 -284q0 -21 -20 -21h-131q-21 0 -21 21q0 95 -91.5 165t-219.5 70q-133 0 -218 -58.5t-85 -156.5q0 -27 7.5 -51t18 -43t31.5 -37t38.5 -30.5t48.5 -26.5t52 -22.5t59 -19.5t59.5 -17t62.5 -17
q87 -25 145.5 -45.5t122.5 -53.5t101.5 -70t62 -91t24.5 -121q0 -111 -37.5 -197t-104.5 -139t-153.5 -81.5t-191.5 -32.5l-55 -105q54 14 118 14q81 0 128.5 -39.5t47.5 -105.5q0 -170 -219 -170q-127 0 -200 20q-18 8 -20 13q-1 3 -1 8v59q0 21 21 21q4 0 68 -11.5
t126 -11.5q42 0 66 17t24 47q0 29 -24.5 46t-65.5 17q-65 0 -133 -14q-6 -2 -14 -2q-9 0 -15 6z" />
    <glyph glyph-name="scedilla" unicode="&#x15f;" 
d="M514 -211l-27 27q-4 4 -4 8q0 1 0.5 2.5t1.5 5t2 6.5l60 148q-152 21 -251 111t-99 216q0 21 20 21h131q18 0 21 -21q12 -88 86.5 -135t187.5 -47q110 0 179 37t69 113t-70.5 113t-238.5 63q-190 30 -275.5 98.5t-85.5 200.5q0 139 113.5 216t286.5 77t281 -79t122 -216
q0 -21 -20 -21h-115q-6 0 -9.5 2t-5.5 5t-4 9q-1 3 -2 5q-22 71 -92 107t-162 36q-104 0 -168.5 -34t-64.5 -103q0 -74 66.5 -109t232.5 -63q65 -11 115.5 -24t102 -36t85.5 -52.5t55 -74t21 -100.5q0 -146 -112.5 -231t-284.5 -90l-56 -105q54 14 119 14q81 0 128.5 -39.5
t47.5 -105.5q0 -170 -219 -170q-128 0 -201 20q-17 7 -19 13q-1 3 -1 8v59q0 21 20 21q4 0 68.5 -11.5t126.5 -11.5q42 0 66 17t24 47q0 29 -24.5 46t-65.5 17q-65 0 -133 -14q-6 -2 -15 -2q-8 0 -14 6z" />
    <glyph glyph-name="Scaron" unicode="&#x160;" 
d="M117 1063q0 122 66 212.5t172.5 134.5t236.5 44q217 0 350 -115t133 -284q0 -21 -20 -21h-131q-21 0 -21 21q0 95 -91.5 165t-219.5 70q-133 0 -218 -58.5t-85 -156.5q0 -27 7.5 -51t18 -43t31.5 -37t38.5 -30.5t48.5 -26.5t52 -22.5t59 -19.5t59.5 -17t62.5 -17
q87 -25 145.5 -45.5t122.5 -53.5t101.5 -70t62 -91t24.5 -121q0 -91 -26.5 -166t-73 -127t-111.5 -88t-141.5 -52.5t-163.5 -16.5q-227 0 -371.5 122t-144.5 322q0 20 21 20h131q20 0 20 -20q0 -121 94 -201t250 -80q154 0 249 69t95 204q0 41 -21 76t-51.5 59t-83 46
t-96.5 36t-110 31q-90 24 -153 46t-127.5 55.5t-103 73t-63 96.5t-24.5 128zM887 1819l-207 -263q-16 -16 -31 -16h-114q-15 0 -31 16l-207 263q-2 0 -2 2q-2 2 -2 8q0 10 14 10h127q19 0 37 -18l121 -123l121 123q18 18 37 18h127q14 0 14 -10q0 -3 -1 -5t-1 -3z" />
    <glyph glyph-name="scaron" unicode="&#x161;" 
d="M1059 301q0 -102 -58.5 -176t-152.5 -109.5t-211 -35.5q-119 0 -219.5 42.5t-160.5 119.5t-60 171q0 21 20 21h131q18 0 21 -21q12 -88 86.5 -135t187.5 -47q110 0 179 37t69 113t-70.5 113t-238.5 63q-190 30 -275.5 98.5t-85.5 200.5q0 139 113.5 216t286.5 77t281 -79
t122 -216q0 -21 -20 -21h-115q-6 0 -9.5 2t-5.5 5t-4 9q-1 3 -2 5q-22 71 -92 107t-162 36q-104 0 -168.5 -34t-64.5 -103q0 -74 66.5 -109t232.5 -63q65 -11 115.5 -24t102 -36t85.5 -52.5t55 -74t21 -100.5zM913 1413l-206 -262q-16 -16 -31 -16h-115q-15 0 -31 16
l-206 262q-2 0 -2 2q-3 3 -3 8q0 11 15 11h127q18 0 37 -19l120 -123l121 123q19 19 37 19h127q15 0 15 -11q0 -3 -1.5 -5t-1.5 -3z" />
    <glyph glyph-name="uni0162" unicode="&#x162;" 
d="M90 1290v123q0 21 21 21h1011q21 0 21 -21v-123q0 -20 -21 -20h-420v-1250q0 -20 -20 -20h-8l-66 -125q54 14 119 14q81 0 128.5 -39.5t47.5 -105.5q0 -170 -219 -170q-128 0 -201 20q-17 7 -19 13q-1 3 -1 8v59q0 21 20 21q4 0 68.5 -11.5t126.5 -11.5q42 0 66 17t24 47
q0 29 -24.5 46t-65.5 17q-65 0 -133 -14q-6 -2 -15 -2q-8 0 -14 6l-27 27q-4 4 -4 8q0 1 0.5 2.5t1.5 5t2 6.5l70 162h-8q-21 0 -21 20v1250h-419q-21 0 -21 20z" />
    <glyph glyph-name="uni0163" unicode="&#x163;" 
d="M543 -211l-27 27q-4 4 -4 8q0 1 0.5 2.5t1.5 5t2 6.5l66 162q-222 72 -222 395v482h-254q-20 0 -20 20v111q0 20 20 20h254v332q0 20 21 20h119q20 0 20 -20v-332h406q20 0 20 -20v-111q0 -20 -20 -20h-406v-480q0 -132 52.5 -199t148.5 -67q101 0 151 51.5t64 159.5
q2 18 22 18h119q12 0 15.5 -2.5t3.5 -15.5q0 -97 -42.5 -178t-129.5 -132.5t-203 -51.5q-25 0 -31 2l-55 -107q54 14 119 14q81 0 128.5 -39.5t47.5 -105.5q0 -170 -219 -170q-128 0 -201 20q-18 8 -20 13q-1 3 -1 8v59q0 21 21 21q4 0 68.5 -11.5t126.5 -11.5q42 0 66 17
t24 47q0 29 -24.5 46t-65.5 17q-66 0 -134 -14q-6 -2 -14 -2t-14 6z" />
    <glyph glyph-name="Tcaron" unicode="&#x164;" 
d="M90 1290v123q0 21 21 21h1011q21 0 21 -21v-123q0 -20 -21 -20h-420v-1250q0 -20 -20 -20h-131q-21 0 -21 20v1250h-419q-21 0 -21 20zM911 1819l-206 -263q-16 -16 -31 -16h-115q-15 0 -31 16l-206 263q-3 0 -3 2q-2 2 -2 8q0 10 15 10h127q19 0 37 -18l120 -123
l121 123q18 18 37 18h127q14 0 14 -10q0 -3 -1 -5t-1 -3z" />
    <glyph glyph-name="tcaron" unicode="&#x165;" 
d="M106 1028h254v332q0 20 21 20h119q20 0 20 -20v-332h406q20 0 20 -20v-111q0 -20 -20 -20h-406v-480q0 -132 52.5 -199t148.5 -67q101 0 151 51.5t64 159.5q2 18 22 18h119q12 0 15.5 -2.5t3.5 -15.5q0 -97 -42.5 -178t-129.5 -132.5t-203 -51.5q-176 0 -268.5 103.5
t-92.5 311.5v482h-254q-20 0 -20 20v111q0 20 20 20zM842 1204q58 0 76 22.5t18 86.5v39h-94q-21 0 -21 20v209q0 21 21 21h209q20 0 20 -21v-301q0 -90 -42 -140t-116 -50h-71q-21 0 -21 20v74q0 20 21 20z" />
    <glyph glyph-name="Tbar" unicode="&#x166;" 
d="M90 1290v123q0 21 21 21h1011q21 0 21 -21v-123q0 -20 -21 -20h-420v-277h334q21 0 21 -20v-115q0 -20 -21 -20h-334v-818q0 -20 -20 -20h-131q-21 0 -21 20v818h-333q-21 0 -21 20v115q0 20 21 20h333v277h-419q-21 0 -21 20z" />
    <glyph glyph-name="tbar" unicode="&#x167;" 
d="M106 1028h254v332q0 20 21 20h119q20 0 20 -20v-332h406q20 0 20 -20v-111q0 -20 -20 -20h-406v-218h330q20 0 20 -20v-107q0 -20 -20 -20h-330v-115q0 -132 52.5 -199t148.5 -67q101 0 151 51.5t64 159.5q2 18 22 18h119q12 0 15.5 -2.5t3.5 -15.5q0 -97 -42.5 -178
t-129.5 -132.5t-203 -51.5q-175 0 -268 104t-93 311v117h-227q-20 0 -20 20v107q0 20 20 20h227v218h-254q-20 0 -20 20v111q0 20 20 20z" />
    <glyph glyph-name="Utilde" unicode="&#x168;" 
d="M135 485v928q0 21 21 21h131q20 0 20 -21v-905q0 -365 309 -365q310 0 310 365v905q0 21 20 21h131q21 0 21 -21v-928q0 -232 -136 -368.5t-346 -136.5q-209 0 -345 136.5t-136 368.5zM276 1761q47 36 104 57t107 21q44 0 76.5 -8.5t51.5 -21t36 -25t40.5 -21t53.5 -8.5
q28 0 54.5 11.5t70.5 39.5q12 4 15 4q10 0 20 -16l58 -86q4 -8 4 -12q0 -8 -11 -19q-47 -36 -104 -57t-107 -21q-44 0 -76.5 8.5t-51.5 21t-36 25t-40.5 21t-53.5 8.5q-28 0 -54.5 -11.5t-70.5 -39.5q-12 -4 -14 -4q-10 0 -20 17l-58 86q-4 8 -4 12q0 8 10 18z" />
    <glyph glyph-name="utilde" unicode="&#x169;" 
d="M1026 1008v-988q0 -20 -20 -20h-119q-21 0 -21 20v123q-58 -71 -149.5 -117t-198.5 -46q-167 0 -252.5 90t-85.5 249v689q0 20 21 20h118q21 0 21 -20v-658q0 -110 49 -164.5t162 -54.5q134 0 224.5 97t90.5 259v521q0 20 21 20h119q20 0 20 -20zM252 1356q47 36 104 57
t107 21q44 0 76.5 -8.5t51.5 -21t36 -25t40.5 -21t53.5 -8.5q28 0 54.5 11.5t70.5 39.5q12 4 14 4q11 0 21 -16l57 -86q4 -8 4 -13q0 -8 -10 -18q-47 -36 -104 -57t-107 -21q-44 0 -76.5 8.5t-51.5 21t-36 25t-40.5 21t-53.5 8.5q-28 0 -54.5 -11.5t-70.5 -39.5
q-12 -4 -14 -4q-11 0 -21 16l-57 86q-4 8 -4 12q0 9 10 19z" />
    <glyph glyph-name="Umacron" unicode="&#x16a;" 
d="M135 485v928q0 21 21 21h131q20 0 20 -21v-905q0 -365 309 -365q310 0 310 365v905q0 21 20 21h131q21 0 21 -21v-928q0 -232 -136 -368.5t-346 -136.5q-209 0 -345 136.5t-136 368.5zM397 1647v102q0 20 21 20h397q21 0 21 -20v-102q0 -21 -21 -21h-397q-21 0 -21 21z
" />
    <glyph glyph-name="umacron" unicode="&#x16b;" 
d="M1026 1008v-988q0 -20 -20 -20h-119q-21 0 -21 20v123q-58 -71 -149.5 -117t-198.5 -46q-167 0 -252.5 90t-85.5 249v689q0 20 21 20h118q21 0 21 -20v-658q0 -110 49 -164.5t162 -54.5q134 0 224.5 97t90.5 259v521q0 20 21 20h119q20 0 20 -20zM389 1241v102
q0 21 21 21h397q20 0 20 -21v-102q0 -20 -20 -20h-397q-21 0 -21 20z" />
    <glyph glyph-name="Ubreve" unicode="&#x16c;" 
d="M135 485v928q0 21 21 21h131q20 0 20 -21v-905q0 -365 309 -365q310 0 310 365v905q0 21 20 21h131q21 0 21 -21v-928q0 -232 -136 -368.5t-346 -136.5q-209 0 -345 136.5t-136 368.5zM367 1808h98q20 0 20 -20q0 -51 34.5 -79t96.5 -28t97 28t35 79q0 20 20 20h98
q21 0 21 -20q0 -114 -74 -178t-197 -64t-196.5 64t-73.5 178q0 20 21 20z" />
    <glyph glyph-name="ubreve" unicode="&#x16d;" 
d="M1026 1008v-988q0 -20 -20 -20h-119q-21 0 -21 20v123q-58 -71 -149.5 -117t-198.5 -46q-167 0 -252.5 90t-85.5 249v689q0 20 21 20h118q21 0 21 -20v-658q0 -110 49 -164.5t162 -54.5q134 0 224.5 97t90.5 259v521q0 20 21 20h119q20 0 20 -20zM360 1403h99
q20 0 20 -21q0 -51 34.5 -78.5t96.5 -27.5t96.5 27.5t34.5 78.5q0 21 21 21h98q21 0 21 -21q0 -114 -73.5 -177.5t-197.5 -63.5q-123 0 -196.5 63.5t-73.5 177.5q0 21 20 21z" />
    <glyph glyph-name="Uring" unicode="&#x16e;" 
d="M135 485v928q0 21 21 21h131q20 0 20 -21v-905q0 -365 309 -365q310 0 310 365v905q0 21 20 21h131q21 0 21 -21v-928q0 -232 -136 -368.5t-346 -136.5q-209 0 -345 136.5t-136 368.5zM438 1708q0 75 50 123.5t128 48.5t128.5 -48.5t50.5 -123.5t-50.5 -123.5
t-128.5 -48.5t-128 48.5t-50 123.5zM537 1708q0 -38 21.5 -60t57.5 -22t58 22t22 60t-22 60t-58 22t-57.5 -22t-21.5 -60z" />
    <glyph glyph-name="uring" unicode="&#x16f;" 
d="M1026 1008v-988q0 -20 -20 -20h-119q-21 0 -21 20v123q-58 -71 -149.5 -117t-198.5 -46q-167 0 -252.5 90t-85.5 249v689q0 20 21 20h118q21 0 21 -20v-658q0 -110 49 -164.5t162 -54.5q134 0 224.5 97t90.5 259v521q0 20 21 20h119q20 0 20 -20zM436 1303q0 75 50 123.5
t128 48.5t128.5 -48.5t50.5 -123.5t-50.5 -124t-128.5 -49t-128 49t-50 124zM535 1303q0 -38 21.5 -60t57.5 -22t58 22t22 60t-22 59.5t-58 21.5t-57.5 -21.5t-21.5 -59.5z" />
    <glyph glyph-name="Uhungarumlaut" unicode="&#x170;" 
d="M135 485v928q0 21 21 21h131q20 0 20 -21v-905q0 -365 309 -365q310 0 310 365v905q0 21 20 21h131q21 0 21 -21v-928q0 -232 -136 -368.5t-346 -136.5q-209 0 -345 136.5t-136 368.5zM305 1561l135 258q11 20 31 20h207q12 0 12 -10q0 -2 -4 -10l-203 -260
q-14 -19 -37 -19h-131q-12 0 -12 12q0 7 2 9zM694 1561l135 258q11 20 31 20h207q12 0 12 -10q0 -2 -4 -10l-203 -260q-14 -19 -36 -19h-131q-13 0 -13 12q0 7 2 9z" />
    <glyph glyph-name="uhungarumlaut" unicode="&#x171;" 
d="M1026 1008v-988q0 -20 -20 -20h-119q-21 0 -21 20v123q-58 -71 -149.5 -117t-198.5 -46q-167 0 -252.5 90t-85.5 249v689q0 20 21 20h118q21 0 21 -20v-658q0 -110 49 -164.5t162 -54.5q134 0 224.5 97t90.5 259v521q0 20 21 20h119q20 0 20 -20zM266 1155l135 258
q12 21 31 21h207q12 0 12 -11q0 -2 -4 -10l-203 -260q-13 -18 -36 -18h-132q-12 0 -12 12q0 6 2 8zM655 1155l136 258q12 21 30 21h207q12 0 12 -11q0 -2 -4 -10l-202 -260q-13 -18 -37 -18h-131q-13 0 -13 12q0 6 2 8z" />
    <glyph glyph-name="Uogonek" unicode="&#x172;" 
d="M135 485v928q0 21 21 21h131q20 0 20 -21v-905q0 -365 309 -365q310 0 310 365v905q0 21 20 21h131q21 0 21 -21v-928q0 -188 -89.5 -315.5t-240.5 -169.5q-63 -18 -101 -55.5t-38 -87.5q0 -49 35.5 -77t93.5 -28h39q20 0 20 -20v-70q0 -20 -20 -20h-74q-109 0 -176.5 47
t-67.5 139q0 86 74 156q-184 18 -301 152.5t-117 348.5z" />
    <glyph glyph-name="uogonek" unicode="&#x173;" 
d="M1026 1008v-988q0 -17 -14 -20q-62 -18 -100 -55.5t-38 -87.5q0 -49 36 -77t94 -28h38q21 0 21 -20v-70q0 -20 -21 -20h-73q-109 0 -176.5 47t-67.5 139q0 70 41 121.5t100 73.5v120q-58 -71 -149.5 -117t-198.5 -46q-167 0 -252.5 90t-85.5 249v689q0 20 21 20h118
q21 0 21 -20v-658q0 -110 49 -164.5t162 -54.5q134 0 224.5 97t90.5 259v521q0 20 21 20h119q20 0 20 -20z" />
    <glyph glyph-name="Wcircumflex" unicode="&#x174;" 
d="M199 20l-158 1393q0 21 16 21h133q22 0 25 -21l115 -1192l194 885q6 20 25 20h135q19 0 25 -20l194 -885l115 1192q3 21 24 21h134q16 0 16 -21l-158 -1393q-3 -20 -22 -20h-191q-16 0 -22 20l-183 826l-182 -826q-6 -20 -22 -20h-191q-19 0 -22 20zM705 1823l206 -262
l2 -2q0 -1 1 -4.5t1 -4.5q0 -10 -14 -10h-127q-18 0 -37 19l-121 122l-120 -122q-19 -19 -37 -19h-127q-15 0 -15 10q0 7 2 9q0 2 3 2l206 262q16 16 31 16h115q15 0 31 -16z" />
    <glyph glyph-name="wcircumflex" unicode="&#x175;" 
d="M1198 997l-219 -977q-6 -20 -27 -20h-145q-21 0 -27 20l-164 658l-163 -658q-6 -20 -27 -20h-145q-24 0 -27 20l-219 977q-2 6 -2 17q0 14 16 14h141q11 0 16.5 -3t7 -5t5.5 -12l141 -775l156 672q7 17 13 20q4 1 10 1h155q10 0 13.5 -3t7.5 -14q1 -3 2 -4l155 -672
l142 775q1 2 2.5 5.5t2 4.5t2 3.5t3 3t4 1.5t6 1.5t8.5 0.5h142q16 0 16 -14q0 -11 -2 -17zM705 1417l206 -262l2 -2q0 -1 1 -4t1 -4q0 -10 -14 -10h-127q-19 0 -37 18l-121 123l-120 -123q-18 -18 -37 -18h-127q-15 0 -15 10q0 6 2 8q0 2 3 2l206 262q17 17 31 17h115
q14 0 31 -17z" />
    <glyph glyph-name="Ycircumflex" unicode="&#x176;" 
d="M1149 1413l-447 -809v-584q0 -20 -20 -20h-131q-21 0 -21 20v584l-446 809q-1 2 -2 4.5t-1.5 3.5t-0.5 2q0 11 14 11h162q13 0 23 -17l337 -622l338 622q10 17 23 17h162q14 0 14 -11q0 -1 -0.5 -2t-1.5 -3.5t-2 -4.5zM705 1823l206 -262l2 -2q0 -1 1 -4.5t1 -4.5
q0 -10 -14 -10h-127q-18 0 -37 19l-121 122l-120 -122q-19 -19 -37 -19h-127q-15 0 -15 10q0 7 2 9q0 2 3 2l206 262q16 16 31 16h115q15 0 31 -16z" />
    <glyph glyph-name="ycircumflex" unicode="&#x177;" 
d="M184 -360v110q0 21 17 21q12 0 30 -11t47.5 -22.5t69.5 -11.5q73 0 113.5 57.5t99.5 212.5l4 12l-420 987q-4 16 -4 17q0 16 17 16h147q21 0 27 -20l321 -777l305 777q5 11 10.5 15.5t18.5 4.5h141q17 0 17 -14q0 -1 -0.5 -3t-1.5 -5.5t-2 -6.5l-441 -1099
q-70 -175 -149 -250.5t-195 -75.5q-84 0 -151 33q-21 12 -21 33zM741 1417l207 -262l2 -2q0 -1 1 -4t1 -4q0 -10 -14 -10h-127q-19 0 -37 18l-121 123l-121 -123q-12 -11 -17.5 -14.5t-18.5 -3.5h-127q-15 0 -15 10q0 6 2 8q0 2 2 2l207 262q17 17 31 17h115q13 0 30 -17z
" />
    <glyph glyph-name="Ydieresis" unicode="&#x178;" 
d="M1149 1413l-447 -809v-584q0 -20 -20 -20h-131q-21 0 -21 20v584l-446 809q-1 2 -2 4.5t-1.5 3.5t-0.5 2q0 11 14 11h162q13 0 23 -17l337 -622l338 622q10 17 23 17h162q14 0 14 -11q0 -1 -0.5 -2t-1.5 -3.5t-2 -4.5zM340 1647v172q0 20 20 20h172q21 0 21 -20v-172
q0 -21 -21 -21h-172q-20 0 -20 21zM680 1647v172q0 20 20 20h172q21 0 21 -20v-172q0 -21 -21 -21h-172q-20 0 -20 21z" />
    <glyph glyph-name="Zacute" unicode="&#x179;" 
d="M156 1290v123q0 21 20 21h885q20 0 20 -21v-123q0 -17 -12 -35l-745 -1091h772q20 0 20 -21v-123q0 -20 -20 -20h-946q-21 0 -21 20v123q0 17 12 35l748 1092h-713q-20 0 -20 20zM463 1561l135 258q11 20 31 20h207q12 0 12 -10q0 -2 -4 -10l-203 -260q-14 -19 -37 -19
h-131q-12 0 -12 12q0 7 2 9z" />
    <glyph glyph-name="zacute" unicode="&#x17a;" 
d="M240 897v111q0 20 20 20h717q20 0 20 -20v-111q0 -17 -16 -43l-573 -702h608q20 0 20 -21v-111q0 -20 -20 -20h-783q-20 0 -20 20v111q0 15 12 31l584 715h-549q-20 0 -20 20zM481 1155l135 258q12 21 31 21h207q12 0 12 -11q0 -2 -4 -10l-203 -260q-13 -18 -36 -18h-131
q-13 0 -13 12q0 6 2 8z" />
    <glyph glyph-name="Zdotaccent" unicode="&#x17b;" 
d="M156 1290v123q0 21 20 21h885q20 0 20 -21v-123q0 -17 -12 -35l-745 -1091h772q20 0 20 -21v-123q0 -20 -20 -20h-946q-21 0 -21 20v123q0 17 12 35l748 1092h-713q-20 0 -20 20zM516 1642v177q0 20 21 20h176q20 0 20 -20v-177q0 -20 -20 -20h-176q-21 0 -21 20z" />
    <glyph glyph-name="zdotaccent" unicode="&#x17c;" 
d="M240 897v111q0 20 20 20h717q20 0 20 -20v-111q0 -17 -16 -43l-573 -702h608q20 0 20 -21v-111q0 -20 -20 -20h-783q-20 0 -20 20v111q0 15 12 31l584 715h-549q-20 0 -20 20zM514 1237v176q0 21 21 21h176q20 0 20 -21v-176q0 -20 -20 -20h-176q-21 0 -21 20z" />
    <glyph glyph-name="Zcaron" unicode="&#x17d;" 
d="M156 1290v123q0 21 20 21h885q20 0 20 -21v-123q0 -17 -12 -35l-745 -1091h772q20 0 20 -21v-123q0 -20 -20 -20h-946q-21 0 -21 20v123q0 17 12 35l748 1092h-713q-20 0 -20 20zM915 1819l-206 -263q-16 -16 -31 -16h-115q-15 0 -31 16l-206 263q-2 0 -2 2q-2 2 -2 8
q0 10 14 10h127q19 0 37 -18l121 -123l120 123q18 18 37 18h127q15 0 15 -10q0 -3 -1 -5t-1 -3z" />
    <glyph glyph-name="zcaron" unicode="&#x17e;" 
d="M240 897v111q0 20 20 20h717q20 0 20 -20v-111q0 -17 -16 -43l-573 -702h608q20 0 20 -21v-111q0 -20 -20 -20h-783q-20 0 -20 20v111q0 15 12 31l584 715h-549q-20 0 -20 20zM928 1413l-207 -262q-16 -16 -31 -16h-115q-14 0 -30 16l-207 262q-2 0 -2 2q-2 2 -2 8
q0 11 14 11h127q18 0 37 -19l121 -123l121 123q19 19 37 19h127q14 0 14 -11q0 -3 -1 -5t-1 -3z" />
    <glyph glyph-name="longs" unicode="&#x17f;" 
d="M602 1098v-1078q0 -20 -20 -20h-119q-21 0 -21 20v857h-256q-20 0 -20 20v111q0 20 20 20h256v90q0 65 22 124.5t62.5 107t104.5 76t143 28.5q166 0 279 -70q16 -11 16 -34v-113q0 -18 -14 -18q-6 0 -15 6q-122 78 -254 78q-86 0 -135 -54t-49 -151z" />
    <glyph glyph-name="uni018E" unicode="&#x18e;" 
d="M883 762v508h-723q-21 0 -21 20v123q0 21 21 21h874q21 0 21 -21v-1393q0 -20 -21 -20h-860q-20 0 -20 20v123q0 21 20 21h709v434h-645q-21 0 -21 20v123q0 21 21 21h645z" />
    <glyph glyph-name="uni018F" unicode="&#x18f;" 
d="M137 563h781q-12 150 -95.5 242t-226.5 92q-110 0 -177 -45t-104 -143q-7 -19 -28 -19h-133q-15 0 -15 15q0 11 4 20q112 324 453 324q155 0 268.5 -71.5t169.5 -191.5t56 -272q0 -229 -138 -381.5t-356 -152.5q-113 0 -205.5 43t-151.5 116.5t-90.5 169.5t-31.5 205v29
q0 20 20 20zM596 131q114 0 201.5 76.5t111.5 204.5h-612q25 -127 107 -204t192 -77z" />
    <glyph glyph-name="florin" unicode="&#x192;" 
d="M442 -27l121 904h-262q-18 0 -18 20v111q0 20 22 20h279l8 70q17 160 123.5 258t265.5 98q99 0 168 -29q10 -4 13 -10.5t3 -23.5v-107q0 -20 -14 -20q-4 0 -16 4q-46 21 -75 28t-75 7q-92 0 -158 -53.5t-77 -166.5l-7 -55h402q20 0 20 -20v-111q0 -20 -20 -20h-422
l-123 -918q-26 -191 -114.5 -288t-235.5 -97q-132 0 -203 35q-11 6 -13.5 12t-2.5 23v106q0 21 14 21q4 0 16 -4q78 -41 164 -41q98 0 149 58t68 189z" />
    <glyph glyph-name="uni01B5" unicode="&#x1b5;" 
d="M156 1290v123q0 21 20 21h885q20 0 20 -21v-123q0 -17 -12 -35l-315 -460h247q21 0 21 -21v-115q0 -20 -21 -20h-354l-323 -475h772q20 0 20 -21v-123q0 -20 -20 -20h-946q-21 0 -21 20v123q0 17 12 35l316 461h-254q-21 0 -21 20v115q0 21 21 21h360l326 475h-713
q-20 0 -20 20z" />
    <glyph glyph-name="uni01B6" unicode="&#x1b6;" 
d="M240 897v111q0 20 20 20h717q20 0 20 -20v-111q0 -17 -16 -43l-217 -266h147q21 0 21 -21v-106q0 -21 -21 -21h-268l-235 -288h608q20 0 20 -21v-111q0 -20 -20 -20h-783q-20 0 -20 20v111q0 15 12 31l228 278h-160q-21 0 -21 21v106q0 21 21 21h280l236 289h-549
q-20 0 -20 20z" />
    <glyph glyph-name="Aringacute" unicode="&#x1fa;" 
d="M348 416l-131 -396q-4 -9 -5.5 -12t-6 -5.5t-12.5 -2.5h-140q-22 0 -22 20q0 9 2 13l469 1347q-64 51 -64 136q0 75 50 123.5t128 48.5t128.5 -48.5t50.5 -123.5q0 -85 -64 -136l469 -1347q2 -4 2 -13q0 -20 -22 -20h-140q-11 0 -15 4t-9 16l-133 396h-535zM616 1221
l-215 -641h428zM537 1516q0 -38 21.5 -60t57.5 -22t58 22t22 60t-22 59.5t-58 21.5t-57.5 -21.5t-21.5 -59.5zM532 1765l136 258q12 21 30 21h207q13 0 13 -10q0 -1 -5 -11l-202 -260q-13 -18 -37 -18h-131q-13 0 -13 12q0 6 2 8z" />
    <glyph glyph-name="aringacute" unicode="&#x1fb;" 
d="M346 723h-131q-14 0 -14 12q0 13 2 21q30 124 142 208.5t288 84.5q203 0 313.5 -100.5t110.5 -268.5v-483q0 -70 7 -105.5t28 -71.5q2 -2 2 -10q0 -10 -17 -10h-159q-21 0 -21 20v107q-54 -69 -148 -108t-204 -39q-73 0 -140 20t-121.5 59t-87 103t-32.5 145
q0 110 55.5 188t146 115t205.5 37q147 0 326 -43v51q0 242 -264 242q-96 0 -162 -41t-96 -115q-7 -18 -29 -18zM897 453q-173 43 -305 43q-112 0 -186 -49t-74 -140q0 -79 62 -127.5t169 -48.5q135 0 234.5 87.5t99.5 234.5zM459 1303q0 75 50 123.5t128 48.5t128 -48.5
t50 -123.5t-50 -124t-128 -49t-128 49t-50 124zM557 1303q0 -38 22 -60t58 -22t58 22t22 60t-22 59.5t-58 21.5t-58 -21.5t-22 -59.5zM545 1561l135 258q11 20 31 20h207q12 0 12 -10q0 -2 -4 -10l-203 -260q-14 -19 -37 -19h-131q-12 0 -12 12q0 7 2 9z" />
    <glyph glyph-name="AEacute" unicode="&#x1fc;" 
d="M694 672v-508h484q20 0 20 -21v-123q0 -20 -20 -20h-635q-21 0 -21 20v396h-268l-100 -396q-5 -12 -9.5 -16t-15.5 -4h-131q-23 0 -23 20q0 9 2 13l381 1380q8 18 13 20q3 1 8 1h778q21 0 21 -21v-123q0 -20 -21 -20h-463v-434h404q20 0 20 -21v-123q0 -20 -20 -20h-404z
M475 1270l-178 -690h225v690h-47zM621 1561l135 258q11 20 30 20h207q13 0 13 -10l-5 -10l-202 -260q-14 -19 -37 -19h-131q-13 0 -13 12q0 6 3 9z" />
    <glyph glyph-name="aeacute" unicode="&#x1fd;" 
d="M586 1049h55q92 0 173.5 -28t143 -78t106 -116.5t67 -146.5t22.5 -166v-29q0 -20 -20 -20h-441v-334q108 0 166 43.5t96 144.5q7 19 29 19h133q14 0 14 -14q0 -12 -4 -21q-102 -323 -485 -323h-78q-141 0 -243.5 31.5t-164 103.5t-61.5 180q0 82 36 145.5t97 100.5
t135.5 56t157.5 19h12v277q-80 -8 -141 -48.5t-86 -103.5q-7 -18 -29 -18h-131q-14 0 -14 12q0 13 2 21q26 112 156 202.5t297 90.5zM262 295q0 -79 63.5 -121.5t186.5 -42.5h20v334q-130 0 -200 -44t-70 -126zM692 616h281q-25 130 -99 205.5t-182 75.5v-281zM459 1155
l135 258q12 21 31 21h206q13 0 13 -11q0 -2 -4 -10l-203 -260q-13 -18 -37 -18h-131q-12 0 -12 12q0 6 2 8z" />
    <glyph glyph-name="Scommaaccent" unicode="&#x218;" 
d="M117 1063q0 122 66 212.5t172.5 134.5t236.5 44q217 0 350 -115t133 -284q0 -21 -20 -21h-131q-21 0 -21 21q0 95 -91.5 165t-219.5 70q-133 0 -218 -58.5t-85 -156.5q0 -27 7.5 -51t18 -43t31.5 -37t38.5 -30.5t48.5 -26.5t52 -22.5t59 -19.5t59.5 -17t62.5 -17
q87 -25 145.5 -45.5t122.5 -53.5t101.5 -70t62 -91t24.5 -121q0 -91 -26.5 -166t-73 -127t-111.5 -88t-141.5 -52.5t-163.5 -16.5q-227 0 -371.5 122t-144.5 322q0 20 21 20h131q20 0 20 -20q0 -121 94 -201t250 -80q154 0 249 69t95 204q0 41 -21 76t-51.5 59t-83 46
t-96.5 36t-110 31q-90 24 -153 46t-127.5 55.5t-103 73t-63 96.5t-24.5 128zM510 -446q58 0 76 19.5t18 76.5v14h-94q-21 0 -21 21v209q0 20 21 20h209q20 0 20 -20v-289q0 -83 -41 -124.5t-116 -41.5h-72q-21 0 -21 20v74q0 21 21 21z" />
    <glyph glyph-name="scommaaccent" unicode="&#x219;" 
d="M1059 301q0 -102 -58.5 -176t-152.5 -109.5t-211 -35.5q-119 0 -219.5 42.5t-160.5 119.5t-60 171q0 21 20 21h131q18 0 21 -21q12 -88 86.5 -135t187.5 -47q110 0 179 37t69 113t-70.5 113t-238.5 63q-190 30 -275.5 98.5t-85.5 200.5q0 139 113.5 216t286.5 77t281 -79
t122 -216q0 -21 -20 -21h-115q-6 0 -9.5 2t-5.5 5t-4 9q-1 3 -2 5q-22 71 -92 107t-162 36q-104 0 -168.5 -34t-64.5 -103q0 -74 66.5 -109t232.5 -63q65 -11 115.5 -24t102 -36t85.5 -52.5t55 -74t21 -100.5zM512 -446q58 0 76 19.5t18 76.5v14h-94q-20 0 -20 21v209
q0 20 20 20h209q20 0 20 -20v-289q0 -83 -41 -124.5t-116 -41.5h-72q-20 0 -20 20v74q0 21 20 21z" />
    <glyph glyph-name="uni021A" unicode="&#x21a;" 
d="M90 1290v123q0 21 21 21h1011q21 0 21 -21v-123q0 -20 -21 -20h-420v-1250q0 -20 -20 -20h-131q-21 0 -21 20v1250h-419q-21 0 -21 20zM512 -446q58 0 76 19.5t18 76.5v14h-94q-20 0 -20 21v209q0 20 20 20h209q20 0 20 -20v-289q0 -83 -41 -124.5t-116 -41.5h-72
q-20 0 -20 20v74q0 21 20 21z" />
    <glyph glyph-name="uni021B" unicode="&#x21b;" 
d="M106 1028h254v332q0 20 21 20h119q20 0 20 -20v-332h406q20 0 20 -20v-111q0 -20 -20 -20h-406v-480q0 -132 52.5 -199t148.5 -67q101 0 151 51.5t64 159.5q2 18 22 18h119q12 0 15.5 -2.5t3.5 -15.5q0 -97 -42.5 -178t-129.5 -132.5t-203 -51.5q-176 0 -268.5 103.5
t-92.5 311.5v482h-254q-20 0 -20 20v111q0 20 20 20zM616 -446q59 0 77 19.5t18 76.5v14h-95q-20 0 -20 21v209q0 20 20 20h209q21 0 21 -20v-289q0 -83 -41.5 -124.5t-116.5 -41.5h-72q-20 0 -20 20v74q0 21 20 21z" />
    <glyph glyph-name="circumflex" unicode="&#x2c6;" 
d="M705 1417l206 -262l2 -2q0 -1 1 -4t1 -4q0 -10 -14 -10h-127q-19 0 -37 18l-121 123l-120 -123q-18 -18 -37 -18h-127q-15 0 -15 10q0 6 2 8q0 2 3 2l206 262q17 17 31 17h115q14 0 31 -17z" />
    <glyph glyph-name="caron" unicode="&#x2c7;" 
d="M911 1413l-206 -262q-16 -16 -31 -16h-115q-15 0 -31 16l-206 262q-3 0 -3 2q-2 2 -2 8q0 11 15 11h127q18 0 37 -19l120 -123l121 123q19 19 37 19h127q14 0 14 -11q0 -3 -1 -5t-1 -3z" />
    <glyph glyph-name="breve" unicode="&#x2d8;" 
d="M367 1403h98q20 0 20 -21q0 -51 34.5 -78.5t96.5 -27.5t97 27.5t35 78.5q0 21 20 21h98q21 0 21 -21q0 -114 -73.5 -177.5t-197.5 -63.5q-123 0 -196.5 63.5t-73.5 177.5q0 21 21 21z" />
    <glyph glyph-name="dotaccent" unicode="&#x2d9;" 
d="M508 1237v176q0 21 20 21h177q20 0 20 -21v-176q0 -20 -20 -20h-177q-20 0 -20 20z" />
    <glyph glyph-name="ring" unicode="&#x2da;" 
d="M438 1303q0 75 50 123.5t128 48.5t128.5 -48.5t50.5 -123.5t-50.5 -124t-128.5 -49t-128 49t-50 124zM537 1303q0 -38 21.5 -60t57.5 -22t58 22t22 60t-22 59.5t-58 21.5t-57.5 -21.5t-21.5 -59.5z" />
    <glyph glyph-name="ogonek" unicode="&#x2db;" 
d="M645 31l88 -17l2 -2q4 -4 4 -6q0 -4 -4 -4l-2 -2q-62 -18 -99.5 -55.5t-37.5 -87.5q0 -49 35.5 -77t93.5 -28h39q20 0 20 -20v-70q0 -20 -20 -20h-74q-109 0 -176.5 47t-67.5 139q0 75 46 126t110 75q20 4 21 4q8 0 22 -2z" />
    <glyph glyph-name="tilde" unicode="&#x2dc;" 
d="M276 1356q47 36 104 57t107 21q44 0 76.5 -8.5t51.5 -21t36 -25t40.5 -21t53.5 -8.5q28 0 54.5 11.5t70.5 39.5q12 4 15 4q10 0 20 -16l58 -86q4 -8 4 -13q0 -7 -11 -18q-47 -36 -104 -57t-107 -21q-44 0 -76.5 8.5t-51.5 21t-36 25t-40.5 21t-53.5 8.5
q-28 0 -54.5 -11.5t-70.5 -39.5q-12 -4 -14 -4q-10 0 -20 16l-58 86q-4 8 -4 12q0 9 10 19z" />
    <glyph glyph-name="hungarumlaut" unicode="&#x2dd;" 
d="M231 1155l136 258q12 21 30 21h207q12 0 12 -11q0 -2 -4 -10l-202 -260q-13 -18 -37 -18h-131q-13 0 -13 12q0 6 2 8zM618 1155l136 258q12 21 30 21h207q13 0 13 -11l-5 -10l-202 -260q-13 -18 -37 -18h-131q-13 0 -13 12q0 6 2 8z" />
    <glyph glyph-name="uni03A9" unicode="&#x3a9;" 
d="M616 1290q-175 0 -283 -108t-108 -320q0 -189 79 -368.5t220 -309.5q17 -17 17 -41v-123q0 -20 -21 -20h-409q-21 0 -21 20v123q0 21 21 21h254q-86 86 -152 184.5t-113 235t-47 278.5q0 267 157 429.5t406 162.5t406.5 -162.5t157.5 -429.5q0 -378 -312 -698h254
q21 0 21 -21v-123q0 -20 -21 -20h-409q-21 0 -21 20v123q0 24 17 41q141 130 220 309.5t79 368.5q0 212 -108.5 320t-283.5 108z" />
    <glyph glyph-name="pi" unicode="&#x3c0;" 
d="M1118 881h-184v-617q0 -62 22.5 -87t81.5 -25h31q21 0 21 -21v-111q0 -20 -21 -20h-86q-209 0 -209 203v678h-334v-861q0 -20 -20 -20h-119q-20 0 -20 20v861h-195q-20 0 -20 20v107q0 20 20 20h1032q21 0 21 -20v-107q0 -20 -21 -20z" />
    <glyph glyph-name="endash" unicode="&#x2013;" 
d="M197 780h839q21 0 21 -20v-119q0 -20 -21 -20h-839q-21 0 -21 20v119q0 20 21 20z" />
    <glyph glyph-name="emdash" unicode="&#x2014;" 
d="M117 780h999q21 0 21 -20v-119q0 -20 -21 -20h-999q-21 0 -21 20v119q0 20 21 20z" />
    <glyph glyph-name="quoteleft" unicode="&#x2018;" 
d="M721 1319q-58 0 -76 -22.5t-18 -86.5v-39h94q20 0 20 -20v-209q0 -20 -20 -20h-209q-20 0 -20 20v301q0 90 41.5 140.5t115.5 50.5h72q20 0 20 -21v-74q0 -20 -20 -20z" />
    <glyph glyph-name="quoteright" unicode="&#x2019;" 
d="M512 1036q58 0 76 22.5t18 86.5v39h-94q-20 0 -20 20v209q0 21 20 21h209q20 0 20 -21v-301q0 -90 -41.5 -140t-115.5 -50h-72q-20 0 -20 20v74q0 20 20 20z" />
    <glyph glyph-name="quotesinglbase" unicode="&#x201a;" 
d="M512 -147q58 0 76 22t18 86v39h-94q-20 0 -20 20v209q0 21 20 21h209q20 0 20 -21v-301q0 -90 -41.5 -140t-115.5 -50h-72q-20 0 -20 20v74q0 21 20 21z" />
    <glyph glyph-name="quotedblleft" unicode="&#x201c;" 
d="M932 1319q-58 0 -76 -22.5t-18 -86.5v-39h94q20 0 20 -20v-209q0 -20 -20 -20h-209q-21 0 -21 20v301q0 90 42 140.5t116 50.5h72q20 0 20 -21v-74q0 -20 -20 -20zM510 1319q-58 0 -76 -22.5t-18 -86.5v-39h94q20 0 20 -20v-209q0 -20 -20 -20h-209q-20 0 -20 20v301
q0 90 41.5 140.5t115.5 50.5h72q20 0 20 -21v-74q0 -20 -20 -20z" />
    <glyph glyph-name="quotedblright" unicode="&#x201d;" 
d="M301 1036q58 0 76 22.5t18 86.5v39h-94q-20 0 -20 20v209q0 21 20 21h209q20 0 20 -21v-301q0 -90 -41.5 -140t-115.5 -50h-72q-20 0 -20 20v74q0 20 20 20zM723 1036q58 0 76 22.5t18 86.5v39h-94q-21 0 -21 20v209q0 21 21 21h209q20 0 20 -21v-301q0 -90 -41.5 -140
t-115.5 -50h-72q-21 0 -21 20v74q0 20 21 20z" />
    <glyph glyph-name="quotedblbase" unicode="&#x201e;" 
d="M301 -147q58 0 76 22t18 86v39h-94q-20 0 -20 20v209q0 21 20 21h209q20 0 20 -21v-301q0 -90 -41.5 -140t-115.5 -50h-72q-20 0 -20 20v74q0 21 20 21zM723 -147q58 0 76 22t18 86v39h-94q-21 0 -21 20v209q0 21 21 21h209q20 0 20 -21v-301q0 -90 -41.5 -140
t-115.5 -50h-72q-21 0 -21 20v74q0 21 21 21z" />
    <glyph glyph-name="dagger" unicode="&#x2020;" 
d="M190 1028h340v385q0 21 21 21h131q20 0 20 -21v-385h340q21 0 21 -20v-119q0 -21 -21 -21h-340v-1253q0 -21 -20 -21h-131q-21 0 -21 21v1253h-340q-20 0 -20 21v119q0 20 20 20z" />
    <glyph glyph-name="daggerdbl" unicode="&#x2021;" 
d="M530 0h-340q-20 0 -20 20v119q0 21 20 21h340v708h-340q-20 0 -20 21v119q0 20 20 20h340v385q0 21 21 21h131q20 0 20 -21v-385h340q21 0 21 -20v-119q0 -21 -21 -21h-340v-708h340q21 0 21 -21v-119q0 -20 -21 -20h-340v-385q0 -21 -20 -21h-131q-21 0 -21 21v385z" />
    <glyph glyph-name="bullet" unicode="&#x2022;" 
d="M356 668q0 106 76.5 183t183.5 77q106 0 183.5 -77t77.5 -183q0 -107 -77.5 -183.5t-183.5 -76.5q-107 0 -183.5 76.5t-76.5 183.5z" />
    <glyph glyph-name="ellipsis" unicode="&#x2026;" 
d="M98 250h209q21 0 21 -21v-209q0 -20 -21 -20h-209q-20 0 -20 20v209q0 21 20 21zM512 250h209q20 0 20 -21v-209q0 -20 -20 -20h-209q-20 0 -20 20v209q0 21 20 21zM926 250h209q20 0 20 -21v-209q0 -20 -20 -20h-209q-21 0 -21 20v209q0 21 21 21z" />
    <glyph glyph-name="perthousand" unicode="&#x2030;" 
d="M1178 264q0 -126 -80.5 -205t-200.5 -79q-145 0 -221 102q-80 -102 -221 -102q-120 0 -200.5 79t-80.5 205t80.5 205.5t200.5 79.5q138 0 221 -103q37 48 95 75.5t126 27.5q120 0 200.5 -79.5t80.5 -205.5zM653 1169q0 -126 -80 -205t-200 -79t-200.5 79t-80.5 205
t80.5 205.5t200.5 79.5t200 -79.5t80 -205.5zM51 639l1073 424q4 2 11 2q12 0 18 -14l25 -68q2 -4 2 -10q0 -11 -15 -17l-1073 -424q-4 -2 -10 -2q-13 0 -19 15l-24 67q-2 4 -2 11q0 10 14 16zM1059 264q0 81 -44.5 127.5t-117.5 46.5t-117.5 -46.5t-44.5 -127.5
t44.5 -127.5t117.5 -46.5t117.5 46.5t44.5 127.5zM616 264q0 81 -44 127.5t-117 46.5t-117.5 -46.5t-44.5 -127.5t44.5 -127.5t117.5 -46.5t117 46.5t44 127.5zM535 1169q0 81 -44.5 127.5t-117.5 46.5t-117.5 -46.5t-44.5 -127.5t44.5 -127.5t117.5 -46.5t117.5 46.5
t44.5 127.5z" />
    <glyph glyph-name="guilsinglleft" unicode="&#x2039;" 
d="M838 260v-172q0 -14 -13 -14q-6 0 -12 6l-440 387q-21 18 -21 37v114q0 19 21 37l440 387q7 7 12 7q13 0 13 -15v-172q0 -21 -15 -33l-307 -268l307 -268q15 -12 15 -33z" />
    <glyph glyph-name="guilsinglright" unicode="&#x203a;" 
d="M395 88v172q0 21 15 33l307 268l-307 268q-15 12 -15 33v172q0 15 13 15q5 0 12 -7l440 -387q21 -18 21 -37v-114q0 -19 -21 -37l-440 -387q-6 -6 -12 -6q-13 0 -13 14z" />
    <glyph glyph-name="fraction" unicode="&#x2044;" 
d="M174 287l803 831q8 8 14 8q9 0 17 -8l51 -51q8 -8 8 -14q0 -7 -8 -15l-803 -831q-8 -8 -14 -8q-9 0 -17 8l-51 51q-8 8 -8 14q0 7 8 15z" />
    <glyph glyph-name="zerosuperior" unicode="&#x2070;" 
d="M328 1051q0 182 81 288.5t207 106.5t207.5 -106.5t81.5 -288.5t-81.5 -289t-207.5 -107t-207 107t-81 289zM446 1051q0 -157 56 -232l137 514q-4 2 -23 2q-170 0 -170 -284zM786 1051q0 157 -55 231l-137 -514q4 -2 22 -2q170 0 170 285z" />
    <glyph glyph-name="foursuperior" unicode="&#x2074;" 
d="M653 688v125h-307q-20 0 -20 21v57q0 13 8 24l323 504q9 15 23 15h68q20 0 20 -21v-489h76q20 0 20 -21v-69q0 -21 -20 -21h-76v-125q0 -20 -20 -20h-74q-21 0 -21 20zM653 1210l-178 -286h178v286z" />
    <glyph glyph-name="fivesuperior" unicode="&#x2075;" 
d="M356 1034l54 383q3 17 20 17h371q20 0 20 -21v-70q0 -20 -20 -20h-293l-31 -195q28 22 70 35t80 13q112 0 175.5 -68t63.5 -195q0 -123 -73.5 -190.5t-184.5 -67.5q-107 0 -182.5 63.5t-75.5 160.5q0 20 21 20h80q17 0 20 -20q7 -53 44 -83t93 -30q68 0 104 39t36 106
q0 69 -36 110.5t-102 41.5q-70 0 -127 -57q-2 -2 -3.5 -5t-3 -3.5t-5.5 -0.5q-8 0 -14 2l-90 19q-11 4 -11 16z" />
    <glyph glyph-name="sixsuperior" unicode="&#x2076;" 
d="M389 1016q0 212 76 321t199 109q93 0 156 -53t75 -140q0 -10 -12 -10h-97q-7 0 -10 10q-34 82 -112 82q-67 0 -102.5 -56t-41.5 -179q26 29 68 45t86 16q108 0 178 -68.5t70 -183.5q0 -114 -76 -184t-182 -70q-52 0 -99 20.5t-87.5 61.5t-64.5 113t-24 166zM526 909
q0 -66 37 -104.5t103 -38.5t102.5 38.5t36.5 104.5q0 64 -37 103t-102 39t-102.5 -39t-37.5 -103z" />
    <glyph glyph-name="sevensuperior" unicode="&#x2077;" 
d="M379 1343v70q0 21 20 21h480q20 0 20 -21v-33q0 -16 -8 -32l-258 -662q-6 -18 -25 -18h-82q-16 0 -16 12q0 2 4 14l244 629h-359q-20 0 -20 20z" />
    <glyph glyph-name="eightsuperior" unicode="&#x2078;" 
d="M381 1243q0 93 68.5 148t166.5 55t167 -55t69 -148q0 -113 -90 -170q115 -56 115 -188q0 -103 -73.5 -166.5t-187.5 -63.5t-187 63.5t-73 166.5q0 132 115 188q-90 57 -90 170zM475 885q0 -55 39 -87t102 -32t102.5 32t39.5 87q0 54 -40 88.5t-102 34.5t-101.5 -34.5
t-39.5 -88.5zM489 1233q0 -49 36.5 -82t90.5 -33t90.5 33t36.5 82q0 51 -37 80.5t-90 29.5t-90 -29.5t-37 -80.5z" />
    <glyph glyph-name="ninesuperior" unicode="&#x2079;" 
d="M874 1085q0 -212 -75.5 -321t-198.5 -109q-93 0 -156 53t-75 140q0 10 12 10h96q7 0 10 -10q34 -82 113 -82q67 0 102 56t41 179q-26 -29 -67.5 -45t-85.5 -16q-108 0 -178 68.5t-70 183.5q0 114 76 184t182 70q52 0 98.5 -20t87 -61.5t64.5 -113.5t24 -166zM737 1192
q0 66 -36.5 104.5t-102.5 38.5t-102.5 -38.5t-36.5 -104.5q0 -64 37 -102.5t102 -38.5t102 38.5t37 102.5z" />
    <glyph glyph-name="zeroinferior" unicode="&#x2080;" 
d="M328 -23q0 182 81 289t207 107t207.5 -107t81.5 -289t-81.5 -288.5t-207.5 -106.5t-207 106.5t-81 288.5zM446 -23q0 -156 56 -231l137 514q-4 2 -23 2q-170 0 -170 -285zM786 -23q0 158 -55 232l-137 -514q4 -2 22 -2q170 0 170 284z" />
    <glyph glyph-name="oneinferior" unicode="&#x2081;" 
d="M381 -385v70q0 20 20 20h185v500l-158 -84q-12 -6 -20 -6q-17 0 -17 16v96q0 12 15 21l196 104q13 8 31 8h47q20 0 20 -20v-635h185q20 0 20 -20v-70q0 -21 -20 -21h-484q-20 0 -20 21z" />
    <glyph glyph-name="twoinferior" unicode="&#x2082;" 
d="M371 -385v61q0 20 12 29l311 270q82 70 82 156q0 57 -33 94t-94 37q-64 0 -101.5 -37.5t-45.5 -95.5q-3 -20 -21 -20h-80q-20 0 -20 20q5 103 78 173.5t190 70.5q114 0 180 -69.5t66 -170.5q0 -75 -28 -128.5t-87 -102.5l-229 -197h354q21 0 21 -20v-70q0 -21 -21 -21
h-514q-20 0 -20 21z" />
    <glyph glyph-name="threeinferior" unicode="&#x2083;" 
d="M518 -39v70q0 20 21 20h41q64 0 99.5 29.5t35.5 89.5q0 43 -33 71.5t-86 28.5q-49 0 -82 -27t-43 -81q-3 -17 -20 -17h-72q-21 0 -21 19q5 92 70 150.5t168 58.5q102 0 167.5 -57.5t65.5 -133.5q0 -113 -92 -172q54 -23 89.5 -71t35.5 -121q0 -104 -77.5 -170t-186.5 -66
q-106 0 -188 67.5t-82 168.5q0 20 20 20h78q17 0 20 -20q20 -125 150 -125q65 0 106 31t41 94q0 59 -39 91t-108 32h-57q-21 0 -21 20z" />
    <glyph glyph-name="fourinferior" unicode="&#x2084;" 
d="M653 -385v125h-307q-20 0 -20 20v58q0 13 8 24l323 504q8 14 23 14h68q20 0 20 -20v-490h76q20 0 20 -20v-70q0 -20 -20 -20h-76v-125q0 -21 -20 -21h-74q-21 0 -21 21zM653 137l-178 -287h178v287z" />
    <glyph glyph-name="fiveinferior" unicode="&#x2085;" 
d="M356 -39l54 383q3 16 20 16h371q20 0 20 -20v-70q0 -20 -20 -20h-293l-31 -195q59 47 150 47q112 0 175.5 -67.5t63.5 -194.5q0 -123 -73.5 -190.5t-184.5 -67.5q-108 0 -183 63t-75 160q0 21 21 21h80q17 0 20 -21q7 -53 44 -82.5t93 -29.5q68 0 104 39t36 106
q0 69 -36 110.5t-102 41.5q-69 0 -127 -58l-4 -4q-2 -4 -8 -4q-8 0 -14 2l-90 19q-11 4 -11 16z" />
    <glyph glyph-name="sixinferior" unicode="&#x2086;" 
d="M389 -57q0 212 76 321t199 109q93 0 156 -53t75 -140q0 -10 -12 -10h-97q-7 0 -10 10q-34 82 -112 82q-67 0 -102.5 -56t-41.5 -179q26 29 68 45t86 16q108 0 178 -68.5t70 -183.5q0 -114 -76 -184t-182 -70q-52 0 -99 20.5t-87.5 61.5t-64.5 113t-24 166zM526 -164
q0 -66 37 -104.5t103 -38.5t102.5 38.5t36.5 104.5q0 64 -37 102.5t-102 38.5t-102.5 -38.5t-37.5 -102.5z" />
    <glyph glyph-name="seveninferior" unicode="&#x2087;" 
d="M379 270v70q0 20 20 20h480q20 0 20 -20v-33q0 -17 -8 -33l-258 -661q-6 -19 -25 -19h-82q-16 0 -16 13q0 2 4 14l244 629h-359q-20 0 -20 20z" />
    <glyph glyph-name="eightinferior" unicode="&#x2088;" 
d="M381 170q0 93 68.5 148t166.5 55t167 -55t69 -148q0 -113 -90 -170q115 -56 115 -188q0 -103 -73.5 -166.5t-187.5 -63.5t-187 63.5t-73 166.5q0 132 115 188q-90 57 -90 170zM475 -188q0 -55 39 -87t102 -32t102.5 32t39.5 87q0 54 -40 88t-102 34t-101.5 -34t-39.5 -88
zM489 160q0 -49 36.5 -82t90.5 -33t90.5 33t36.5 82q0 51 -37 80.5t-90 29.5t-90 -29.5t-37 -80.5z" />
    <glyph glyph-name="nineinferior" unicode="&#x2089;" 
d="M874 12q0 -212 -75.5 -321t-198.5 -109q-93 0 -156 53t-75 140q0 10 12 10h96q7 0 10 -10q34 -82 113 -82q67 0 102 56t41 179q-26 -29 -67.5 -45t-85.5 -16q-108 0 -178 68.5t-70 183.5q0 114 76 184t182 70q52 0 98.5 -20t87 -61.5t64.5 -113.5t24 -166zM737 119
q0 66 -36.5 104.5t-102.5 38.5t-102.5 -38.5t-36.5 -104.5q0 -64 37 -103t102 -39t102 39t37 103z" />
    <glyph glyph-name="Euro" unicode="&#x20ac;" 
d="M98 985h121q49 227 175 348t306 121q210 0 338 -133.5t146 -353.5q0 -21 -21 -21h-127q-17 0 -20 21q-20 163 -102 245t-214 82q-110 0 -191 -76.5t-118 -232.5h406q20 0 20 -20v-119q0 -21 -20 -21h-428q-4 -50 -4 -108q0 -59 4 -109h428q20 0 20 -20v-119
q0 -20 -20 -20h-406q37 -158 117.5 -234t191.5 -76q133 0 214.5 82.5t101.5 245.5q3 20 20 20h127q21 0 21 -20q-18 -220 -146 -353.5t-338 -133.5q-180 0 -306 121t-175 348h-121q-20 0 -20 20v119q0 20 20 20h99q-4 23 -4 109q0 85 4 108h-99q-20 0 -20 21v119q0 20 20 20
z" />
    <glyph glyph-name="uni2117" unicode="&#x2117;" 
d="M616 172q-95 0 -184.5 35.5t-161.5 101t-115.5 167.5t-43.5 224t43.5 224.5t115.5 167.5t161.5 101t184.5 36q75 0 148.5 -22t138 -67t113.5 -107.5t77.5 -148.5t28.5 -184q0 -122 -43.5 -224t-115.5 -167.5t-162 -101t-185 -35.5zM616 262q78 0 150 28t131 80.5t94 138
t35 191.5t-35 191.5t-94 138.5t-131 81t-150 28t-150 -28t-130.5 -81t-93.5 -138.5t-35 -191.5t35 -191.5t93.5 -138t130.5 -80.5t150 -28zM442 412v579q0 15 15 15h196q93 0 146 -47t53 -132t-53 -131.5t-146 -46.5h-129v-237q0 -15 -14 -15h-53q-15 0 -15 15zM524 928
v-201h138q54 0 81 27.5t27 72.5t-27 73t-81 28h-138z" />
    <glyph glyph-name="trademark" unicode="&#x2122;" 
d="M23 1343v70q0 21 20 21h438q21 0 21 -21v-70q0 -20 -21 -20h-162v-635q0 -20 -20 -20h-74q-20 0 -20 20v635h-162q-20 0 -20 20zM1141 1413v-725q0 -20 -21 -20h-73q-21 0 -21 20v582l-119 -312q-6 -12 -16 -12h-62q-10 0 -16 12l-119 312v-582q0 -20 -20 -20h-74
q-20 0 -20 20v725q0 21 20 21h125q18 0 25 -17l110 -307l111 307q7 17 24 17h125q21 0 21 -21z" />
    <glyph glyph-name="Omega" unicode="&#x2126;" 
d="M616 1290q-175 0 -283 -108t-108 -320q0 -189 79 -368.5t220 -309.5q17 -17 17 -41v-123q0 -20 -21 -20h-409q-21 0 -21 20v123q0 21 21 21h254q-86 86 -152 184.5t-113 235t-47 278.5q0 267 157 429.5t406 162.5t406.5 -162.5t157.5 -429.5q0 -378 -312 -698h254
q21 0 21 -21v-123q0 -20 -21 -20h-409q-21 0 -21 20v123q0 24 17 41q141 130 220 309.5t79 368.5q0 212 -108.5 320t-283.5 108z" />
    <glyph glyph-name="onethird" unicode="&#x2153;" 
d="M106 688v70q0 20 21 20h184v500l-157 -84q-12 -6 -21 -6q-16 0 -16 16v96q0 13 14 21l197 104q15 9 30 9h48q20 0 20 -21v-635h184q21 0 21 -20v-70q0 -20 -21 -20h-483q-21 0 -21 20zM846 -39v70q0 20 20 20h41q64 0 99.5 29.5t35.5 89.5q0 43 -32.5 71.5t-85.5 28.5
q-49 0 -82 -27t-43 -81q-3 -17 -21 -17h-71q-21 0 -21 19q5 92 70 150.5t168 58.5q102 0 167.5 -57.5t65.5 -133.5q0 -113 -92 -172q54 -23 89.5 -71t35.5 -121q0 -104 -77.5 -170t-186.5 -66q-106 0 -188.5 67.5t-82.5 168.5q0 20 21 20h78q17 0 20 -20q20 -125 150 -125
q65 0 106 31t41 94q0 59 -39 91t-108 32h-58q-20 0 -20 20zM236 143l802 832q8 8 15 8q8 0 16 -8l51 -51q8 -8 8 -15q0 -6 -8 -14l-803 -832q-8 -8 -14 -8q-8 0 -16 8l-51 52q-9 9 -9 14t9 14z" />
    <glyph glyph-name="twothirds" unicode="&#x2154;" 
d="M236 143l802 832q8 8 15 8q8 0 16 -8l51 -51q8 -8 8 -15q0 -6 -8 -14l-803 -832q-8 -8 -14 -8q-8 0 -16 8l-51 52q-9 9 -9 14t9 14zM43 688v62q0 19 12 28l312 271q82 70 82 155q0 57 -33 94t-94 37q-64 0 -102 -37.5t-46 -95.5q-3 -20 -20 -20h-80q-21 0 -21 20
q5 103 78.5 173.5t190.5 70.5q114 0 179.5 -69t65.5 -171q0 -76 -27.5 -129t-86.5 -102l-230 -197h355q20 0 20 -20v-70q0 -20 -20 -20h-515q-20 0 -20 20zM846 -39v70q0 20 20 20h41q64 0 99.5 29.5t35.5 89.5q0 43 -32.5 71.5t-85.5 28.5q-49 0 -82 -27t-43 -81
q-3 -17 -21 -17h-71q-21 0 -21 19q5 92 70 150.5t168 58.5q102 0 167.5 -57.5t65.5 -133.5q0 -113 -92 -172q54 -23 89.5 -71t35.5 -121q0 -104 -77.5 -170t-186.5 -66q-106 0 -188.5 67.5t-82.5 168.5q0 20 21 20h78q17 0 20 -20q20 -125 150 -125q65 0 106 31t41 94
q0 59 -39 91t-108 32h-58q-20 0 -20 20z" />
    <glyph glyph-name="oneeighth" unicode="&#x215b;" 
d="M106 688v70q0 20 21 20h184v500l-157 -84q-12 -6 -21 -6q-16 0 -16 16v96q0 13 14 21l197 104q15 9 30 9h48q20 0 20 -21v-635h184q21 0 21 -20v-70q0 -20 -21 -20h-483q-21 0 -21 20zM223 143l803 832q8 8 14 8q9 0 17 -8l51 -51q8 -8 8 -15q0 -6 -8 -14l-803 -832
q-8 -8 -14 -8q-9 0 -17 8l-51 52q-8 8 -8 14t8 14zM647 170q0 93 69 148t167 55t166.5 -55t68.5 -148q0 -113 -90 -170q115 -56 115 -188q0 -103 -73 -166.5t-187 -63.5t-187 63.5t-73 166.5q0 133 114 188q-90 57 -90 170zM741 -188q0 -55 39.5 -87t102.5 -32t102 32t39 87
q0 54 -39.5 88t-101.5 34t-102 -34t-40 -88zM756 160q0 -49 36.5 -82t90.5 -33t90.5 33t36.5 82q0 51 -37 80.5t-90 29.5t-90 -29.5t-37 -80.5z" />
    <glyph glyph-name="threeeighths" unicode="&#x215c;" 
d="M647 170q0 93 69 148t167 55t166.5 -55t68.5 -148q0 -113 -90 -170q115 -56 115 -188q0 -103 -73 -166.5t-187 -63.5t-187 63.5t-73 166.5q0 133 114 188q-90 57 -90 170zM741 -188q0 -55 39.5 -87t102.5 -32t102 32t39 87q0 54 -39.5 88t-101.5 34t-102 -34t-40 -88z
M756 160q0 -49 36.5 -82t90.5 -33t90.5 33t36.5 82q0 51 -37 80.5t-90 29.5t-90 -29.5t-37 -80.5zM223 143l803 832q8 8 14 8q9 0 17 -8l51 -51q8 -8 8 -15q0 -6 -8 -14l-803 -832q-8 -8 -14 -8q-9 0 -17 8l-51 52q-8 8 -8 14t8 14zM309 1034v70q0 20 21 20h41
q64 0 99.5 29.5t35.5 89.5q0 43 -33 71.5t-86 28.5q-49 0 -82 -27t-43 -81q-3 -16 -20 -16h-72q-20 0 -20 18q5 92 69.5 150.5t167.5 58.5q102 0 168 -58t66 -133q0 -113 -93 -172q54 -23 89.5 -71t35.5 -121q0 -104 -77.5 -170t-186.5 -66q-106 0 -188 67.5t-82 168.5
q0 20 20 20h78q18 0 21 -20q20 -125 149 -125q65 0 106.5 31t41.5 94q0 59 -39.5 91t-108.5 32h-57q-21 0 -21 20z" />
    <glyph glyph-name="fiveeighths" unicode="&#x215d;" 
d="M647 170q0 93 69 148t167 55t166.5 -55t68.5 -148q0 -113 -90 -170q115 -56 115 -188q0 -103 -73 -166.5t-187 -63.5t-187 63.5t-73 166.5q0 133 114 188q-90 57 -90 170zM741 -188q0 -55 39.5 -87t102.5 -32t102 32t39 87q0 54 -39.5 88t-101.5 34t-102 -34t-40 -88z
M756 160q0 -49 36.5 -82t90.5 -33t90.5 33t36.5 82q0 51 -37 80.5t-90 29.5t-90 -29.5t-37 -80.5zM223 143l803 832q8 8 14 8q9 0 17 -8l51 -51q8 -8 8 -15q0 -6 -8 -14l-803 -832q-8 -8 -14 -8q-9 0 -17 8l-51 52q-8 8 -8 14t8 14zM135 1034l53 383q3 17 21 17h371
q20 0 20 -21v-70q0 -20 -20 -20h-293l-31 -195q28 22 70 35t80 13q112 0 175.5 -68t63.5 -195q0 -123 -73.5 -190.5t-184.5 -67.5q-107 0 -182.5 63.5t-75.5 160.5q0 20 21 20h79q18 0 21 -20q7 -53 44 -83t93 -30q68 0 103.5 39t35.5 106q0 69 -35.5 110.5t-101.5 41.5
q-70 0 -127 -57q-2 -2 -4 -5q-3 -4 -8 -4q-8 0 -14 2l-91 19q-10 3 -10 16z" />
    <glyph glyph-name="seveneighths" unicode="&#x215e;" 
d="M647 170q0 93 69 148t167 55t166.5 -55t68.5 -148q0 -113 -90 -170q115 -56 115 -188q0 -103 -73 -166.5t-187 -63.5t-187 63.5t-73 166.5q0 133 114 188q-90 57 -90 170zM741 -188q0 -55 39.5 -87t102.5 -32t102 32t39 87q0 54 -39.5 88t-101.5 34t-102 -34t-40 -88z
M756 160q0 -49 36.5 -82t90.5 -33t90.5 33t36.5 82q0 51 -37 80.5t-90 29.5t-90 -29.5t-37 -80.5zM141 143l803 832q8 8 14 8q9 0 17 -8l51 -51q8 -8 8 -15q0 -6 -8 -14l-803 -832q-8 -8 -14 -8q-8 0 -16 8l-52 52q-8 8 -8 14t8 14zM133 1343v70q0 21 21 21h479q20 0 20 -21
v-33q0 -16 -8 -32l-258 -662q-6 -18 -25 -18h-81q-17 0 -17 12q0 2 4 14l244 629h-358q-21 0 -21 20z" />
    <glyph glyph-name="partialdiff" unicode="&#x2202;" 
d="M895 928q-52 194 -193 277t-370 83q-17 0 -17 29v102q0 15 29 15q381 0 560 -203.5t179 -609.5q0 -163 -36.5 -287t-103 -200.5t-156 -115t-199.5 -38.5q-102 0 -192.5 38t-157.5 106t-106.5 169.5t-39.5 220.5q0 159 64 282t171.5 188t239.5 65q218 0 328 -121zM260 514
q0 -174 88 -278.5t240 -104.5q154 0 240.5 102.5t86.5 280.5q0 174 -87.5 278.5t-239.5 104.5t-240 -104.5t-88 -278.5z" />
    <glyph glyph-name="Delta" unicode="&#x2206;" 
d="M725 1413l401 -1237q9 -26 9 -53v-103q0 -20 -21 -20h-995q-21 0 -21 20v103q0 30 8 53l402 1237q9 21 27 21h163q18 0 27 -21zM948 164l-332 1063l-331 -1063h663z" />
    <glyph glyph-name="product" unicode="&#x220f;" 
d="M309 1270v-1655q0 -21 -20 -21h-131q-21 0 -21 21v1798q0 21 21 21h917q21 0 21 -21v-1798q0 -21 -21 -21h-131q-20 0 -20 21v1655h-615z" />
    <glyph glyph-name="summation" unicode="&#x2211;" 
d="M115 -385v131q0 19 16 41l461 682q18 24 18 45t-18 45l-461 682q-16 26 -16 41v131q0 21 20 21h973q20 0 20 -21v-123q0 -20 -20 -20h-789l461 -690q21 -37 21 -66q0 -28 -21 -65l-461 -691h822q20 0 20 -20v-123q0 -21 -20 -21h-1006q-20 0 -20 21z" />
    <glyph glyph-name="minus" unicode="&#x2212;" 
d="M197 780h839q21 0 21 -20v-119q0 -20 -21 -20h-839q-21 0 -21 20v119q0 20 21 20z" />
    <glyph glyph-name="radical" unicode="&#x221a;" 
d="M305 659h-147q-21 0 -21 21v111q0 20 21 20h256q22 0 28 -20l211 -582l396 1204q6 21 28 21h135q15 0 15 -11q0 -6 -2 -10l-465 -1393q-9 -20 -27 -20h-160q-20 0 -20 20z" />
    <glyph glyph-name="infinity" unicode="&#x221e;" 
d="M616 561q-59 -118 -125 -174.5t-165 -56.5q-118 0 -196.5 85t-78.5 238q0 154 78.5 239t196.5 85q99 0 164.5 -57t125.5 -175q59 118 125.5 175t165.5 57q118 0 196.5 -85t78.5 -239q0 -153 -78.5 -238t-196.5 -85q-99 0 -165.5 56.5t-125.5 174.5zM1075 653
q0 107 -42 165.5t-126 58.5q-144 0 -235 -224q91 -223 235 -223q84 0 126 58t42 165zM158 653q0 -107 42 -165t126 -58q144 0 235 223q-91 224 -235 224q-84 0 -126 -58.5t-42 -165.5z" />
    <glyph glyph-name="integral" unicode="&#x222b;" 
d="M442 -27l150 1125q23 166 126 261t263 95q99 0 168 -29q10 -4 13 -10.5t3 -23.5v-107q0 -20 -14 -20q-4 0 -16 4q-46 21 -75 28t-75 7q-93 0 -156 -52.5t-79 -167.5l-150 -1124q-26 -191 -114.5 -288t-235.5 -97q-132 0 -203 35q-11 6 -13.5 12t-2.5 23v106q0 21 14 21
q4 0 16 -4q78 -41 164 -41q98 0 149 58t68 189z" />
    <glyph glyph-name="approxequal" unicode="&#x2248;" 
d="M195 500q98 73 233 73q67 0 135.5 -21t130 -42t111.5 -21q44 0 76 11.5t77 40.5q12 4 15 4q10 0 20 -17l62 -102q2 -2 2 -8q0 -14 -19 -27q-99 -74 -233 -74q-84 0 -203 42t-174 42q-45 0 -77.5 -11.5t-76.5 -39.5q-12 -4 -14 -4q-10 0 -20 16l-62 103q-2 2 -2 8
q0 14 19 27zM195 889q99 74 233 74q67 0 135.5 -21t130 -42t111.5 -21q45 0 77 11.5t76 39.5q12 4 15 4q10 0 20 -16l62 -103q2 -2 2 -8q0 -14 -19 -27q-98 -73 -233 -73q-84 0 -203 42t-174 42q-45 0 -77 -11.5t-77 -40.5q-12 -4 -14 -4q-10 0 -20 17l-62 102q-2 2 -2 8
q0 14 19 27z" />
    <glyph glyph-name="notequal" unicode="&#x2260;" 
d="M197 903h493l170 295q7 10 14 10q1 0 13 -4l104 -59q10 -7 10 -15l-4 -12l-123 -215h162q21 0 21 -20v-119q0 -21 -21 -21h-254l-147 -256h401q21 0 21 -20v-119q0 -20 -21 -20h-493l-170 -295q-7 -10 -15 -10l-12 4l-104 59q-11 7 -11 14q0 1 1 3t2 5t2 5l122 215h-161
q-21 0 -21 20v119q0 20 21 20h254l147 256h-401q-21 0 -21 21v119q0 20 21 20z" />
    <glyph glyph-name="lessequal" unicode="&#x2264;" 
d="M197 160h839q21 0 21 -21v-119q0 -20 -21 -20h-839q-21 0 -21 20v119q0 21 21 21zM1032 438v-149q0 -13 -10 -13q-4 0 -10 3l-813 370q-21 9 -21 27v151q0 18 21 27l813 371q4 2 10 2q10 0 10 -13v-149q0 -20 -20 -29l-650 -284l650 -285q20 -9 20 -29z" />
    <glyph glyph-name="greaterequal" unicode="&#x2265;" 
d="M197 160h839q21 0 21 -21v-119q0 -20 -21 -20h-839q-21 0 -21 20v119q0 21 21 21zM201 289v149q0 20 20 29l649 285l-649 284q-20 9 -20 29v149q0 13 10 13q6 0 10 -2l813 -371q21 -9 21 -27v-151q0 -18 -21 -27l-813 -370q-6 -3 -10 -3q-10 0 -10 13z" />
    <glyph glyph-name="lozenge" unicode="&#x25ca;" 
d="M727 1413l393 -676q6 -12 6 -20q0 -9 -6 -21l-393 -676q-9 -20 -29 -20h-161q-20 0 -29 20l-395 676q-7 14 -7 21q0 6 7 20l395 676q9 21 29 21h161q20 0 29 -21zM616 1282l-331 -565l331 -565l332 565z" />
    <glyph glyph-name="apple" unicode="&#xf8ff;" 
d="M1223 1264v-1219q0 -18 -12.5 -31.5t-32.5 -13.5q-9 0 -15 2l-547 158l-546 -158q-6 -2 -15 -2q-20 0 -32.5 13.5t-12.5 31.5v1219q0 36 33 45l553 159l20 5q1 0 21 -5l553 -159q33 -9 33 -45zM571 750v620l-471 -137q12 -190 146 -328t325 -155zM662 1370v-620
q191 17 325 155t146 328zM98 948v-844l473 138v417q-151 12 -275 88.5t-198 200.5zM1135 104v844q-76 -125 -199 -201t-274 -88v-417z" />
    <glyph glyph-name="fi" unicode="&#xfb01;" 
d="M752 877h-349v-857q0 -20 -20 -20h-119q-20 0 -20 20v857h-160q-21 0 -21 20v111q0 20 21 20h160v90q0 146 79 241t226 95q121 0 211 -41q8 -4 11.5 -9t4 -10t0.5 -16v-108q0 -21 -14 -21q-2 0 -14 4q-70 31 -104 40.5t-83 9.5q-158 0 -158 -185v-90h349q20 0 20 -20
v-111q0 -20 -20 -20zM961 20v988q0 20 20 20h119q20 0 20 -20v-988q0 -20 -20 -20h-119q-20 0 -20 20zM918 1217v176q0 20 20 20h176q21 0 21 -20v-176q0 -21 -21 -21h-176q-20 0 -20 21z" />
    <glyph glyph-name="fl" unicode="&#xfb02;" 
d="M961 20v1393q0 21 20 21h119q20 0 20 -21v-1393q0 -20 -20 -20h-119q-20 0 -20 20zM752 877h-349v-857q0 -20 -20 -20h-119q-20 0 -20 20v857h-160q-21 0 -21 20v111q0 20 21 20h160v90q0 146 79 241t226 95q121 0 211 -41q8 -4 11.5 -9t4 -10t0.5 -16v-108
q0 -21 -14 -21q-2 0 -14 4q-70 31 -104 40.5t-83 9.5q-158 0 -158 -185v-90h349q20 0 20 -20v-111q0 -20 -20 -20z" />
    <glyph glyph-name="sterling.tosn" 
d="M391 403q0 23 -2 29h-141q-21 0 -21 21v106q0 21 21 21h88q-27 64 -27 120q0 163 100.5 256t258.5 93q165 0 263 -85.5t109 -234.5q0 -20 -20 -20h-119q-17 0 -20 20q-14 78 -66.5 123t-146.5 45q-95 0 -145 -53.5t-50 -143.5q0 -68 27 -120h350q20 0 20 -21v-106
q0 -21 -20 -21h-299q4 -7 4 -37q0 -46 -7.5 -80.5t-27 -64.5t-36 -48t-50.5 -50h598q21 0 21 -21v-111q0 -20 -21 -20h-756q-20 0 -20 20v97q0 25 16 41q68 67 93.5 119.5t25.5 125.5z" />
    <glyph glyph-name="dollar.tosn" 
d="M1059 301q0 -137 -96 -218t-250 -99v-168q0 -21 -21 -21h-119q-20 0 -20 21v170q-154 21 -255 111.5t-101 215.5q0 21 20 21h131q18 0 21 -21q10 -68 58.5 -113t125.5 -63v324q-175 31 -253.5 99t-78.5 196q0 124 91.5 197t240.5 91v164q0 21 20 21h119q21 0 21 -21v-166
q135 -20 217 -95.5t94 -192.5q0 -21 -20 -21h-115q-6 0 -9.5 2t-5.5 5t-4 9q-1 3 -2 5q-33 103 -155 133v-305q61 -13 106.5 -26.5t93 -36.5t78 -51.5t49.5 -71t19 -95.5zM891 281q0 58 -42 91.5t-136 57.5v-295q178 24 178 146zM381 760q0 -59 39.5 -91.5t132.5 -56.5v281
q-172 -24 -172 -133z" />
    <glyph glyph-name="yen.tosn" 
d="M262 625h184l-251 383l-5 10q0 10 17 10h162q13 0 20 -13q1 -2 2 -3l225 -369l226 369q8 13 14 15q3 1 8 1h162q16 0 16 -10q0 -2 -4 -10l-252 -383h185q20 0 20 -21v-110q0 -21 -20 -21h-275v-145h234q20 0 20 -21v-110q0 -21 -20 -21h-234v-156q0 -20 -20 -20h-119
q-20 0 -20 20v156h-234q-20 0 -20 21v110q0 21 20 21h234v145h-275q-20 0 -20 21v110q0 21 20 21z" />
    <glyph glyph-name="cent.tosn" 
d="M539 -182v168q-191 29 -302.5 173t-111.5 355q0 208 112 352.5t302 173.5v170q0 21 20 21h131q21 0 21 -21v-168q145 -23 239 -109t129 -226q2 -8 2 -21q0 -12 -14 -12h-125q-22 0 -29 18q-47 158 -202 195v-746q155 37 202 195q7 18 29 18h125q14 0 14 -12t-2 -20
q-36 -142 -129.5 -229t-238.5 -107v-168q0 -21 -21 -21h-131q-20 0 -20 21zM293 514q0 -145 67 -244t179 -129v744q-112 -30 -179 -128.5t-67 -242.5z" />
    <glyph glyph-name="multiply.tosn" 
d="M971 756l-242 -240l242 -240q8 -8 8 -14q0 -8 -8 -16l-84 -84q-8 -8 -17 -8q-6 0 -14 8l-240 241l-239 -241q-8 -8 -15 -8q-8 0 -16 8l-84 84q-8 8 -8 16q0 6 8 14l242 240l-242 240q-8 8 -8 14q0 8 8 16l84 84q9 9 16 9q6 0 15 -9l239 -241l240 241q9 9 14 9q8 0 17 -9
l84 -84q8 -8 8 -16q0 -6 -8 -14z" />
    <glyph glyph-name="plus.tosn" 
d="M696 936v-340h340q21 0 21 -21v-118q0 -21 -21 -21h-340v-340q0 -20 -20 -20h-119q-20 0 -20 20v340h-340q-21 0 -21 21v118q0 21 21 21h340v340q0 20 20 20h119q20 0 20 -20z" />
    <glyph glyph-name="minus.tosn" 
d="M197 596h839q21 0 21 -21v-118q0 -21 -21 -21h-839q-21 0 -21 21v118q0 21 21 21z" />
    <glyph glyph-name="divide.tosn" 
d="M512 250h209q20 0 20 -21v-209q0 -20 -20 -20h-209q-20 0 -20 20v209q0 21 20 21zM512 967h209q20 0 20 -21v-209q0 -20 -20 -20h-209q-20 0 -20 20v209q0 21 20 21zM197 563h839q21 0 21 -20v-119q0 -21 -21 -21h-839q-21 0 -21 21v119q0 20 21 20z" />
    <glyph glyph-name="Euro.tosn" 
d="M147 453h93q-2 23 -2 61t2 61h-93q-20 0 -20 21v111q0 20 20 20h121q48 153 164 237.5t260 84.5q170 0 285.5 -96.5t140.5 -252.5q0 -20 -20 -20h-121q-18 0 -21 20q-18 88 -88 142.5t-176 54.5q-89 0 -159.5 -43t-104.5 -127h272q21 0 21 -20v-111q0 -21 -21 -21h-301
q-2 -23 -2 -61t2 -61h301q21 0 21 -21v-110q0 -21 -21 -21h-272q34 -84 104.5 -127t159.5 -43q106 0 176 54.5t88 142.5q3 20 21 20h121q20 0 20 -20q-25 -156 -140.5 -252t-285.5 -96q-143 0 -259.5 84t-164.5 237h-121q-20 0 -20 21v110q0 21 20 21z" />
    <glyph glyph-name="equal.tosn" 
d="M197 784h839q21 0 21 -20v-119q0 -20 -21 -20h-839q-21 0 -21 20v119q0 20 21 20zM197 369h839q21 0 21 -21v-119q0 -20 -21 -20h-839q-21 0 -21 20v119q0 21 21 21z" />
    <glyph glyph-name="zero.tosn" 
d="M94 514q0 156 70.5 279t189.5 189.5t262 66.5t262 -66.5t190 -189.5t71 -279t-71 -279t-190 -189t-262 -66t-262 66t-189.5 189t-70.5 279zM262 514q0 -103 39.5 -186.5t112.5 -134.5l280 698q-38 6 -78 6q-156 0 -255 -108t-99 -275zM971 514q0 104 -40 187.5
t-112 134.5l-280 -699q37 -6 77 -6q156 0 255.5 108t99.5 275z" />
    <glyph glyph-name="one.tosn" 
d="M229 20v111q0 21 21 21h321v657l-284 -152q-12 -6 -23 -6q-14 0 -14 19v133q0 18 22 31l338 184q17 10 31 10h70q20 0 20 -20v-856h322q20 0 20 -21v-111q0 -20 -20 -20h-803q-21 0 -21 20z" />
    <glyph glyph-name="two.tosn" 
d="M244 20v86q0 29 22 48l436 346q66 52 96.5 100t30.5 117q0 86 -54.5 133t-143.5 47t-146 -57.5t-63 -137.5q-1 -18 -7 -24t-20 -6h-108q-25 0 -25 30q3 105 56.5 185.5t136 121t176.5 40.5q156 0 257 -91t101 -223q0 -112 -44.5 -188.5t-123.5 -140.5l-321 -254h497
q21 0 21 -21v-111q0 -20 -21 -20h-733q-20 0 -20 20z" />
    <glyph glyph-name="three.tosn" 
d="M469 371v110q0 21 20 21h97q109 0 172 51.5t63 157.5q0 88 -61.5 137t-157.5 49t-162 -53.5t-73 -149.5q-1 -16 -6.5 -19t-18.5 -3h-106q-25 0 -25 30q3 105 57.5 184.5t143.5 121t198 41.5q165 0 268 -90t103 -230q0 -207 -174 -285q107 -40 165 -119.5t58 -222.5
q0 -170 -118 -277.5t-300 -107.5q-116 0 -213 45.5t-157.5 134t-65.5 205.5q0 31 25 31h108q13 0 19.5 -4t7.5 -20q12 -116 85 -178t191 -62q121 0 189.5 59.5t68.5 177.5q0 114 -70 179t-196 65h-115q-20 6 -20 21z" />
    <glyph glyph-name="four.tosn" 
d="M713 -262v262h-561q-21 0 -21 20v60q0 25 16 47l601 885q10 16 26 16h78q20 0 20 -20v-856h191q20 0 20 -21v-111q0 -20 -20 -20h-191v-262q0 -21 -22 -21h-117q-20 0 -20 21zM713 690l-369 -538h369v538z" />
    <glyph glyph-name="five.tosn" 
d="M209 322l80 686q3 20 20 20h666q20 0 20 -20v-111q0 -20 -20 -20h-551l-43 -379q46 46 124.5 72t147.5 26q180 0 294 -110t114 -316q0 -203 -118 -328t-310 -125q-117 0 -215.5 46.5t-160 134.5t-64.5 200q0 31 24 31h113q12 0 16.5 -6t9.5 -25q32 -229 277 -229
q126 0 197 80t71 217q0 134 -76 206t-192 72q-153 0 -256 -125q-15 -18 -35 -18h-113q-20 0 -20 21z" />
    <glyph glyph-name="six.tosn" 
d="M190 578q0 355 125.5 544t346.5 189q155 0 264.5 -94t126.5 -252q0 -21 -23 -21h-108q-17 0 -23 21q-51 194 -248 194q-120 0 -196.5 -100.5t-92.5 -317.5q128 119 316 119q176 0 292.5 -117t116.5 -325q0 -134 -60 -235t-158.5 -152t-219.5 -51q-75 0 -140.5 19
t-124.5 63.5t-101.5 112t-67.5 170.5t-25 233zM371 418q0 -128 77 -207.5t197 -79.5t197.5 79.5t77.5 207.5t-78 209.5t-197 81.5t-196.5 -81.5t-77.5 -209.5z" />
    <glyph glyph-name="seven.tosn" 
d="M193 897v111q0 20 20 20h819q21 0 21 -20v-70q0 -10 -11 -43l-446 -1163q-3 -15 -23 -15h-118q-21 0 -21 17q0 8 2 10l436 1133h-659q-20 0 -20 20z" />
    <glyph glyph-name="eight.tosn" 
d="M244 963q0 108 53 189t136 120t183 39q155 0 264 -93.5t109 -254.5q0 -88 -41.5 -159t-111.5 -116q87 -47 140.5 -127.5t53.5 -195.5q0 -175 -119 -280t-295 -105t-294.5 105t-118.5 280q0 115 53.5 195.5t140.5 127.5q-70 45 -111.5 116t-41.5 159zM371 365
q0 -111 69 -172.5t176 -61.5t176.5 61.5t69.5 172.5q0 109 -69.5 171t-176.5 62t-176 -62t-69 -171zM403 954q0 -99 61 -151.5t152 -52.5t152 52.5t61 151.5t-63.5 152t-149.5 53t-149.5 -53t-63.5 -152z" />
    <glyph glyph-name="nine.tosn" 
d="M1057 451q0 -355 -125.5 -544.5t-345.5 -189.5q-155 0 -264.5 94t-126.5 252q0 21 22 21h109q16 0 22 -21q51 -194 248 -194q120 0 196.5 100.5t92.5 317.5q-128 -119 -316 -119q-175 0 -292 117t-117 325q0 201 126 320t312 119q75 0 140.5 -19t124.5 -63.5t101.5 -112
t67.5 -170.5t25 -233zM877 610q0 128 -77.5 207.5t-197.5 79.5t-197 -79.5t-77 -207.5t77.5 -209.5t196.5 -81.5t197 81.5t78 209.5z" />
    <glyph glyph-name="ampersand.alt" 
d="M797 856v193q0 20 20 20h127q21 0 21 -20v-193h192q23 0 23 -22v-115q0 -16 -23 -23h-192v-245q0 -213 -116.5 -342t-307.5 -129q-197 0 -316 120t-119 306q0 79 18.5 142.5t53 109t73.5 77t91 58.5q-86 52 -132 125t-46 190q0 155 109.5 250.5t287.5 95.5h111
q20 0 20 -20v-119q0 -21 -20 -21h-111q-109 0 -173 -52.5t-64 -154.5q0 -117 73 -174t203 -57h197zM279 410q0 -132 71 -201.5t191 -69.5q121 0 188.5 82t67.5 230v245h-230q-122 0 -205 -79t-83 -207z" />
    <glyph glyph-name="braceleft.ss03" 
d="M610 549v-150q0 -138 25 -186.5t113 -48.5h141q20 0 20 -21v-123q0 -20 -20 -20h-141q-160 0 -235 94t-75 305v117q0 119 -108 119h-90q-21 0 -21 20v123q0 21 21 21h90q108 0 108 119v116q0 211 75 305.5t235 94.5h141q20 0 20 -21v-123q0 -20 -20 -20h-141
q-88 0 -113 -48.5t-25 -187.5v-149q0 -65 -24 -107t-92 -61q68 -19 92 -61t24 -107z" />
    <glyph glyph-name="braceright.ss03" 
d="M518 399v150q0 65 24.5 107t92.5 61q-68 19 -92.5 61t-24.5 107v149q0 139 -24.5 187.5t-112.5 48.5h-141q-21 0 -21 20v123q0 21 21 21h141q160 0 234.5 -94.5t74.5 -305.5v-116q0 -119 109 -119h90q20 0 20 -21v-123q0 -20 -20 -20h-90q-109 0 -109 -119v-117
q0 -211 -74.5 -305t-234.5 -94h-141q-21 0 -21 20v123q0 21 21 21h141q88 0 112.5 48t24.5 187z" />
    <glyph glyph-name="bracketleft.ss03" 
d="M350 20v1393q0 21 21 21h592q20 0 20 -21v-123q0 -20 -20 -20h-441v-1106h441q20 0 20 -21v-123q0 -20 -20 -20h-592q-21 0 -21 20z" />
    <glyph glyph-name="bracketright.ss03" 
d="M883 1413v-1393q0 -20 -21 -20h-592q-20 0 -20 20v123q0 21 20 21h441v1106h-441q-20 0 -20 20v123q0 21 20 21h592q21 0 21 -21z" />
    <glyph glyph-name="parenleft.ss03" 
d="M535 743v-49q0 -74 6 -129t23.5 -103.5t37.5 -83.5t60.5 -76t79.5 -73.5t106 -83.5q8 -5 8 -14q0 -5 -6 -14l-84 -115q-5 -8 -14 -8q-6 0 -15 6q-179 120 -277 263.5t-98 334.5v242q0 189 98 332.5t277 263.5q9 6 15 6q9 0 14 -8l84 -115q6 -9 6 -14q0 -10 -8 -15
q-80 -61 -124.5 -99.5t-86.5 -87t-61 -97t-30 -112.5t-11 -151z" />
    <glyph glyph-name="parenright.ss03" 
d="M688 694v49q0 87 -11 151t-30 112.5t-61 97t-86.5 87t-124.5 99.5q-8 5 -8 15q0 5 6 14l84 115q5 8 14 8q5 0 14 -6q179 -120 277 -263.5t98 -332.5v-242q0 -191 -98 -334.5t-277 -263.5q-9 -6 -14 -6q-9 0 -14 8l-84 115q-6 9 -6 14q0 9 8 14q67 51 106 83.5t79.5 73.5
t60.5 76t37.5 83.5t23.5 103.5t6 129z" />
    <glyph glyph-name="braceleft.case" 
d="M684 551v-352q0 -139 24.5 -187.5t112.5 -48.5h142q20 0 20 -20v-123q0 -21 -20 -21h-142q-160 0 -234.5 94.5t-74.5 305.5v319q0 119 -109 119h-90q-20 0 -20 20v123q0 21 20 21h90q109 0 109 119v319q0 211 74.5 305t234.5 94h142q20 0 20 -20v-123q0 -20 -20 -20h-142
q-88 0 -112.5 -48.5t-24.5 -187.5v-352q0 -65 -24.5 -107t-92.5 -61q68 -19 92.5 -61t24.5 -107z" />
    <glyph glyph-name="braceright.case" 
d="M549 199v352q0 65 24.5 107t92.5 61q-68 19 -92.5 61t-24.5 107v352q0 139 -24.5 187.5t-112.5 48.5h-142q-20 0 -20 20v123q0 20 20 20h142q160 0 234.5 -94t74.5 -305v-319q0 -119 108 -119h91q20 0 20 -21v-123q0 -20 -20 -20h-91q-108 0 -108 -119v-319
q0 -211 -74.5 -305.5t-234.5 -94.5h-142q-20 0 -20 21v123q0 20 20 20h142q88 0 112.5 48.5t24.5 187.5z" />
    <glyph glyph-name="bracketleft.case" 
d="M350 -180v1798q0 20 21 20h592q20 0 20 -20v-123q0 -20 -20 -20h-441v-1512h441q20 0 20 -20v-123q0 -21 -20 -21h-592q-21 0 -21 21z" />
    <glyph glyph-name="bracketright.case" 
d="M883 1618v-1798q0 -21 -21 -21h-592q-20 0 -20 21v123q0 20 20 20h441v1512h-441q-20 0 -20 20v123q0 20 20 20h592q21 0 21 -20z" />
    <glyph glyph-name="parenleft.case" 
d="M582 860v-280q0 -92 5.5 -158.5t23 -125.5t38 -100t62.5 -90t83 -88t113 -100q8 -8 8 -14t-6 -15l-80 -96q-8 -8 -14 -8q-5 0 -14 6q-154 129 -234.5 227.5t-118.5 215.5t-38 282v408q0 165 38 282t118.5 215.5t234.5 227.5q9 6 14 6q6 0 14 -8l80 -97q6 -9 6 -14
q0 -6 -8 -14q-72 -61 -113 -100t-83 -88t-62.5 -90t-38 -100t-23 -125.5t-5.5 -158.5z" />
    <glyph glyph-name="parenright.case" 
d="M662 580v280q0 92 -5.5 158.5t-23 125.5t-38 100t-63 90.5t-83.5 88t-113 99.5q-8 8 -8 14q0 5 6 14l80 97q8 8 14 8q5 0 14 -6q116 -97 186.5 -171.5t119 -159.5t67.5 -177t19 -217v-408q0 -125 -19 -217t-67.5 -177t-119 -159.5t-186.5 -171.5q-9 -6 -14 -6q-6 0 -14 8
l-80 96q-6 9 -6 15t8 14q72 61 113 99.5t83.5 88t63 90.5t38 100t23 125.5t5.5 158.5z" />
    <glyph glyph-name="bullet.case" 
d="M356 717q0 106 76.5 183t183.5 77q106 0 183.5 -77t77.5 -183q0 -107 -77.5 -183.5t-183.5 -76.5q-107 0 -183.5 76.5t-76.5 183.5z" />
    <glyph glyph-name="exclamdown.case" 
d="M682 0h-131q-21 0 -21 20v1014q0 21 21 21h131q20 0 20 -21v-1014q0 -20 -20 -20zM717 1192h-201q-20 0 -20 20v201q0 21 20 21h201q20 0 20 -21v-201q0 -20 -20 -20z" />
    <glyph glyph-name="questiondown.case" 
d="M1061 385q-5 -170 -129.5 -287.5t-325.5 -117.5q-192 0 -307 104t-115 276q0 60 19 111.5t48.5 89.5t66 72t73 66t66 64.5t48.5 74t19 88.5v108q0 21 21 21h131q20 0 20 -21v-94q0 -66 -19 -123t-48.5 -97.5t-66 -77t-73 -68t-66 -63t-48.5 -70t-19 -81.5
q0 -98 68.5 -157.5t181.5 -59.5t191.5 62.5t95.5 179.5q3 21 20 21h127q21 0 21 -21zM711 1192h-201q-21 0 -21 20v201q0 21 21 21h201q20 0 20 -21v-201q0 -20 -20 -20z" />
    <glyph glyph-name="at.case" 
d="M1167 1120v-817q0 -18 -18 -18h-107q-18 0 -18 18v80q-91 -115 -254 -115q-167 0 -272 124t-105 325t105 324.5t272 123.5q172 0 254 -110v75q0 129 -82 209t-258 80q-146 0 -254 -94t-161.5 -251.5t-53.5 -356.5q0 -332 139 -513t377 -181q105 0 186.5 21t161.5 69
q2 2 11 2q7 0 14 -11l49 -96q2 -2 2 -8q0 -9 -10 -16q-100 -55 -196.5 -78t-217.5 -23q-149 0 -269.5 49.5t-210.5 149t-139 261t-49 374.5q0 243 74 433t216 299.5t331 109.5q224 0 353.5 -120.5t129.5 -318.5zM1036 717q0 149 -61 229t-182 80q-119 0 -183.5 -85.5
t-64.5 -223.5q0 -137 64.5 -223t183.5 -86q121 0 182 80t61 229z" />
    <glyph glyph-name="less.tosn" 
d="M1032 403v-149q0 -12 -10 -12q-6 0 -10 2l-813 370q-21 9 -21 27v152q0 17 21 26l813 371q4 2 10 2q10 0 10 -12v-150q0 -20 -20 -29l-650 -284l650 -285q20 -9 20 -29z" />
    <glyph glyph-name="greater.tosn" 
d="M201 254v149q0 20 20 29l649 285l-649 284q-20 9 -20 29v150q0 12 10 12q6 0 10 -2l813 -371q21 -9 21 -26v-152q0 -18 -21 -27l-813 -370q-4 -2 -10 -2q-10 0 -10 12z" />
    <glyph glyph-name="guilsinglleft.case" 
d="M838 416v-172q0 -15 -13 -15q-5 0 -12 7l-440 387q-21 18 -21 36v115q0 19 21 37l440 387q6 6 12 6q13 0 13 -14v-172q0 -21 -15 -33l-307 -268l307 -268q15 -12 15 -33z" />
    <glyph glyph-name="guilsinglright.case" 
d="M395 244v172q0 21 15 33l307 268l-307 268q-15 12 -15 33v172q0 14 13 14q6 0 12 -6l440 -387q21 -18 21 -37v-115q0 -18 -21 -36l-440 -387q-7 -7 -12 -7q-13 0 -13 15z" />
    <glyph glyph-name="guillemotleft.case" 
d="M629 416v-172q0 -15 -13 -15q-5 0 -12 7l-440 387q-21 18 -21 36v115q0 19 21 37l440 387q6 6 12 6q13 0 13 -14v-172q0 -21 -15 -33l-307 -268l307 -268q15 -12 15 -33zM1059 416v-172q0 -15 -12 -15q-6 0 -13 7l-440 387q-21 18 -21 36v115q0 19 21 37l440 387
q6 6 13 6q12 0 12 -14v-172q0 -21 -15 -33l-307 -268l307 -268q15 -12 15 -33z" />
    <glyph glyph-name="guillemotright.case" 
d="M604 244v172q0 22 14 33l308 268l-308 268q-14 11 -14 33v172q0 14 12 14q7 0 13 -6l440 -387q21 -18 21 -37v-115q0 -18 -21 -36l-440 -387q-7 -7 -13 -7q-12 0 -12 15zM174 244v172q0 22 14 33l308 268l-308 268q-14 11 -14 33v172q0 14 12 14q7 0 13 -6l440 -387
q20 -17 20 -37v-115q0 -19 -20 -36l-440 -387q-7 -7 -13 -7q-12 0 -12 15z" />
    <glyph glyph-name="a.alt" 
d="M1081 1008v-988q0 -20 -20 -20h-119q-20 0 -20 20v97q-56 -66 -144 -101.5t-198 -35.5q-197 0 -327 148t-130 386t130 386.5t327 148.5q110 0 198 -36t144 -102v97q0 20 20 20h119q20 0 20 -20zM938 514q0 170 -92 276.5t-236 106.5q-148 0 -233.5 -109t-85.5 -274
t85.5 -274t233.5 -109q144 0 236 106.5t92 276.5z" />
    <glyph glyph-name="aacute.alt" 
d="M1081 1008v-988q0 -20 -20 -20h-119q-20 0 -20 20v97q-56 -66 -144 -101.5t-198 -35.5q-197 0 -327 148t-130 386t130 386.5t327 148.5q110 0 198 -36t144 -102v97q0 20 20 20h119q20 0 20 -20zM938 514q0 170 -92 276.5t-236 106.5q-148 0 -233.5 -109t-85.5 -274
t85.5 -274t233.5 -109q144 0 236 106.5t92 276.5zM446 1155l136 258q12 21 30 21h207q12 0 12 -11q0 -2 -4 -10l-202 -260q-13 -18 -37 -18h-131q-13 0 -13 12q0 6 2 8z" />
    <glyph glyph-name="agrave.alt" 
d="M1081 1008v-988q0 -20 -20 -20h-119q-20 0 -20 20v97q-56 -66 -144 -101.5t-198 -35.5q-197 0 -327 148t-130 386t130 386.5t327 148.5q110 0 198 -36t144 -102v97q0 20 20 20h119q20 0 20 -20zM938 514q0 170 -92 276.5t-236 106.5q-148 0 -233.5 -109t-85.5 -274
t85.5 -274t233.5 -109q144 0 236 106.5t92 276.5zM600 1413l135 -258q2 -2 2 -8q0 -12 -12 -12h-131q-22 0 -37 18l-203 260q-4 8 -4 10q0 11 12 11h207q19 0 31 -21z" />
    <glyph glyph-name="acircumflex.alt" 
d="M1081 1008v-988q0 -20 -20 -20h-119q-20 0 -20 20v97q-56 -66 -144 -101.5t-198 -35.5q-197 0 -327 148t-130 386t130 386.5t327 148.5q110 0 198 -36t144 -102v97q0 20 20 20h119q20 0 20 -20zM938 514q0 170 -92 276.5t-236 106.5q-148 0 -233.5 -109t-85.5 -274
t85.5 -274t233.5 -109q144 0 236 106.5t92 276.5zM692 1417l207 -262l2 -2q0 -1 1 -4t1 -4q0 -10 -14 -10h-127q-19 0 -37 18l-121 123l-121 -123q-18 -18 -37 -18h-127q-14 0 -14 10q0 6 2 8q0 2 2 2l207 262q17 17 31 17h115q13 0 30 -17z" />
    <glyph glyph-name="adieresis.alt" 
d="M1081 1008v-988q0 -20 -20 -20h-119q-20 0 -20 20v97q-56 -66 -144 -101.5t-198 -35.5q-197 0 -327 148t-130 386t130 386.5t327 148.5q110 0 198 -36t144 -102v97q0 20 20 20h119q20 0 20 -20zM938 514q0 170 -92 276.5t-236 106.5q-148 0 -233.5 -109t-85.5 -274
t85.5 -274t233.5 -109q144 0 236 106.5t92 276.5zM340 1241v172q0 21 20 21h172q21 0 21 -21v-172q0 -20 -21 -20h-172q-20 0 -20 20zM680 1241v172q0 21 20 21h172q21 0 21 -21v-172q0 -20 -21 -20h-172q-20 0 -20 20z" />
    <glyph glyph-name="atilde.alt" 
d="M1081 1008v-988q0 -20 -20 -20h-119q-20 0 -20 20v97q-56 -66 -144 -101.5t-198 -35.5q-197 0 -327 148t-130 386t130 386.5t327 148.5q110 0 198 -36t144 -102v97q0 20 20 20h119q20 0 20 -20zM938 514q0 170 -92 276.5t-236 106.5q-148 0 -233.5 -109t-85.5 -274
t85.5 -274t233.5 -109q144 0 236 106.5t92 276.5zM270 1356q47 36 104 57t107 21q44 0 76.5 -8.5t51.5 -21t36 -25t40.5 -21t53.5 -8.5q28 0 54.5 11.5t70.5 39.5q12 4 15 4q10 0 20 -16l57 -86q5 -10 5 -13q0 -7 -11 -18q-47 -36 -104 -57t-107 -21q-44 0 -76.5 8.5
t-51.5 21t-36 25t-40.5 21t-53.5 8.5q-28 0 -54.5 -11.5t-70.5 -39.5q-12 -4 -14 -4q-10 0 -20 16l-58 86q-4 8 -4 12q0 9 10 19z" />
    <glyph glyph-name="aring.alt" 
d="M1081 1008v-988q0 -20 -20 -20h-119q-20 0 -20 20v97q-56 -66 -144 -101.5t-198 -35.5q-197 0 -327 148t-130 386t130 386.5t327 148.5q110 0 198 -36t144 -102v97q0 20 20 20h119q20 0 20 -20zM938 514q0 170 -92 276.5t-236 106.5q-148 0 -233.5 -109t-85.5 -274
t85.5 -274t233.5 -109q144 0 236 106.5t92 276.5zM418 1303q0 75 50 123.5t128 48.5t128 -48.5t50 -123.5t-50 -124t-128 -49t-128 49t-50 124zM516 1303q0 -38 22 -60t58 -22t58 22t22 60t-22 59.5t-58 21.5t-58 -21.5t-22 -59.5z" />
    <glyph glyph-name="amacron.alt" 
d="M1081 1008v-988q0 -20 -20 -20h-119q-20 0 -20 20v97q-56 -66 -144 -101.5t-198 -35.5q-197 0 -327 148t-130 386t130 386.5t327 148.5q110 0 198 -36t144 -102v97q0 20 20 20h119q20 0 20 -20zM938 514q0 170 -92 276.5t-236 106.5q-148 0 -233.5 -109t-85.5 -274
t85.5 -274t233.5 -109q144 0 236 106.5t92 276.5zM371 1241v102q0 21 20 21h397q21 0 21 -21v-102q0 -20 -21 -20h-397q-20 0 -20 20z" />
    <glyph glyph-name="abreve.alt" 
d="M1081 1008v-988q0 -20 -20 -20h-119q-20 0 -20 20v97q-56 -66 -144 -101.5t-198 -35.5q-197 0 -327 148t-130 386t130 386.5t327 148.5q110 0 198 -36t144 -102v97q0 20 20 20h119q20 0 20 -20zM938 514q0 170 -92 276.5t-236 106.5q-148 0 -233.5 -109t-85.5 -274
t85.5 -274t233.5 -109q144 0 236 106.5t92 276.5zM358 1403h99q20 0 20 -21q0 -51 34.5 -78.5t96.5 -27.5t96.5 27.5t34.5 78.5q0 21 21 21h98q21 0 21 -21q0 -114 -73.5 -177.5t-197.5 -63.5q-123 0 -196.5 63.5t-73.5 177.5q0 21 20 21z" />
    <glyph glyph-name="aogonek.alt" 
d="M1081 1008v-988q0 -17 -14 -20q-62 -18 -99.5 -55.5t-37.5 -87.5q0 -49 35.5 -77t93.5 -28h39q20 0 20 -20v-70q0 -20 -20 -20h-74q-109 0 -176.5 47t-67.5 139q0 70 41.5 121.5t100.5 73.5v94q-56 -66 -144 -101.5t-198 -35.5q-197 0 -327 148t-130 386t130 386.5
t327 148.5q110 0 198 -36t144 -102v97q0 20 20 20h119q20 0 20 -20zM938 514q0 170 -92 276.5t-236 106.5q-148 0 -233.5 -109t-85.5 -274t85.5 -274t233.5 -109q144 0 236 106.5t92 276.5z" />
    <glyph glyph-name="aringacute.alt" 
d="M1081 1008v-988q0 -20 -20 -20h-119q-20 0 -20 20v97q-56 -66 -144 -101.5t-198 -35.5q-197 0 -327 148t-130 386t130 386.5t327 148.5q110 0 198 -36t144 -102v97q0 20 20 20h119q20 0 20 -20zM938 514q0 170 -92 276.5t-236 106.5q-148 0 -233.5 -109t-85.5 -274
t85.5 -274t233.5 -109q144 0 236 106.5t92 276.5zM506 1561l135 258q11 20 31 20h207q12 0 12 -10q0 -2 -4 -10l-203 -260q-14 -19 -37 -19h-131q-12 0 -12 12q0 7 2 9zM418 1303q0 75 50 123.5t128 48.5t128 -48.5t50 -123.5t-50 -124t-128 -49t-128 49t-50 124zM516 1303
q0 -38 22 -60t58 -22t58 22t22 60t-22 59.5t-58 21.5t-58 -21.5t-22 -59.5z" />
    <glyph glyph-name="g.alt" 
d="M641 -426q-178 0 -300 89t-134 245q0 20 20 20h119q21 0 21 -20q24 -94 88 -138t186 -44q146 0 209 84.5t63 246.5v74q-73 -65 -144 -96t-171 -31q-197 0 -324 143.5t-127 378.5q0 237 124.5 380t326.5 143q191 0 315 -134v93q0 20 21 20h119q20 0 20 -20v-947
q0 -224 -108.5 -355.5t-323.5 -131.5zM930 526q0 169 -80.5 270t-224.5 101q-149 0 -229.5 -100.5t-80.5 -270.5t80.5 -270t229.5 -100q144 0 224.5 100.5t80.5 269.5z" />
    <glyph glyph-name="gcircumflex.alt" 
d="M641 -426q-178 0 -300 89t-134 245q0 20 20 20h119q21 0 21 -20q24 -94 88 -138t186 -44q146 0 209 84.5t63 246.5v74q-73 -65 -144 -96t-171 -31q-197 0 -324 143.5t-127 378.5q0 237 124.5 380t326.5 143q191 0 315 -134v93q0 20 21 20h119q20 0 20 -20v-947
q0 -224 -108.5 -355.5t-323.5 -131.5zM930 526q0 169 -80.5 270t-224.5 101q-149 0 -229.5 -100.5t-80.5 -270.5t80.5 -270t229.5 -100q144 0 224.5 100.5t80.5 269.5zM725 1417l207 -262l2 -2q0 -1 1 -4t1 -4q0 -10 -14 -10h-127q-19 0 -37 18l-121 123l-121 -123
q-18 -18 -37 -18h-127q-14 0 -14 10q0 6 2 8q0 2 2 2l207 262q17 17 31 17h114q14 0 31 -17z" />
    <glyph glyph-name="gbreve.alt" 
d="M641 -426q-178 0 -300 89t-134 245q0 20 20 20h119q21 0 21 -20q24 -94 88 -138t186 -44q146 0 209 84.5t63 246.5v74q-73 -65 -144 -96t-171 -31q-197 0 -324 143.5t-127 378.5q0 237 124.5 380t326.5 143q191 0 315 -134v93q0 20 21 20h119q20 0 20 -20v-947
q0 -224 -108.5 -355.5t-323.5 -131.5zM930 526q0 169 -80.5 270t-224.5 101q-149 0 -229.5 -100.5t-80.5 -270.5t80.5 -270t229.5 -100q144 0 224.5 100.5t80.5 269.5zM381 1403h98q21 0 21 -21q0 -51 34.5 -78.5t96.5 -27.5t96.5 27.5t34.5 78.5q0 21 20 21h99q20 0 20 -21
q0 -114 -73.5 -177.5t-196.5 -63.5q-124 0 -197.5 63.5t-73.5 177.5q0 21 21 21z" />
    <glyph glyph-name="gdotaccent.alt" 
d="M641 -426q-178 0 -300 89t-134 245q0 20 20 20h119q21 0 21 -20q24 -94 88 -138t186 -44q146 0 209 84.5t63 246.5v74q-73 -65 -144 -96t-171 -31q-197 0 -324 143.5t-127 378.5q0 237 124.5 380t326.5 143q191 0 315 -134v93q0 20 21 20h119q20 0 20 -20v-947
q0 -224 -108.5 -355.5t-323.5 -131.5zM930 526q0 169 -80.5 270t-224.5 101q-149 0 -229.5 -100.5t-80.5 -270.5t80.5 -270t229.5 -100q144 0 224.5 100.5t80.5 269.5zM524 1237v176q0 21 21 21h176q20 0 20 -21v-176q0 -20 -20 -20h-176q-21 0 -21 20z" />
    <glyph glyph-name="gcommaaccent.alt" 
d="M641 -426q-178 0 -300 89t-134 245q0 20 20 20h119q21 0 21 -20q24 -94 88 -138t186 -44q146 0 209 84.5t63 246.5v74q-73 -65 -144 -96t-171 -31q-197 0 -324 143.5t-127 378.5q0 237 124.5 380t326.5 143q191 0 315 -134v93q0 20 21 20h119q20 0 20 -20v-947
q0 -224 -108.5 -355.5t-323.5 -131.5zM930 526q0 169 -80.5 270t-224.5 101q-149 0 -229.5 -100.5t-80.5 -270.5t80.5 -270t229.5 -100q144 0 224.5 100.5t80.5 269.5zM733 1552q-58 0 -76 -22t-18 -86v-39h94q21 0 21 -21v-208q0 -21 -21 -21h-209q-20 0 -20 21v301
q0 90 42 140t116 50h71q21 0 21 -20v-74q0 -21 -21 -21z" />
    <glyph glyph-name="left.arrow" 
d="M1149 776v-110q0 -21 -21 -21h-782l279 -278q15 -15 0 -29l-78 -78q-15 -14 -29 0l-407 408q-25 25 -25 53t25 53l407 408q14 14 29 0l78 -78q15 -14 0 -29l-279 -278h782q21 0 21 -21z" />
    <glyph glyph-name="right.arrow" 
d="M82 666v110q0 21 16 21h787l-279 278q-14 15 0 29l78 78q14 14 29 0l407 -408q25 -25 25 -53t-25 -53l-407 -408q-15 -14 -29 0l-78 78q-14 14 0 29l279 278h-783q-20 0 -20 21z" />
    <glyph glyph-name="up.arrow" 
d="M672 190h-111q-20 0 -20 21v782l-279 -278q-14 -15 -29 0l-77 78q-14 14 0 28l407 408q24 24 53 24q30 0 54 -24l407 -408q14 -14 0 -28l-78 -78q-14 -14 -28 0l-279 278v-782q0 -21 -20 -21z" />
    <glyph glyph-name="down.arrow" 
d="M561 1253h111q20 0 20 -20v-782l279 278q14 14 28 0l78 -78q14 -14 0 -28l-407 -408q-25 -25 -54 -25q-28 0 -53 25l-407 408q-14 14 0 28l77 78q15 15 29 0l279 -278v782q0 20 20 20z" />
    <glyph glyph-name="ul.arrow" 
d="M1042 367l-77 -80q-15 -15 -29 0l-553 555v-396q0 -20 -21 -20h-110q-21 0 -21 20v578q0 32 21 53t55 21h576q20 0 20 -21v-106q0 -21 -20 -21h-394l553 -555q14 -14 0 -28z" />
    <glyph glyph-name="ur.arrow" 
d="M268 287l-78 80q-14 14 0 28l553 555h-393q-20 0 -20 21v106q0 21 20 21h576q34 0 54.5 -21t20.5 -53v-578q0 -20 -20 -20h-111q-20 0 -20 20v396l-553 -555q-15 -15 -29 0z" />
    <glyph glyph-name="dl.arrow" 
d="M965 1124l77 -80q14 -14 0 -28l-553 -555h394q20 0 20 -21v-106q0 -21 -20 -21h-576q-34 0 -55 21t-21 53v578q0 20 21 20h110q21 0 21 -20v-396l553 555q14 14 29 0z" />
    <glyph glyph-name="dr.arrow" 
d="M190 1044l78 80q14 14 29 0l553 -555v396q0 20 20 20h111q20 0 20 -20v-578q0 -32 -20.5 -53t-54.5 -21h-576q-20 0 -20 21v106q0 21 20 21h393l-553 555q-14 14 0 28z" />
    <glyph glyph-name="orn.001" 
d="M1069 696v-676q0 -20 -20 -20h-865q-20 0 -20 20v676q0 21 20 21h865q20 0 20 -21zM979 635h-725v-553h725v553z" />
    <glyph glyph-name="orn.002" 
d="M1069 1008v-988q0 -20 -20 -20h-865q-20 0 -20 20v988q0 20 20 20h865q20 0 20 -20zM979 946h-725v-864h725v864z" />
    <glyph glyph-name="orn.003" 
d="M1069 1413v-1393q0 -20 -20 -20h-865q-20 0 -20 20v1393q0 21 20 21h865q20 0 20 -21zM979 1352h-725v-1270h725v1270z" />
    <glyph glyph-name="orn.004" 
d="M1069 1413v-1798q0 -21 -20 -21h-865q-20 0 -20 21v1798q0 21 20 21h865q20 0 20 -21zM979 1352h-725v-1676h725v1676z" />
    <glyph glyph-name="orn.005" 
d="M1069 696v-676q0 -20 -20 -20h-865q-20 0 -20 20v676q0 21 20 21h865q20 0 20 -21zM934 82l-318 237l-317 -237h635zM616 397l318 238h-635zM979 127v463l-309 -232zM254 590v-463l309 231z" />
    <glyph glyph-name="orn.006" 
d="M1069 1008v-988q0 -20 -20 -20h-865q-20 0 -20 20v988q0 20 20 20h865q20 0 20 -20zM979 131v766l-317 -383zM254 897v-766l317 383zM930 82l-314 377l-313 -377h627zM616 569l314 377h-627z" />
    <glyph glyph-name="orn.007" 
d="M1069 1413v-1393q0 -20 -20 -20h-865q-20 0 -20 20v1393q0 21 20 21h865q20 0 20 -21zM979 143v1147l-315 -573zM254 1290v-1147l315 574zM616 803l302 549h-603zM918 82l-302 549l-301 -549h603z" />
    <glyph glyph-name="orn.008" 
d="M1069 1413v-1798q0 -21 -20 -21h-865q-20 0 -20 21v1798q0 21 20 21h865q20 0 20 -21zM979 -254v1536l-313 -768zM254 1282v-1536l313 768zM909 -324l-293 717l-292 -717h585zM616 635l293 717h-585z" />
  </font>
</defs>
</svg>
